#VERSION:0.83;
#TITLE:AA~Renaissance Concertino Mix~;
#ARTIST:D.J.Amuro(Remixed by OSTER project);
#GENRE:RENAISSANCE;
#CREDIT:B. M'Rey;
#MUSIC:AA~Renaissance Concertino Mix~.ogg;
#BANNER:AA~Renaissance Concertino Mix~-BN.png;
#BACKGROUND:AA~Renaissance Concertino Mix~-bg.png;
#CDTITLE:CDTITLES/Konami Original Remix.png;
#SAMPLESTART:32.619;
#SAMPLELENGTH:15;
#OFFSET:-0.025;
#BPMS:0=179.939;

//--------------- dance-single - B. M'Rey ----------------
#NOTEDATA:;
#STEPSTYPE:dance-single;
#DESCRIPTION:B. M'Rey;
#DIFFICULTY:Beginner;
#METER:5;
#RADARVALUES:0,0,0,0,0;
#CREDIT:B. M'Rey;
#NOTES:
0000
0000
0000
0000
,
0000
0000
0000
0000
,
0000
0000
0000
0000
,
1000
0000
0001
0000
,
0100
0000
0010
0000
,
0100
0000
0010
0000
,
0001
0000
1000
0000
,
0110
0000
0000
0000
,
0001
0000
0010
0000
,
0001
0000
0100
0000
,
0010
0000
1000
0000
,
0100
0000
1000
0000
,
1001
0000
0010
0000
,
0001
0000
0100
0000
,
0010
0000
1000
0000
,
1001
0000
0000
0000
,
1000
0000
0010
0000
,
0100
0000
0001
0000
,
0010
0000
0000
1000
,
0100
0000
0010
0000
,
0001
0000
0100
0000
,
0010
0000
1000
0000
,
0001
0000
0000
0001
,
0010
0000
1000
0000
,
0110
0000
0001
0000
,
0010
0000
1000
0000
,
0100
0000
0000
0001
,
0010
0000
1000
0000
,
1001
0000
0010
0000
,
0100
0000
0010
0000
,
0101
0000
0000
0010
,
1000
0000
0010
0000
,
0100
0000
0001
0000
,
0010
0000
0001
0000
,
0100
0000
0010
0000
,
1000
0000
0100
0000
,
1001
0000
0010
0000
,
0100
0000
0010
0000
,
0001
0000
1000
0000
,
0001
0000
0000
0000
,
1000
0000
0010
0000
,
0100
0000
0010
0000
,
1000
0000
0001
0000
,
0100
0000
0000
0000
,
0010
0000
0001
0000
,
0010
0000
0001
0000
,
0100
0000
0010
0000
,
1000
0000
0000
0000
,
1001
0000
0000
0000
,
0100
0000
0000
0000
,
0010
0000
0000
0000
,
1000
0000
0000
0000
,
1001
0000
0000
0000
,
0010
0000
0000
0000
,
0101
0000
0000
0000
,
0000
0000
0000
0000
,
1001
0000
0000
0000
,
0000
0000
0000
0000
,
0000
0000
0000
0000
,
0000
0000
0000
0000
,
0000
0000
0000
0000
,
0000
0000
0000
0000
,
0000
0000
0000
0000
,
0000
0000
0000
0000
,
1000
0000
0001
0000
,
0010
0000
0001
0000
,
0100
0000
0010
0000
,
1000
0000
0010
0000
,
1001
0000
0000
0000
,
0110
0000
0000
0000
,
0101
0000
0000
0000
,
1001
0000
0000
0000
,
0000
0000
0000
0000
,
1000
0000
0010
0000
,
0100
0000
0010
0000
,
0001
0000
0010
0000
,
0001
0000
0100
0000
,
0110
0000
1000
0000
,
0100
0000
1000
0000
,
0010
0000
0100
0000
,
0001
0000
0010
0000
,
1001
0000
0010
0000
,
0100
0000
0001
0000
,
1000
0000
0000
0010
,
0100
0000
0001
0000
,
1001
0000
0010
0000
,
0100
0000
0010
0000
,
1001
0000
0000
0100
,
0010
0000
1000
0000
,
0001
0000
0010
0000
,
0001
0000
0010
0000
,
0100
0000
0010
0000
,
1000
0000
0001
0000
,
0100
0000
0010
0000
,
1000
0000
0100
0000
,
1000
0000
0010
0000
,
0001
0000
0000
0000
,
1000
0000
0010
0000
,
0100
0000
0010
0000
,
0100
0000
0001
0000
,
1000
0000
0010
0000
,
1000
0010
1000
0000
,
0001
0100
0001
0000
,
0010
0100
0010
0000
,
1000
0100
0010
0001
,
1001
0000
0000
0000
;

//--------------- dance-single - B. M'Rey ----------------
#NOTEDATA:;
#STEPSTYPE:dance-single;
#DESCRIPTION:B. M'Rey;
#DIFFICULTY:Easy;
#METER:7;
#RADARVALUES:0,0,0,0,0;
#CREDIT:B. M'Rey;
#NOTES:
0000
0000
0000
0000
,
0000
0000
0000
0000
,
0000
0000
0000
0000
,
1000
0000
0001
0000
,
0100
0010
0000
1000
,
0000
0001
0000
0100
,
0000
0010
0000
1000
,
1001
0000
0000
0000
,
0010
0100
1000
0010
,
0100
0001
0010
0100
,
0010
0001
1000
0010
,
0100
0010
1000
0010
,
1000
0001
0100
0001
,
1000
0010
1000
0100
,
1000
0001
0010
0100
,
0010
0000
0001
0000
,
1001
0000
0100
0001
,
0010
0100
1000
0010
,
0100
0001
0010
0100
,
1000
0010
0100
0010
,
1100
0000
1000
0100
,
0010
0001
0100
0010
,
1000
0100
0010
0001
,
0100
0010
1000
0100
,
1001
0000
0010
0000
,
1000
0000
0001
0000
,
0101
0000
0000
0010
,
1000
0100
0010
0001
,
0101
0000
0010
0000
,
1000
0000
0100
0000
,
0101
0000
0000
0010
,
1000
0000
0001
0000
,
1000
0001
1000
0010
,
1000
0010
1000
0010
,
1000
0010
0100
0010
,
0100
0001
0100
0001
,
0100
0001
0100
0001
,
1000
0001
0010
0100
,
0010
0100
0010
0100
,
0101
0000
1010
0000
,
0100
0001
0100
0001
,
0100
0001
0100
0001
,
0100
0010
1000
0010
,
1000
0010
1000
0010
,
1000
0010
0100
0001
,
0100
0001
0100
0001
,
0100
0001
0100
0010
,
1000
0010
1000
0010
,
1010
0000
0000
0000
,
0100
0000
0000
0000
,
0001
0000
0000
0000
,
0010
0000
0000
0000
,
1010
0000
0100
0000
,
0101
0000
0010
0000
,
1001
0000
0000
0000
,
0000
0000
0000
0000
,
0100
0000
0100
0000
,
0100
0000
0010
0000
,
0010
0000
0010
0000
,
0001
0000
0001
0000
,
1000
0000
1000
0000
,
1000
0000
0100
0000
,
0100
0000
0100
0000
,
0010
0000
0010
0000
,
0010
0100
1000
0000
,
1000
0001
0010
0000
,
1000
0100
1000
0000
,
0010
0100
1000
0000
,
1001
0000
0000
0000
,
0101
0000
0000
0000
,
0110
0000
1010
0000
,
1001
0000
0000
0000
,
0000
0000
0000
0000
,
0100
0010
0100
0010
,
1000
0010
1000
0100
,
0010
0001
0100
0010
,
0100
0010
1000
0001
,
0110
0000
1000
0001
,
0010
0001
1000
0010
,
0100
0010
1000
0010
,
1000
0001
0010
0001
,
0101
0000
0010
0000
,
1000
0000
0001
0000
,
0101
0000
0000
0010
,
1000
0100
0010
0001
,
0101
0000
0010
0000
,
1000
0000
0100
0000
,
0101
0000
0000
0010
,
1000
0000
0001
0000
,
1000
0001
1000
0001
,
1000
0010
1000
0010
,
1000
0010
0110
0000
,
0000
1000
0000
0010
0000
1000
0000
0000
,
1001
0001
1000
0001
,
1000
0001
0100
0001
,
0100
0010
0100
0001
,
0100
0000
0100
0000
,
0010
0001
0010
0001
,
0010
0100
0010
0100
,
0010
0100
1000
0100
,
1000
0100
1000
0010
,
1000
0001
1000
0001
,
0100
0010
0100
0001
,
1000
0001
1000
0001
,
1000
0001
1000
0001
,
0101
0000
0000
0000
;

//--------------- dance-single - B. M'Rey ----------------
#NOTEDATA:;
#STEPSTYPE:dance-single;
#DESCRIPTION:B. M'Rey;
#DIFFICULTY:Medium;
#METER:11;
#RADARVALUES:0,0,0,0,0;
#CREDIT:B. M'Rey;
#NOTES:
0000
0000
0000
0000
,
0000
0000
0000
0000
,
0000
0000
0000
0000
,
1000
0100
0010
0001
,
0110
0000
0000
0011
,
0000
0110
0000
1010
,
0000
1001
0000
0110
,
0011
0000
0000
0000
,
0100
0000
0001
0000
1000
0010
0100
0000
,
1000
0000
0010
0000
0010
0001
0010
0000
,
1000
0000
0100
0000
0100
0001
0010
0000
,
1100
0000
0110
0000
1000
0001
0100
0000
,
1000
0000
0010
0000
1000
0010
0100
0000
,
0100
0001
0010
0000
0100
0010
1000
0000
,
1000
0000
0100
0000
0100
0001
1000
0000
,
0010
0010
0100
0100
0110
0000
0011
0000
,
1100
0000
1000
0000
0100
0001
1000
0000
,
0100
0010
0100
0000
0100
0001
0010
0000
,
0011
0000
1000
0000
0010
0000
0010
0100
,
1000
0001
0010
0100
,
0110
0000
1000
0010
1000
0000
1000
0100
,
0010
0000
1000
0100
1000
0000
1000
0100
,
0010
0000
0100
0000
1000
0000
0100
0010
,
0100
1000
0100
0001
,
0110
0000
1000
0001
1000
0000
1000
0010
,
0100
0000
0100
0001
1000
0000
1000
0010
,
1000
0100
0101
0000
,
1000
0001
1000
0100
1000
0100
0010
0100
,
0010
0000
0010
0001
0100
0000
0100
0010
,
0100
0000
1000
0001
1000
0000
0010
0100
,
0010
0000
0100
0000
0010
0000
0010
0001
,
1000
0010
1000
0100
,
0010
0001
0010
0000
0010
0100
1000
0000
,
1000
0001
1000
0000
0010
0001
0010
0000
,
0100
0001
0010
0000
0010
0100
0010
0000
,
0000
0100
0000
1000
0000
0001
0000
1000
,
0100
0010
0100
0000
1000
0001
0010
0000
,
0010
0100
0010
0000
1000
0100
0010
0000
,
0010
0001
0010
0000
1000
0100
1000
0000
,
0011
0011
0101
0101
,
0100
0010
1000
0000
1000
0100
1000
0000
,
0010
0100
0010
0000
0100
0001
0100
0000
,
1000
0100
1000
0000
1000
0010
0100
0000
,
0000
0001
0000
0010
0000
0001
0000
0010
,
0001
0010
0001
0000
0010
0100
1000
0000
,
1000
0010
1000
0000
0100
0010
0100
0000
,
0100
0010
1000
0000
1000
0100
1000
0000
,
0110
0110
1100
1100
,
1000
0000
0000
0000
0000
0001
0100
0010
,
0000
0100
0000
1000
0000
0100
0000
0010
,
0100
0000
0000
0001
0000
1000
0000
0010
,
0000
0100
0000
0010
0000
0100
0000
0001
,
0100
0000
0000
0000
0010
1000
0010
1000
,
0000
0100
0000
0001
0000
0000
0000
0000
,
1001
0000
0000
0000
,
0000
0000
0000
0000
,
1000
0000
0001
0000
,
1000
0000
0001
0000
,
1000
0000
0010
0000
,
0100
0000
0001
0000
,
1000
0010
0100
0000
,
0001
0010
0001
0000
,
0100
0010
0100
0000
,
0001
0010
0001
0000
,
1000
0010
0100
0001
,
0010
0100
1000
0010
,
0100
0010
0100
0001
,
0010
0100
1000
0100
,
0011
0000
0000
0000
0000
0000
0000
0110
,
0110
0000
0000
0000
0000
0000
0000
1100
,
1100
0000
0000
0101
0101
0000
0000
0000
,
1000
0001
1000
0001
0100
0001
0100
0001
,
0200
0000
0000
0300
,
0100
1000
0100
0010
,
1000
0100
1000
0000
0100
0001
0010
0000
,
1000
0001
1000
0000
0010
0001
1000
0000
,
0100
0010
0100
0000
1000
0001
0100
0000
,
1010
0000
0101
0000
1000
0010
0100
0000
,
0010
0001
1000
0000
1000
0010
1000
0000
,
0010
0000
1000
0000
0010
0000
0100
0010
,
0100
0000
1000
0001
0010
0000
0100
0000
,
0101
0000
0001
0000
1000
0000
1000
0010
,
0100
0000
0100
0001
1000
0000
1000
0010
,
1000
0100
0101
0000
,
1000
0001
1000
0100
1000
0100
0010
0100
,
0010
0000
0010
0001
0100
0000
0100
0010
,
0100
0000
1000
0001
1000
0000
0010
0100
,
0010
0000
0100
0000
0010
0000
0010
0001
,
1000
0010
1000
0100
,
0010
0001
0010
0000
0010
0100
1000
0000
,
1000
0001
1000
0000
0010
0001
0010
0000
,
0100
0001
0010
0000
0010
0100
0010
0000
,
0000
0100
0000
1000
0000
0001
0000
1000
,
0100
0010
0100
0000
1000
0001
0010
0000
,
0010
0100
0010
0000
1000
0100
0010
0000
,
0010
0001
0010
0000
1000
0100
1000
0000
,
0011
0011
0101
0101
,
0100
0010
1000
0000
1000
0100
1000
0000
,
0010
0100
0010
0000
0100
0001
0100
0000
,
1000
0100
1000
0000
1000
0010
0100
0000
,
0000
0001
0000
0010
0000
0001
0000
0010
,
0001
0010
0001
0000
0010
0100
1000
0000
,
1000
0010
1000
0000
0100
0010
0100
0000
,
0100
0010
1000
0000
1000
0100
1000
0000
,
0110
0110
1100
1100
,
1001
0000
0000
0000
;

//--------------- dance-single - B. M'Rey ----------------
#NOTEDATA:;
#STEPSTYPE:dance-single;
#DESCRIPTION:B. M'Rey;
#DIFFICULTY:Hard;
#METER:16;
#RADARVALUES:0,0,0,0,0;
#CREDIT:B. M'Rey;
#NOTES:
0000
0000
0000
0000
,
0000
0000
0000
0000
,
0000
0000
0000
0000
,
0100
0001
0010
0001
,
1000
0001
1000
0000
1000
0100
0010
0000
,
0010
0100
1000
0000
1000
0001
1000
0000
,
0100
0010
0100
0000
1000
0001
0010
0000
,
1001
0001
1000
0100
,
1000
0010
0100
0001
0010
0001
1000
0100
,
1000
0001
0010
0100
1000
0001
0100
0010
,
0100
0010
0100
0001
1000
0010
0100
0001
,
0010
0001
0010
0100
1000
0010
1000
0001
,
1000
0010
0100
0001
1000
0100
0010
0001
,
0010
0100
1000
0001
0100
0001
0100
0010
,
1000
0010
1000
0100
0010
0001
1000
0100
,
1100
1100
0110
0101
1001
1001
0110
0000
,
0011
0000
0000
0000
0100
0000
0010
0000
0100
0001
0100
0000
0100
0000
0010
0000
,
1000
0001
1000
0000
0100
0000
0010
0000
0100
0010
0100
0000
1000
0000
0010
0000
,
0100
0001
0100
0000
0100
0000
0010
0000
1000
0000
0001
0000
0010
0000
0100
0000
,
0010
0001
0000
0000
1000
0010
0000
0000
0100
0001
0000
0000
0100
0001
0000
0000
,
0110
0000
0000
0000
1000
0000
0001
0000
0010
0100
0010
0000
0010
0000
0001
0000
,
1000
0010
1000
0000
1000
0000
0100
0000
0010
0001
0010
0000
0010
0000
0001
0000
,
1000
0010
1000
0000
1000
0000
0010
0000
1000
0000
0001
0000
0010
0000
0100
0000
,
1000
0000
0010
0000
0001
1000
0001
0000
0010
0000
0100
0000
0010
1000
0010
0000
,
1001
0000
0000
0000
0010
0000
0100
0000
1000
0100
1000
0000
0010
0000
0100
0000
,
1000
0010
1000
0000
1000
0000
0001
0000
0010
0100
0010
0000
1000
0000
0100
0010
,
0100
0000
0001
0000
1000
0000
0100
0000
1000
0000
0010
1000
0010
0000
0010
0001
,
0010
0000
0010
0001
0010
0000
1000
0100
1000
0000
0001
0100
0001
0000
0001
0010
,
0001
0000
0100
0000
0010
0000
0100
0000
1000
0001
1000
0000
0010
0000
0100
0000
,
0010
0100
0010
0000
1000
0000
0001
0000
0100
0010
0100
0000
1000
0000
0001
0100
,
0001
0010
0100
0010
1000
0010
0100
0001
,
0010
0100
1000
0100
,
1000
0010
0000
0010
1000
0000
0010
0000
0100
0010
0000
0010
1000
0000
0001
0000
,
0010
0100
0000
0100
1000
0000
0100
0000
0010
0001
0000
0001
0010
0000
0001
0000
,
1000
0010
0000
0010
0100
0000
0001
0000
1000
0010
0000
0010
0100
0000
0001
0000
,
1000
0010
0100
0001
0100
0001
0100
0010
,
1000
0001
0000
0001
1000
0000
0001
0000
1000
0010
0000
0010
0100
0000
0001
0000
,
0010
0100
0000
0100
0010
0000
0100
0000
1000
0001
0000
0001
0010
0000
0100
0000
,
1000
0001
0000
0001
0100
0000
0001
0000
0010
0100
0000
0100
0010
0000
0001
0000
,
1100
0011
0110
1010
,
1100
0000
0000
0001
0100
0000
0010
0000
0100
0001
0000
0001
1000
0000
0010
0000
,
0100
0001
0000
0001
1000
0000
0001
0000
0100
0010
0000
0010
0100
0000
0010
0000
,
0100
0001
0000
0001
1000
0000
0010
0000
1000
0100
0000
0100
0010
0000
0001
0000
,
1000
0010
0000
0000
0010
0001
0000
0000
0010
0100
0000
0000
1000
0001
0000
0000
,
1000
0100
0000
0100
0010
0000
0100
0000
1000
0010
0000
0010
1000
0000
0100
0000
,
0010
0001
0000
0001
0100
0000
0001
0000
1000
0010
0000
0010
1000
0000
0010
0000
,
0100
0001
0000
0001
1000
0000
0100
0000
0010
0100
0000
0100
0010
0000
0001
0000
,
0100
0010
0100
0010
0100
0010
0001
0100
0001
0100
0001
0100
0001
0010
0100
1000
,
0100
0000
0001
0000
1000
0001
0010
1000
,
0100
0000
0000
0001
0000
0000
1000
0000
0000
0000
0010
0000
0000
0000
0001
0100
,
0001
0000
0010
1000
0000
0001
0000
1000
,
0000
0000
0100
0000
0000
0000
0010
0000
0000
0000
0100
0000
0000
0000
0001
1000
,
0001
0000
0010
0001
0010
0100
1000
0001
,
0000
0100
0000
0001
0000
0100
0000
0001
,
1100
0000
0000
0000
,
0000
0000
0000
0000
,
1000
0000
0000
0001
0000
0000
1000
0000
0000
0001
0000
0000
1000
0000
0000
0001
,
0000
0000
1000
0000
0000
0001
0000
0000
1000
0000
0000
0000
0001
0000
0000
0000
,
0010
0100
1000
0100
,
0001
0000
0000
0010
0000
0000
0100
0000
1000
0000
0000
0001
0000
0000
1000
0000
,
0100
0000
0000
0001
0000
0000
0100
0000
0010
0000
0000
1000
0000
0000
0010
0000
,
0100
0000
0000
0001
0000
0000
1000
0000
0010
0000
0000
0100
0000
0000
0001
0000
,
1000
0000
0000
0001
0000
0000
1000
0000
0010
0000
0000
0100
0000
0000
0010
0000
,
0001
0000
0000
1000
0000
0000
0000
0000
1010
0000
0000
0000
0101
0000
0000
0000
,
0001
1000
0001
0000
0100
0010
0001
0000
,
0010
0100
0010
0000
0001
0100
0001
0000
,
1000
0010
1000
0000
0001
0100
0001
0000
,
0100
0010
0100
0000
0010
0100
0001
0000
,
1001
0000
0000
0000
0000
0000
0000
0101
,
1010
0000
0000
0000
0000
0000
0000
0010
,
0001
1000
0100
1000
0100
1000
0001
1000
,
0220
0000
0000
0000
,
0330
0000
0000
1001
,
1000
0100
1000
0001
1000
0100
0010
0001
,
0010
0001
0010
0000
1000
0000
0010
0000
1000
0100
1000
0000
0010
0000
0100
0000
,
1000
0001
1000
0000
0010
0000
0100
0000
1000
0001
1000
0000
0010
0000
0001
0000
,
1000
0010
1000
0000
1000
0000
0001
0000
0100
0001
0100
0000
0010
0000
0100
0000
,
0011
0000
0000
0000
1100
0000
0000
0000
0010
0001
0010
0000
1000
0000
0010
0000
,
0100
0010
0100
0000
0100
0000
0001
0000
1000
0100
1000
0000
1000
0000
0100
0000
,
1000
0001
1000
0000
0100
0000
0001
0000
0010
0000
0001
0000
0100
0000
0010
0000
,
0100
1000
0010
1000
,
1001
0000
0000
0000
1000
0000
0010
0000
0001
0010
0001
0000
0100
0000
0010
0000
,
0001
0100
0001
0000
0001
0000
1000
0000
0100
0010
0100
0000
0001
0000
0010
0100
,
0010
0000
1000
0000
0001
0000
0010
0000
0001
0000
0100
0001
0100
0000
0100
1000
,
0100
0000
0100
1000
0100
0000
0001
0010
0001
0000
1000
0010
1000
0000
1000
0100
,
1000
0000
0010
0000
0100
0000
0010
0000
0001
1000
0001
0000
0100
0000
0010
0000
,
0100
0010
0100
0000
0001
0000
1000
0000
0010
0100
0010
0000
0001
0000
1000
0010
,
1000
0100
0010
0100
0001
0100
0010
1000
,
0100
0010
0001
0010
,
0001
0100
0000
0100
0001
0000
0100
0000
0010
0100
0000
0100
0001
0000
1000
0000
,
0100
0010
0000
0010
0001
0000
0010
0000
0100
1000
0000
1000
0100
0000
1000
0000
,
0001
0100
0000
0100
0010
0000
1000
0000
0001
0100
0000
0100
0010
0000
1000
0000
,
0101
1010
1010
0110
,
0001
1000
0000
1000
0001
0000
1000
0000
0001
0100
0000
0100
0010
0000
1000
0000
,
0100
0010
0000
0010
0100
0000
0010
0000
0001
1000
0000
1000
0100
0000
0010
0000
,
0001
1000
0000
1000
0010
0000
1000
0000
0100
0010
0000
0010
0100
0000
1000
0000
,
0010
0001
0100
1000
0100
0010
0100
0001
,
0010
0000
0001
1000
0010
0000
0100
0000
0010
1000
0000
1000
0001
0000
0100
0000
,
0010
1000
0000
1000
0001
0000
1000
0000
0010
0100
0000
0100
0010
0000
0100
0000
,
0010
1000
0000
1000
0001
0000
0100
0000
0001
0010
0000
0010
0100
0000
1000
0000
,
0001
0100
0000
0000
0100
1000
0000
0000
0100
0010
0000
0000
0001
1000
0000
0000
,
0001
0010
0000
0010
0100
0000
0010
0000
0001
0100
0000
0100
0001
0000
0010
0000
,
0100
1000
0000
1000
0010
0000
1000
0000
0001
0100
0000
0100
0001
0000
0100
0000
,
0010
1000
0000
1000
0001
0000
0010
0000
0100
0010
0000
0010
0100
0000
1000
0000
,
0010
0100
0010
0100
0010
0100
1000
0010
1000
0010
1000
0010
1000
0100
0010
0001
,
1000
0000
0000
0000
;

//--------------- dance-single - B. M'Rey ----------------
#NOTEDATA:;
#STEPSTYPE:dance-single;
#DESCRIPTION:B. M'Rey;
#DIFFICULTY:Challenge;
#METER:18;
#RADARVALUES:0,0,0,0,0;
#CREDIT:B. M'Rey;
#NOTES:
0000
0000
0000
0000
,
0000
0000
0000
0000
,
0000
0000
0000
0000
,
0010
0100
0010
1000
0010
0100
0001
0010
,
1000
0000
0100
0010
0001
0000
0010
0000
0100
0000
0001
0100
0001
0000
1000
0000
,
0010
0000
0100
1000
0010
0000
0001
0000
0100
0000
1000
0100
0010
0000
0001
0000
,
0010
0000
0100
1000
0100
0000
0001
0000
0100
0000
0001
0010
0100
0000
0001
0000
,
0110
0000
0010
1000
0010
0000
0001
0010
0100
0000
0010
1000
0100
0000
0010
0000
,
0110
0000
0010
0100
0010
0000
0001
1000
0001
1000
0100
0010
0100
0010
0100
1000
,
0001
0000
0001
1000
0100
0000
0100
1000
0001
0100
0001
0100
0001
1000
0010
0100
,
0010
0000
0010
1000
0001
0000
0001
0010
0001
0010
0100
0010
0100
1000
0001
1000
,
0001
0000
0100
0000
0100
0000
0100
1000
0010
1000
0010
1000
0001
0010
0001
0010
,
0001
0000
0010
0100
0010
0000
0001
1000
0001
1000
0001
0010
0100
0000
0100
0010
,
0001
0000
0001
1000
0001
0000
0100
0010
0100
0010
0001
0100
0010
0100
0010
0100
,
0001
0000
1000
0000
0001
0000
0010
0100
0010
0100
0001
1000
0001
0010
0001
0000
,
1100
0000
1100
0000
0110
0000
0101
0000
0001
1000
0001
0000
0110
0000
0000
0010
,
0001
0000
0001
1000
0001
0000
0100
0010
0100
0010
0001
0100
0001
0000
0001
1000
,
0100
1000
0100
1000
0010
0000
0010
0100
0010
1000
0100
1000
0100
0000
0001
0100
,
0001
0000
0001
0100
0001
0000
0100
0010
0001
1000
0100
0010
0100
0000
1000
0000
,
0010
1000
0010
0000
0100
0010
0100
0000
0100
1000
0010
0000
0100
1000
0100
0000
,
0110
0000
0001
0010
0001
0000
0001
1000
0100
1000
0100
0010
0001
0000
0001
0100
,
0001
0100
0010
0100
0010
0000
0010
1000
0001
1000
0010
0100
0010
0000
0010
1000
,
0001
0000
0001
0010
0100
0000
1000
0000
0100
0000
0001
0000
1000
0000
0001
0010
,
0100
0000
0000
0000
0100
0000
1000
0000
0001
1000
0001
1000
0001
0000
0000
0000
0010
0000
0100
0000
0010
0000
0000
0000
0010
1000
0010
1000
0010
0000
0000
0000
,
0101
0000
0001
1000
0010
0000
0010
0100
0010
0000
0100
1000
0001
0000
0100
0010
,
0001
0000
0010
1000
0010
0000
0001
0010
0100
0000
0100
0010
0001
0000
0001
0010
,
0001
0000
0100
0010
0100
0000
0100
1000
0001
0000
0001
1000
0010
0100
0010
0100
,
0010
1000
0100
1000
0010
0100
0010
0100
0010
1000
0001
1000
0001
1000
0100
0010
,
0100
0000
0001
0010
0001
0000
0001
1000
0100
0000
0100
0010
0100
0000
0001
0100
,
0001
0000
0001
0010
0100
0000
0100
0010
0001
0000
0100
1000
0001
0000
0010
0100
,
0010
0000
0010
1000
0100
0000
0100
0010
0100
0000
0001
0010
0001
0000
0001
0100
,
0010
0000
0100
0000
0010
0000
1000
0000
0001
1000
0001
1000
0001
0000
1000
0000
0010
0000
0100
0000
0010
0000
0100
0000
0010
1000
0010
1000
0010
0000
0000
0000
,
0001
0010
0000
0010
0001
1000
0100
1000
0100
0000
0010
0001
0000
0100
0010
0000
,
0010
0100
0010
1000
0100
0000
0001
1000
0001
0100
0001
0100
0010
0000
0010
1000
,
0001
0010
0001
0010
0001
0000
0100
1000
0100
0000
0100
1000
0010
0000
0001
0100
,
0001
0100
0001
0010
0000
0010
0100
0010
0000
1000
0001
1000
0000
1000
0001
0100
,
0010
1000
0010
1000
0010
0000
0001
0100
0001
0000
0001
0100
0010
0000
0010
1000
,
0010
1000
0100
0010
0100
0000
0100
1000
0001
1000
0001
0100
0001
0000
0100
1000
,
0100
1000
0100
0010
0000
0001
0010
0000
0001
0100
0000
0100
0010
0000
0010
1000
,
0001
1000
0001
1000
0100
0010
0100
0010
0100
0010
0001
1000
0001
1000
0001
1000
,
0010
0100
0000
0100
0010
0000
0001
0010
0001
0010
0100
0010
0100
0000
0100
1000
,
0001
1000
0010
0100
0010
0000
0010
1000
0001
1000
0001
0100
0001
0000
0010
0100
,
0001
1000
0001
1000
0001
0000
0010
0100
0010
0000
0001
1000
0010
0000
0010
0100
,
0010
0000
0100
0000
0001
0010
0001
0010
0001
0000
0000
0000
0001
0000
0010
0000
0100
0000
1000
0000
0100
0000
1000
0000
0100
0000
0000
0000
0001
0000
0010
0000
,
0001
0010
0000
0001
0000
1000
0100
1000
0100
0010
0000
0100
0000
0010
0100
1000
,
0001
1000
0001
0010
0000
0100
0010
0000
0001
0010
0001
0010
0001
0000
0100
1000
,
0010
1000
0001
0010
0000
0100
0001
0100
0001
0100
0000
1000
0000
0010
0001
0000
,
0001
0010
0001
1000
0100
0010
0100
0010
0100
0010
0001
1000
0001
1000
0010
0100
,
0010
0100
1000
0010
0000
0001
0000
0001
,
0100
0000
0001
0000
1000
0000
0010
0000
0000
0000
0001
0000
0000
0000
0010
1000
,
0010
0100
0000
0001
0000
0010
0000
0100
,
0000
1000
0000
0001
0000
0100
0000
0010
,
0100
0001
0100
0000
0010
1000
0001
0000
0010
0000
0100
0000
1000
0000
0010
0000
,
0100
0010
0001
0000
1000
0100
0001
0000
1000
0000
0100
0000
0010
0000
0001
0000
,
1000
0001
0100
0010
1000
0001
0100
0010
1000
0001
0010
0100
1000
0001
0100
0010
,
1000
0001
0100
0010
1000
0001
0010
0100
1000
0010
0100
0001
1000
0100
0010
0001
,
1000
0001
0000
0001
0010
0000
0001
0010
0000
0010
0001
0000
1000
0010
0000
0010
,
1000
0000
0010
1000
0000
1000
0001
0000
0100
0001
0000
0001
0100
0000
0001
0000
,
1000
0100
1000
0100
0010
0100
0010
0001
,
0010
0001
0100
0010
0100
0010
0100
0001
,
1000
0010
0001
1000
0100
0000
0001
0000
0010
0100
0000
0100
0010
0000
0100
0000
,
0010
0001
0010
0001
0100
0000
0001
0000
0100
0001
0000
0001
0010
0000
0100
0000
,
0010
0100
0010
0100
0010
0000
0001
0000
1000
0001
0000
0001
0100
0000
0001
0000
,
0100
0010
0100
0010
0100
0000
0010
0000
1000
1010
0000
0000
1000
0110
0000
0000
,
1000
0001
1000
0001
1000
0000
0001
0000
0010
0001
0000
0001
0010
0000
0100
0000
,
0010
0100
0010
0100
1000
0000
0100
0000
1000
0001
0000
1000
0001
0000
0001
0000
,
0100
0001
0100
0001
0100
0000
0010
0000
0100
0010
0000
0010
1000
0000
0010
0000
,
1000
0001
1000
0001
1000
0000
0100
0000
0010
0100
0010
0100
0010
0000
0100
0000
,
1001
0000
0000
0000
0000
0000
0000
0101
,
1010
0000
0000
0000
0000
0000
0000
1000
,
0001
0000
0000
0000
1000
0001
1000
0001
1000
0000
0000
0000
1000
0000
0000
0000
0010
0100
0010
0100
0010
0000
0000
0000
0010
0000
0000
0000
0100
0000
0000
0000
,
1000
0001
0100
0010
1000
0100
0010
0001
1000
0100
0010
0001
0100
0010
1000
0100
,
0010
0000
0000
1001
,
1000
0010
0000
0100
0010
0000
0100
0000
1000
0001
0010
1000
0100
0000
0001
0000
,
0010
0100
0010
0000
1000
0000
0001
0000
0100
0001
0100
0000
1000
0000
0001
0000
,
0010
0100
0010
0000
1000
0000
0010
0000
0100
0010
0100
0000
1000
0000
0010
0000
,
0100
0001
0100
0000
0001
0000
0010
0000
0100
0010
0100
0010
1000
0000
0100
0000
,
1000
0010
0000
0010
1000
0000
0100
0000
0010
0001
0010
0000
1000
0000
0001
0000
,
0100
0010
0100
0000
0100
0000
0001
0000
0010
0100
0010
0000
1000
0000
0001
0000
,
0100
0010
0100
0000
1000
0000
0100
0000
1000
0000
0010
0000
0100
0001
0100
0000
,
0010
0000
0001
0000
0010
0000
0000
0000
0100
0001
0100
0001
0100
0000
0000
0000
0010
0000
0001
0000
0100
0000
0000
0000
1000
0100
1000
0100
1000
0000
0000
0000
,
0010
0001
0000
0100
1000
0000
0010
0000
0100
0001
0100
0000
0010
0100
0000
0100
,
1000
0010
1000
0000
0100
0001
0000
0001
0010
0001
0010
0000
0100
0010
0000
1000
,
0010
1000
0100
0000
1000
0000
0010
0000
0100
0000
0001
1000
0001
0000
0010
1000
,
0010
0000
0100
0010
0100
0000
0100
0010
0100
0000
0001
0010
0001
0000
0100
1000
,
0100
0000
0010
0000
0100
0001
0000
0001
1000
0100
1000
0000
0010
0100
0000
0100
,
0010
0001
0010
0000
0010
0001
0000
0001
1000
0100
1000
0000
1000
0100
0000
1000
,
0100
0010
0001
0000
0010
0000
0100
0000
1000
0000
0010
0000
0100
0001
0100
0000
,
0010
0001
0010
0000
0100
0000
0010
0000
1000
0010
1000
0000
0100
0000
0010
0000
,
0010
0100
0000
0100
0010
0000
0001
0000
1000
0001
1000
0001
1000
0000
0010
0000
,
0100
0001
0000
0001
1000
0000
0010
0100
0010
0100
0001
0010
0000
0000
0010
0000
,
1000
0001
0000
0001
0010
0000
0110
0000
1000
0001
0000
0001
0100
0000
0010
0000
,
1000
0100
1000
0100
0010
0000
0001
0000
0100
0010
0100
0010
1000
0000
0001
0000
,
0100
0010
0000
0010
1000
0000
0100
0000
0010
0001
0010
0001
0010
0000
0100
0000
,
1000
0010
1000
0010
0100
0000
0001
0000
0100
0010
0100
0010
1000
0000
0001
0000
,
0010
0100
0010
0100
0010
0000
0001
0000
1000
0001
1000
0001
0100
0000
0010
0000
,
1000
0001
1000
0001
0010
0001
0010
0001
0100
0001
0100
0001
0100
0010
0100
0000
,
1000
0001
1000
0010
1000
0010
0100
0010
0100
0001
0100
0010
1000
0010
1000
0010
,
0100
0001
0100
0010
0100
0010
1000
0010
1000
0001
1000
0001
0010
0001
0010
0100
,
0010
0000
0100
0000
1000
0000
0100
0000
1000
0010
1000
0010
1000
0000
0100
0000
0010
0000
0000
0000
0001
0010
0001
0010
0001
0000
1000
0000
0010
0100
0010
0100
,
0010
0000
0001
0000
1000
0100
1000
0100
1000
0000
0001
0000
0010
0100
0010
0100
0010
0000
0001
0000
0010
0000
0001
0000
0010
0000
0001
0000
0010
0000
1000
0000
,
0100
0001
1000
0010
0100
0001
1000
0010
0100
0001
1000
0100
0010
0001
0100
0010
,
1000
0001
0010
0100
1000
0001
0100
0010
1000
0001
0010
0100
1000
0010
0100
0001
,
1000
0010
0100
0001
1000
0100
0010
0001
0100
0010
1000
0100
0010
0001
1000
0010
,
0100
0001
1000
0100
0010
0001
1000
0010
0100
0001
0010
0100
1000
0010
0100
0001
,
1000
0000
0000
0000
;

//--------------- dance-double - B. M'Rey ----------------
#NOTEDATA:;
#STEPSTYPE:dance-double;
#DESCRIPTION:B. M'Rey;
#DIFFICULTY:Easy;
#METER:7;
#RADARVALUES:0,0,0,0,0;
#CREDIT:B. M'Rey;
#NOTES:
00000000
00000000
00000000
00000000
,
00000000
00000000
00000000
00000000
,
00000000
00000000
00000000
00000000
,
00001000
00000000
00010000
00000000
,
00000010
00000000
00000100
00000000
,
00000010
00000000
00000100
00000000
,
00001000
00000000
00000001
00000000
,
00000110
00000000
00000000
00000000
,
00001000
00000010
00000100
00000010
,
00000001
00000100
00000010
00001000
,
00000010
00010000
00001000
01000000
,
00010000
01000000
00001000
01000000
,
00001000
00100000
00010000
00100000
,
00001000
00010000
00001000
01000000
,
00001000
00100000
00010000
01000000
,
00010000
00000000
10000000
00000000
,
10100000
00000000
00010000
10000000
,
01000000
00100000
00010000
01000000
,
00001000
00100000
00010000
10000000
,
00100000
01000000
00010000
01000000
,
00011000
00000000
00010000
00100000
,
00001000
00010000
00000100
00001000
,
00000010
00000100
00000001
00001000
,
00000010
00000100
00000001
00001000
,
00000101
00000000
00000010
00000000
,
00000001
00000000
00001000
00000000
,
00001100
00000000
00000000
00010000
,
00001000
01000000
00010000
10000000
,
10100000
00000000
01000000
00000000
,
00010000
00000000
00100000
00000000
,
00011000
00000000
00000000
01000000
,
00010000
00000000
10000000
00000000
,
00010000
10000000
00010000
01000000
,
00010000
01000000
00010000
01000000
,
00010000
01000000
00001000
01000000
,
00001000
00100000
00001000
00100000
,
00001000
00100000
00001000
00100000
,
00010000
00100000
00001000
00010000
,
00001000
00010000
00001000
00010000
,
00001100
00000000
00000101
00000000
,
00000010
00001000
00000010
00001000
,
00000010
00001000
00000010
00001000
,
00000010
00010000
00000100
00010000
,
00000100
00010000
00000100
00010000
,
00000100
00010000
00001000
01000000
,
00001000
01000000
00001000
01000000
,
00001000
01000000
00001000
00010000
,
00000100
00010000
00000100
00010000
,
00001100
00000000
00000000
00000000
,
00000001
00000000
00000000
00000000
,
00000010
00000000
00000000
00000000
,
00000100
00000000
00000000
00000000
,
00001100
00000000
00000010
00000000
,
00001010
00000000
00010000
00000000
,
00001100
00000000
00000000
00000000
,
00000000
00000000
00000000
00000000
,
00000010
00000000
00000010
00000000
,
00000010
00000000
00000100
00000000
,
00000100
00000000
00000100
00000000
,
00001000
00000000
00001000
00000000
,
00000001
00000000
00000001
00000000
,
00000001
00000000
00000010
00000000
,
00000010
00000000
00000010
00000000
,
00000100
00000000
00000100
00000000
,
00000100
00000010
00000001
00000000
,
00000001
00001000
00000100
00000000
,
00000010
00001000
00000010
00000000
,
00010000
00001000
00000100
00000000
,
00001010
00000000
00000000
00000000
,
00001100
00000000
00000000
00000000
,
00010100
00000000
00010010
00000000
,
00001010
00000000
00000000
00000000
,
00000000
00000000
00000000
00000000
,
00000100
00010000
00000100
00010000
,
00001000
00010000
00001000
00100000
,
00010000
01000000
00100000
10000000
,
00100000
10000000
01000000
00100000
,
10100000
00000000
00010000
00100000
,
01000000
00100000
00010000
10000000
,
01000000
10000000
00010000
10000000
,
00010000
01000000
00100000
01000000
,
01010000
00000000
00100000
00000000
,
00001000
00000000
01000000
00000000
,
01010000
00000000
00000000
10000000
,
00100000
01000000
00010000
10000000
,
11000000
00000000
00100000
00000000
,
00010000
00000000
01000000
00000000
,
00011000
00000000
00000000
00100000
,
00010000
00000000
10000000
00000000
,
00010000
10000000
00010000
10000000
,
00010000
00100000
00010000
00100000
,
00010000
00100000
01100000
00000000
,
00000000
00010000
00000000
00100000
00000000
00010000
00000000
00000000
,
01010000
01000000
00010000
01000000
,
00010000
01000000
00001000
01000000
,
00001000
00100000
00001000
00010000
,
00001000
00000000
00001000
00000000
,
00000100
00010000
00000100
00010000
,
00000100
00001000
00000100
00001000
,
00000100
00001000
00000001
00001000
,
00000001
00001000
00000001
00000010
,
00000001
00001000
00000001
00001000
,
00000010
00010000
00000010
00001000
,
00000001
00001000
00000001
00001000
,
00000001
00001000
00000001
00001000
,
00001100
00000000
00000000
00000000
;

//--------------- dance-double - B. M'Rey ----------------
#NOTEDATA:;
#STEPSTYPE:dance-double;
#DESCRIPTION:B. M'Rey;
#DIFFICULTY:Medium;
#METER:11;
#RADARVALUES:0,0,0,0,0;
#CREDIT:B. M'Rey;
#NOTES:
00000000
00000000
00000000
00000000
,
00000000
00000000
00000000
00000000
,
00000000
00000000
00000000
00000000
,
00001000
00000000
00010000
00000000
,
00000010
00001000
00000000
00000100
,
00000000
00010000
00000000
00001000
,
00000000
01000000
00000000
00010000
,
00110000
00000000
00000000
00000000
,
01000000
00000000
00100000
00000000
00001000
00010000
00000100
00000000
,
00001000
00000000
00010000
00000000
00010000
01000000
00010000
00000000
,
00001000
00000000
00100000
00000000
00100000
01000000
00001000
00000000
,
10010000
00000000
10100000
00000000
00010000
10000000
01000000
00000000
,
00010000
00000000
00100000
00000000
00010000
00100000
00001000
00000000
,
00001000
00010000
00000010
00000000
00000100
00000010
00000001
00000000
,
00000001
00000000
00000010
00000000
00000010
00000100
00000001
00000000
,
00001000
00001000
00000100
00000100
00001100
00000000
00010010
00000000
,
00001001
00000000
00000001
00000000
00000100
00001000
00000010
00000000
,
00010000
00001000
00010000
00000000
00010000
10000000
01000000
00000000
,
11000000
00000000
00100000
00000000
01000000
00000000
01000000
00100000
,
00001000
00010000
00000100
00001000
,
00001100
00000000
00000001
00000010
00000001
00000000
00000001
00000100
,
00001000
00000000
00000010
00010000
00000010
00000000
00000010
00010000
,
00001000
00000000
00010000
00000000
00000100
00000000
00010000
00000010
,
00010000
00001000
00010000
00100000
,
00011000
00000000
00000100
00001000
00000100
00000000
00000100
00010000
,
00001000
00000000
00001000
00100000
01000000
00000000
01000000
10000000
,
01000000
00100000
10100000
00000000
,
00010000
10000000
00010000
01000000
00010000
01000000
00001000
01000000
,
00001000
00000000
00001000
00010000
00000010
00000000
00000010
00000001
,
00000010
00000000
00000100
00001000
00000100
00000000
00010000
00001000
,
00010000
00000000
00001000
00000000
00010000
00000000
00010000
00100000
,
00001000
01000000
00001000
00100000
,
01000000
10000000
01000000
00000000
01000000
00100000
00010000
00000000
,
00010000
10000000
00010000
00000000
00100000
10000000
00100000
00000000
,
00010000
01000000
00001000
00000000
00001000
00010000
00001000
00000000
,
00000000
00010000
00000000
00000100
00000000
00001000
00000000
00000100
,
00000010
00000001
00000010
00000000
00000100
00010000
00001000
00000000
,
00001000
00000100
00001000
00000000
00000001
00000100
00000010
00000000
,
00000010
00001000
00000010
00000000
00000100
00001000
00000100
00000000
,
01010000
01010000
01001000
01001000
,
00001000
00100000
00010000
00000000
00010000
10000000
00010000
00000000
,
00100000
01000000
00100000
00000000
01000000
10000000
01000000
00000000
,
00010000
01000000
00010000
00000000
00010000
10000000
01000000
00000000
,
00000000
00100000
00000000
00001000
00000000
00100000
00000000
00001000
,
00100000
00001000
00100000
00000000
00001000
00010000
00000100
00000000
,
00000100
00001000
00000100
00000000
00000010
00000001
00000010
00000000
,
00000010
00001000
00000100
00000000
00000100
00010000
00000100
00000000
,
00011000
00011000
00010010
00010010
,
00001010
00000000
00000000
00000000
,
00000100
00000000
00000000
00000000
,
00010000
00000000
00000000
00000000
,
00000010
00000000
00000000
00000000
,
01001000
00000000
00000000
00000000
01000000
00001000
01000000
00001000
,
00000000
00010000
00000000
00100000
00000000
00000000
00000000
00000000
,
01010000
00000000
00000000
00000000
,
00000000
00000000
00000000
00000000
,
00010000
00000000
01000000
00000000
,
00010000
00000000
01000000
00000000
,
00010000
00000000
00100000
00000000
,
00001000
00000000
00010000
00000000
,
00000100
00000010
00000001
00000000
,
00001000
00000100
00001000
00000000
,
00000001
00000100
00000001
00000000
,
00001000
00000010
00001000
00000000
,
00000001
00000100
00000010
00010000
,
00001000
01000000
00100000
10000000
,
00010000
10000000
00010000
00100000
,
00001000
01000000
00010000
01000000
,
10100000
00000000
00000000
00000000
00000000
00000000
00000000
11000000
,
11000000
00000000
00000000
00000000
00000000
00000000
00000000
01010000
,
01010000
00000000
00000000
00011000
00011000
00000000
00000000
00000000
,
00000100
00010000
00000100
00010000
00001000
00010000
00001000
00010000
,
00002000
00000000
00000000
00003000
,
00001000
00000010
00001000
00010000
,
00000100
00000010
00000100
00000000
00000010
00001000
00000010
00000000
,
00000001
00001000
00000001
00000000
00000010
00001000
00000001
00000000
,
00000100
00000010
00000100
00000000
00000001
00001000
00000100
00000000
,
00000011
00000000
00001100
00000000
00000001
00000010
00000100
00000000
,
00000010
00001000
00000001
00000000
00000001
00001000
00000001
00000000
,
00001000
00000000
00000001
00000000
00001000
00000000
00000100
00001000
,
00000100
00000000
00000001
00001000
00000010
00000000
00000100
00000000
,
00010100
00000000
00010000
00000000
00001000
00000000
00001000
01000000
,
00010000
00000000
00010000
10000000
00100000
00000000
00100000
01000000
,
00100000
10000000
01010000
00000000
,
00100000
01000000
00100000
10000000
00100000
10000000
00010000
10000000
,
00010000
00000000
00010000
01000000
00100000
00000000
00100000
00010000
,
00100000
00000000
00001000
01000000
00001000
00000000
00010000
00000100
,
00010000
00000000
00000100
00000000
00010000
00000000
00010000
01000000
,
00100000
10000000
00100000
01000000
,
00001000
00010000
00001000
00000000
00001000
00100000
00010000
00000000
,
00010000
01000000
00010000
00000000
00100000
10000000
00100000
00000000
,
00010000
01000000
00001000
00000000
00001000
00010000
00001000
00000000
,
00000000
00010000
00000000
00000010
00000000
00000100
00000000
00000010
,
00001000
00000100
00001000
00000000
00000010
00010000
00001000
00000000
,
00001000
00000010
00001000
00000000
00000100
00010000
00000010
00000000
,
00000010
00001000
00000010
00000000
00000100
00001000
00000100
00000000
,
01010000
01010000
00011000
00011000
,
00001000
00100000
00010000
00000000
00010000
10000000
00010000
00000000
,
00100000
01000000
00100000
00000000
01000000
10000000
01000000
00000000
,
00010000
01000000
00010000
00000000
00010000
10000000
01000000
00000000
,
00000000
00100000
00000000
00001000
00000000
00100000
00000000
00001000
,
00100000
00001000
00100000
00000000
00001000
00010000
00000100
00000000
,
00000100
00001000
00000100
00000000
00000010
00000001
00000010
00000000
,
00000010
00001000
00000100
00000000
00000100
00010000
00000100
00000000
,
00010010
00010010
00011000
00011000
,
01001000
00000000
00000000
00000000
;

//--------------- dance-double - B. M'Rey ----------------
#NOTEDATA:;
#STEPSTYPE:dance-double;
#DESCRIPTION:B. M'Rey;
#DIFFICULTY:Hard;
#METER:16;
#RADARVALUES:0,0,0,0,0;
#CREDIT:B. M'Rey;
#NOTES:
00000000
00000000
00000000
00000000
,
00000000
00000000
00000000
00000000
,
00000000
00000000
00000000
00000000
,
00010000
00000100
00001000
00000010
,
00001100
00000000
00000000
00001001
,
00000000
00001010
00000000
01010000
,
00000000
01100000
00000000
10010000
,
10100000
00000000
00000000
00000000
,
01000000
00010000
01000000
00001000
00100000
00001000
00010000
00000100
,
00010000
00000010
00001000
00000100
00010000
00000010
00001000
00000001
,
00001000
00000001
00001000
00000100
00010000
00001000
01000000
00010000
,
10000000
00010000
10000000
01000000
00100000
00010000
00100000
01000000
,
00100000
00001000
00010000
00000100
00001000
00000010
00010000
00000100
,
00010000
00000010
00000100
00000001
00001000
00000001
00001000
00000010
,
00010000
00000010
00010000
00001000
00100000
00010000
01000000
00001000
,
01001000
01001000
00101000
01010000
10010000
10010000
00000101
00000000
,
00000110
00000000
00000000
00000000
00010000
00000000
00000100
00000000
00010000
00000010
00010000
00000000
00010000
00000000
00001000
00000000
,
01000000
00100000
01000000
00000000
00001000
00000000
00100000
00000000
00001000
00100000
00001000
00000000
00010000
00000000
00000010
00000000
,
00000100
00000001
00000100
00000000
00000100
00000000
00000010
00000000
00010000
00000000
00001000
00000000
01000000
00000000
00100000
00000000
,
01000000
00001000
00000000
00000000
00010000
00000100
00000000
00000000
00001000
00000001
00000000
00000000
00001000
00000001
00000000
00000000
,
00001010
00000000
00000000
00000000
00010000
00000000
00001000
00000000
00100000
00010000
00100000
00000000
00100000
00000000
01000000
00000000
,
10000000
00010000
10000000
00000000
10000000
00000000
00100000
00000000
01000000
00001000
01000000
00000000
01000000
00000000
00001000
00000000
,
00010000
00000010
00010000
00000000
00010000
00000000
00000010
00000000
00010000
00000000
00000100
00000000
00001000
00000000
00000010
00000000
,
00010000
00000000
00000100
00000000
00000001
00001000
00000001
00000000
00000100
00000000
00010000
00000000
00000100
00001000
00000100
00000000
,
00001010
00000000
00000000
00000000
00010000
00000000
00001000
00000000
01000000
00001000
01000000
00000000
00010000
00000000
10000000
00000000
,
00100000
00010000
00100000
00000000
00100000
00000000
00001000
00000000
00010000
00000100
00010000
00000000
00001000
00000000
00000100
00010000
,
00000100
00000000
00001000
00000000
01000000
00000000
00010000
00000000
01000000
00000000
00001000
01000000
00001000
00000000
00001000
00000010
,
00001000
00000000
00001000
00000010
00001000
00000000
01000000
00100000
01000000
00000000
00010000
00100000
00010000
00000000
00010000
10000000
,
00010000
00000000
01000000
00000000
00001000
00000000
01000000
00000000
00010000
00000010
00010000
00000000
00000100
00000000
00000010
00000000
,
00000100
00000010
00000100
00000000
00001000
00000000
00000001
00000000
00000010
00000100
00000010
00000000
00001000
00000000
00000001
00000010
,
00000001
00000100
00000010
00000100
00010000
00001000
00100000
00010000
,
01000000
00100000
10000000
00100000
,
10000000
00010000
00000000
00010000
10000000
00000000
00010000
00000000
01000000
00010000
00000000
00010000
00100000
00000000
00001000
00000000
,
00010000
00000100
00000000
00000100
00001000
00000000
00000100
00000000
00010000
00001000
00000000
00001000
00010000
00000000
00001000
00000000
,
01000000
00100000
00000000
00100000
10000000
00000000
01000000
00000000
00100000
00010000
00000000
00010000
01000000
00000000
00001000
00000000
,
00010000
00000010
00001000
00000001
00001000
00000001
00001000
00000100
,
00000010
00000001
00000000
00000001
00000010
00000000
00000001
00000000
00000010
00000100
00000000
00000100
00001000
00000000
00000010
00000000
,
00010000
00001000
00000000
00001000
00010000
00000000
00001000
00000000
00100000
01000000
00000000
01000000
10000000
00000000
00100000
00000000
,
01000000
00010000
00000000
00010000
10000000
00000000
00010000
00000000
00100000
00001000
00000000
00001000
00100000
00000000
00010000
00000000
,
11000000
00011000
10001000
01001000
,
01010000
00000000
00000000
00001000
00010000
00000000
00000010
00000000
00010000
00000100
00000000
00000100
00001000
00000000
00000001
00000000
,
00000100
00000010
00000000
00000010
00001000
00000000
00000010
00000000
00010000
00000100
00000000
00000100
00010000
00000000
00000100
00000000
,
00010000
00001000
00000000
00001000
01000000
00000000
00010000
00000000
01000000
00100000
00000000
00100000
10000000
00000000
01000000
00000000
,
00100000
00001000
00000000
00000000
00001000
00000001
00000000
00000000
00001000
00000010
00000000
00000000
00010000
00000100
00000000
00000000
,
00010000
00001000
00000000
00001000
01000000
00000000
00001000
00000000
00010000
00000100
00000000
00000100
00010000
00000000
00001000
00000000
,
00100000
01000000
00000000
01000000
10000000
00000000
01000000
00000000
00100000
00001000
00000000
00001000
00100000
00000000
00001000
00000000
,
00010000
00000010
00000000
00000010
00001000
00000000
00000001
00000000
00000100
00000001
00000000
00000001
00000100
00000000
00000010
00000000
,
00010000
00000100
00010000
00000100
00010000
00000100
00001000
00010000
00001000
00010000
00001000
00010000
00001000
01000000
00100000
10000000
,
00100000
00000000
00000000
00000000
00000000
00010000
00100000
10000000
,
00000000
00100000
00000000
01000000
00000000
00100000
00000000
10000000
,
00100000
00000000
00000000
00010000
00000000
10000000
00000000
01000000
,
00000000
00001000
00000000
01000000
00000000
00001000
00000000
00000100
,
00001000
00000000
00010000
00000010
00010000
00000100
00000010
00000001
,
00000000
00001000
00000000
00000001
00000000
00001000
00000000
00000001
,
00011000
00000000
00000000
00000000
,
00000000
00000000
00000000
00000000
,
00010000
00000000
00000000
00000001
00000000
00000000
00010000
00000000
00000000
00000001
00000000
00000000
00010000
00000000
00000000
00000001
,
00000000
00000000
00010000
00000000
00000000
00000001
00000000
00000000
00010000
00000000
00000000
00000000
00000001
00000000
00000000
00000000
,
00000100
00000010
00001000
00000010
,
00000100
00000000
00000000
00010000
00000000
00000000
00001000
00000000
01000000
00000000
00000000
00100000
00000000
00000000
01000000
00000000
,
00001000
00000000
00000000
00000100
00000000
00000000
00001000
00000000
01000000
00000000
00000000
10000000
00000000
00000000
01000000
00000000
,
00100000
00000000
00000000
00010000
00000000
00000000
10000000
00000000
01000000
00000000
00000000
00100000
00000000
00000000
00010000
00000000
,
10000000
00000000
00000000
00010000
00000000
00000000
10000000
00000000
01000000
00000000
00000000
00010000
00000000
00000000
01000000
00000000
,
00001000
00000000
00000000
00010000
00000000
00000000
00000000
00000000
00010100
00000000
00000000
00000000
00001010
00000000
00000000
00000000
,
00000010
00000100
00000010
00000000
00001000
00000100
00000010
00000000
,
00010000
00000100
00010000
00000000
00001000
01000000
00001000
00000000
,
00100000
00010000
00100000
00000000
00001000
00010000
00001000
00000000
,
00010000
00000010
00010000
00000000
00000010
00010000
00000100
00000000
,
00000110
00000000
00000000
00000000
00000000
00000000
00000000
00001100
,
01010000
00000000
00000000
00000000
00000000
00000000
00000000
01000000
,
00000100
00001000
00000001
00001000
00000001
00001000
00000010
00001000
,
02002000
00000000
00000000
00000000
,
03003000
00000000
00000000
10100000
,
10000000
00100000
10000000
00010000
10000000
00100000
00001000
00000010
,
00001000
00000010
00001000
00000000
00010000
00000000
00001000
00000000
00010000
00000100
00010000
00000000
00001000
00000000
01000000
00000000
,
00010000
00000100
00010000
00000000
00001000
00000000
00100000
00000000
01000000
00100000
01000000
00000000
00001000
00000000
00010000
00000000
,
01000000
00001000
01000000
00000000
01000000
00000000
00010000
00000000
00100000
00010000
00100000
00000000
00001000
00000000
00100000
00000000
,
00001010
00000000
00000000
00000000
00110000
00000000
00000000
00000000
00001000
00000010
00001000
00000000
01000000
00000000
00001000
00000000
,
00010000
00001000
00010000
00000000
00010000
00000000
00000010
00000000
00001000
00000100
00001000
00000000
00001000
00000000
00000010
00000000
,
00001000
00000001
00001000
00000000
00000010
00000000
00000100
00000000
00001000
00000000
00000100
00000000
00010000
00000000
00001000
00000000
,
00010000
00100000
00001000
00100000
,
01100000
00000000
00000000
00000000
00100000
00000000
00010000
00000000
00000100
00010000
00000100
00000000
00000010
00000000
00000001
00000000
,
00000100
00000010
00000100
00000000
00000100
00000000
00010000
00000000
00001000
01000000
00001000
00000000
00010000
00000000
01000000
00001000
,
01000000
00000000
00010000
00000000
00000100
00000000
00000010
00000000
00000100
00000000
00010000
00000100
00010000
00000000
00010000
01000000
,
00010000
00000000
00010000
01000000
00010000
00000000
00000100
00000010
00000100
00000000
00001000
00000010
00001000
00000000
00001000
00000001
,
00001000
00000000
00000010
00000000
00010000
00000000
00000010
00000000
00001000
00100000
00001000
00000000
01000000
00000000
00010000
00000000
,
01000000
00010000
01000000
00000000
00100000
00000000
10000000
00000000
00010000
00100000
00010000
00000000
01000000
00000000
10000000
00010000
,
10000000
00100000
01000000
00100000
00001000
00010000
00000100
00001000
,
00000010
00000100
00000001
00000100
,
00000001
00001000
00000000
00001000
00000001
00000000
00001000
00000000
00000010
00001000
00000000
00001000
00000001
00000000
00000100
00000000
,
00000010
00010000
00000000
00010000
00000100
00000000
00010000
00000000
00001000
01000000
00000000
01000000
00001000
00000000
01000000
00000000
,
00010000
10000000
00000000
10000000
00100000
00000000
01000000
00000000
00010000
10000000
00000000
10000000
01000000
00000000
00100000
00000000
,
00001100
00110000
00110000
00100100
,
00010000
10000000
00000000
10000000
00010000
00000000
10000000
00000000
00010000
01000000
00000000
01000000
00001000
00000000
00010000
00000000
,
00000010
00001000
00000000
00001000
00000010
00000000
00001000
00000000
00000001
00000100
00000000
00000100
00000010
00000000
00010000
00000000
,
00000100
00001000
00000000
00001000
00000001
00000000
00001000
00000000
00000010
00010000
00000000
00010000
00000010
00000000
00001000
00000000
,
00000001
00000100
00010000
01000000
00010000
00000010
00010000
00001000
,
00100000
00000000
00001000
01000000
00010000
00000000
00100000
00000000
00010000
10000000
00000000
10000000
00100000
00000000
01000000
00000000
,
00001000
00010000
00000000
00010000
00000010
00000000
00010000
00000000
00000100
00001000
00000000
00001000
00000100
00000000
00001000
00000000
,
00000100
00000010
00000000
00000010
00000001
00000000
00001000
00000000
00000001
00000100
00000000
00000100
00000010
00000000
00010000
00000000
,
00001000
01000000
00000000
00000000
01000000
10000000
00000000
00000000
01000000
00100000
00000000
00000000
00001000
00010000
00000000
00000000
,
00001000
00100000
00000000
00100000
01000000
00000000
00100000
00000000
00010000
10000000
00000000
10000000
00010000
00000000
00100000
00000000
,
00001000
01000000
00000000
01000000
00010000
00000000
01000000
00000000
00001000
00010000
00000000
00010000
00001000
00000000
00010000
00000000
,
00000010
00000100
00000000
00000100
00000001
00000000
00001000
00000000
00000100
00001000
00000000
00001000
00000100
00000000
00010000
00000000
,
00001000
01000000
00001000
01000000
00001000
01000000
00010000
00001000
00010000
00001000
00010000
00001000
00010000
00000010
00000100
00000001
,
00000010
00000000
00000000
00000000
;

//--------------- dance-double - B. M'Rey ----------------
#NOTEDATA:;
#STEPSTYPE:dance-double;
#DESCRIPTION:B. M'Rey;
#DIFFICULTY:Challenge;
#METER:17;
#RADARVALUES:0,0,0,0,0;
#CREDIT:B. M'Rey;
#NOTES:
00000000
00000000
00000000
00000000
,
00000000
00000000
00000000
00000000
,
00000000
00000000
00000000
00000000
,
00000010
00010000
00000100
00010000
,
00001000
00010000
00001000
00000000
00001000
00100000
01000000
00000000
,
01000000
00100000
00001000
00000000
00001000
01000000
00001000
00000000
,
00010000
00000100
00010000
00000000
00000010
00001000
00000100
00000000
,
00001001
00001000
00000001
00000010
,
00000101
00000000
00000100
00000010
00000100
00000000
00010000
00001000
00010000
00001000
00100000
00010000
00100000
00010000
00100000
01000000
,
10000000
00000000
10000000
01000000
00100000
00000000
00100000
01000000
10000000
00010000
10000000
00010000
10000000
00100000
01000000
00010000
,
01000000
00000000
01000000
00001000
00010000
00000000
00010000
00000010
00010000
00000010
00001000
00000010
00001000
00000100
00010000
00000100
,
00010000
00000000
00001000
00000000
00001000
00000000
00001000
00000001
00000100
00000001
00000100
00000001
00001000
00000100
00001000
00000100
,
00001000
00000000
00000100
00000010
00000100
00000000
00010000
00000010
00010000
00000010
00010000
00001000
00100000
00000000
00100000
00001000
,
01000000
00000000
01000000
00010000
01000000
00000000
00001000
00010000
00001000
00010000
01000000
00001000
00010000
00001000
00010000
00001000
,
00100000
00000000
01000000
00000000
00100000
00000000
00010000
10000000
00010000
10000000
01000000
00100000
01000000
00010000
01000000
00000000
,
00001010
00000000
00001010
00000000
00010010
00000000
00000110
00000000
00000100
00000001
00000100
00000000
00011000
00000000
00000000
00001000
,
01000000
00000000
01000000
00100000
01000000
00000000
00010000
10000000
00010000
10000000
01000000
00010000
01000000
00000000
01000000
00001000
,
00100000
00001000
00100000
00001000
00010000
00000000
00010000
00000010
00010000
00000100
00000010
00000100
00000010
00000000
00001000
00000010
,
00001000
00000000
00001000
00000010
00001000
00000000
00000010
00000001
00000100
00000010
00010000
00000100
00010000
00000000
00001000
00000000
,
00100000
00001000
00100000
00000000
00010000
00100000
00010000
00000000
00010000
00000100
00001000
00000000
00000010
00000001
00000010
00000000
,
00000110
00000000
00001000
00000100
00001000
00000000
00001000
00000001
00000010
00000001
00000010
00000100
00010000
00000000
00010000
00001000
,
00010000
00001000
01000000
00001000
01000000
00000000
01000000
00010000
10000000
00010000
00100000
00001000
00100000
00000000
00100000
00010000
,
10000000
00000000
10000000
01000000
00100000
00000000
00010000
00000000
00100000
00000000
10000000
00000000
00010000
00000000
10000000
01000000
,
00100000
00000000
00100000
00001000
00010000
00001000
00010000
00000000
00000100
00001000
00000100
00000000
00000100
00000001
00000100
00000000
,
00011000
00000000
00010000
00001000
01000000
00000000
01000000
10000000
01000000
00000000
10000000
00010000
01000000
00000000
00001000
00010000
,
00100000
00000000
00010000
00001000
00010000
00000000
00100000
00010000
00001000
00000000
00001000
00000001
00000100
00000000
00000100
00000001
,
00000100
00000000
00000010
00001000
00000010
00000000
00000010
00000100
00001000
00000000
00001000
00000100
00010000
00000010
00010000
00000010
,
00010000
00001000
01000000
00001000
00100000
01000000
00100000
01000000
00100000
00010000
10000000
00010000
10000000
00010000
01000000
00001000
,
01000000
00000000
00010000
00001000
00010000
00000000
00010000
00000100
00001000
00000000
00001000
00100000
00001000
00000000
00010000
00001000
,
00010000
00000000
00010000
00000100
00001000
00000000
00001000
00000100
00010000
00000000
00000010
00000001
00001000
00000000
00000100
00000001
,
00000100
00000000
00000100
00000010
00010000
00000000
00010000
10000000
00010000
00000000
01000000
00100000
01000000
00000000
01000000
00001000
,
00010000
00001000
00010000
00000010
00001000
00000010
00001000
00000010
00000100
00000001
00000100
00000001
00000100
00000010
00000100
00000000
,
00001000
00000100
00000000
00000100
00001000
00000010
00010000
00000010
00010000
00000000
00001000
00100000
00000000
00010000
01000000
00000000
,
01000000
00010000
01000000
00001000
00100000
00000000
10000000
00010000
10000000
00100000
10000000
00100000
01000000
00000000
01000000
00001000
,
00100000
00010000
00100000
00010000
00100000
00000000
00001000
00000100
00001000
00000000
00001000
00000010
00010000
00000000
00001000
00000001
,
00001000
00000001
00001000
00000100
00000000
00000100
00010000
00000100
00000000
00000001
00001000
00000001
00000000
00000001
00001000
00000010
,
00000100
00000001
00000100
00000001
00000100
00000000
00010000
00001000
00010000
00000000
00010000
00001000
01000000
00000000
01000000
00010000
,
01000000
00010000
10000000
01000000
10000000
00000000
10000000
00010000
00100000
00010000
00100000
00001000
00100000
00000000
00001000
01000000
,
10000000
01000000
10000000
00010000
00000000
01000000
00010000
00000000
01000000
00001000
00000000
00001000
00010000
00000000
00010000
00000010
,
00001000
00000010
00001000
00000010
00010000
00001000
00010000
00001000
00010000
00001000
00100000
00010000
00100000
00010000
00100000
00010000
,
01000000
00001000
00000000
00001000
00000001
00000000
00000100
00000001
00000100
00000001
00000010
00000001
00000010
00000000
00000010
00000100
,
00001000
00000100
00010000
00000010
00010000
00000000
00010000
00001000
01000000
00001000
01000000
00100000
01000000
00000000
00001000
00100000
,
00010000
00000100
00010000
00000100
00010000
00000000
00000010
00001000
00000010
00000000
00010000
00001000
01000000
00000000
01000000
00100000
,
01000000
00100000
10000000
01000000
10000000
00000000
10000000
01000000
00001000
00000100
00001000
00000100
00001000
00000000
00100000
00010000
,
00100000
00010000
00000000
00100000
00000000
00001000
00010000
00001000
00010000
00000100
00000000
00010000
00000000
00000100
00010000
00000010
,
00001000
00000010
00001000
00000001
00000000
00000010
00000001
00000000
00001000
00000001
00001000
00000001
00001000
00000000
00000100
00000010
,
00010000
00000010
00001000
00000100
00000000
00010000
01000000
00010000
01000000
00010000
00000000
00001000
00000000
01000000
10000000
00000000
,
10000000
00100000
10000000
00010000
00100000
00001000
00100000
00001000
00100000
00001000
00010000
00000010
00010000
00000010
00000100
00000001
,
00000100
00000000
00001000
00000000
00000001
00001000
00000100
00000001
,
00000010
00000000
00000000
00001000
00000000
00000000
00000001
00000000
00000000
00000000
00000100
00000000
00000000
00000000
00010000
00001000
,
00010000
00000000
00000010
00001000
00000000
00010000
00000000
00001000
,
00000000
00000000
01000000
00000000
00000000
00000000
00010000
00000000
00000000
00000000
01000000
00000000
00000000
00000000
10000000
01000000
,
00100000
10000000
00010000
00000000
01000000
00001000
00100000
00000000
00010000
00000000
10000000
00000000
00100000
00000000
01000000
00000000
,
00010000
01000000
10000000
00000000
00010000
00100000
01000000
00000000
00001000
00000000
00010000
00000000
00000100
00000000
00001000
00000000
,
00000010
00001000
00000100
00001000
00000100
00001000
00000100
00001000
00000100
00001000
00000010
00010000
00000010
00010000
00001000
01000000
,
00001000
01000000
00001000
00010000
00001000
00010000
00001000
00010000
00000100
00010000
00000100
00010000
00000100
00000010
00000100
00000010
,
00000100
00010000
00000000
00010000
00000010
00000000
00010000
00000010
00000000
00000010
00010000
00000000
00001000
01000000
00000000
01000000
,
00001000
00000000
01000000
00001000
00000000
00001000
00100000
00000000
00010000
00100000
00000000
00100000
00010000
00000000
00100000
00000000
,
01000000
10000000
01000000
10000000
00010000
10000000
00010000
00100000
,
00010000
00100000
00001000
01000000
00001000
01000000
00001000
00010000
,
00000010
00000100
00001000
00000001
00000010
00000000
00010000
00000000
00001000
00100000
00000000
00100000
00001000
00000000
00100000
00000000
,
00001000
00010000
00001000
00010000
00000100
00000000
00010000
00000000
00000100
00010000
00000000
00010000
00001000
00000000
01000000
00000000
,
00001000
01000000
00001000
01000000
00001000
00000000
00010000
00000000
00000010
00010000
00000000
00010000
00000100
00000000
00010000
00000000
,
00000100
00000010
00000100
00000010
00000100
00000000
00000010
00000000
00000001
00000010
00000000
00000000
00000001
00000100
00000000
00000000
,
00000001
00001000
00000001
00001000
00000001
00000000
00001000
00000000
00000100
00001000
00000000
00001000
00000100
00000000
00010000
00000000
,
00000100
00010000
00000100
00010000
00001000
00000000
00010000
00000000
00001000
00100000
00000000
00001000
00100000
00000000
00100000
00000000
,
01000000
00100000
01000000
00100000
01000000
00000000
10000000
00000000
01000000
10000000
00000000
10000000
00010000
00000000
10000000
00000000
,
00010000
00100000
00010000
00100000
00010000
00000000
01000000
00000000
00001000
01000000
00001000
01000000
00001000
00000000
01000000
00000000
,
00010010
00000000
00000000
00000000
00000000
00000000
00000000
00010100
,
00000011
00000000
00000000
00000000
00000000
00000000
00000000
00000001
,
00000100
00000000
00000001
00000100
00000001
00000000
00000001
00000000
00001000
00000010
00001000
00000000
00001000
00000000
00100000
00000000
,
00010000
01000000
00001000
01000000
00001000
01000000
00001000
01000000
00001000
01000000
00010000
10000000
00010000
10000000
00010000
10000000
,
00010000
00000000
00000000
00110000
,
00010000
10000000
00000000
00100000
10000000
00000000
00100000
00000000
00010000
10000000
01000000
00001000
00100000
00000000
00010000
00000000
,
00000100
00000010
00000100
00000000
00000001
00000000
00001000
00000000
00000010
00001000
00000010
00000000
00000100
00000000
00010000
00000000
,
00001000
01000000
00001000
00000000
00000010
00000000
00001000
00000000
00010000
00001000
00010000
00000000
00000010
00000000
00000100
00000000
,
00000001
00000010
00000001
00000000
00000010
00000000
00000100
00000000
00010000
00000100
00010000
00000100
00001000
00000000
00010000
00000000
,
00001000
01000000
00000000
01000000
00001000
00000000
00100000
00000000
01000000
10000000
01000000
00000000
00010000
00000000
10000000
00000000
,
00100000
00010000
00100000
00000000
00100000
00000000
10000000
00000000
01000000
00100000
01000000
00000000
00010000
00000000
10000000
00000000
,
00100000
00010000
00100000
00000000
00001000
00000000
00100000
00000000
00001000
00000000
00010000
00000000
00000010
00001000
00000010
00000000
,
00000100
00001000
00000100
00000000
00000001
00001000
00000001
00000000
00000010
00001000
00000001
00000000
00000100
00010000
00000100
00000000
,
00001000
00010000
00000000
00000010
00001000
00000000
01000000
00000000
00010000
10000000
00010000
00000000
01000000
00010000
00000000
00010000
,
00000100
00001000
00000100
00000000
00010000
01000000
00000000
01000000
00001000
01000000
00001000
00000000
00010000
00001000
00000000
00000010
,
00000100
00000010
00010000
00000000
00000010
00000000
00001000
00000000
00000100
00000000
00010000
00001000
00010000
00000000
00000100
00000001
,
00000100
00000000
00001000
00000100
00001000
00000000
00001000
00100000
00001000
00000000
00010000
00000100
00010000
00000000
00000010
00000001
,
00000010
00000000
00001000
00000000
00000010
00010000
00000000
00010000
00001000
01000000
00001000
00000000
00100000
01000000
00000000
01000000
,
00010000
00100000
00010000
00000000
00010000
00100000
00000000
00100000
00001000
00010000
00001000
00000000
00001000
00010000
00000000
00001000
,
00010000
00000100
00000010
00000000
00000100
00000000
00010000
00000000
00001000
00000000
01000000
00000000
00100000
10000000
00100000
00000000
,
01000000
10000000
01000000
00000000
00010000
00000000
01000000
00000000
00001000
01000000
00001000
00000000
00010000
00000000
00000010
00000000
,
00000010
00010000
00000000
00010000
00000010
00000000
00000100
00000000
00000001
00000100
00000001
00000100
00000001
00000000
00000010
00000000
,
00000100
00001000
00000000
00001000
00000010
00000000
00010000
00001000
00010000
00001000
01000000
00100000
00000000
00000000
00100000
00000000
,
01000000
10000000
00000000
10000000
00010000
00000000
01010000
00000000
00001000
00100000
00000000
00100000
00010000
00000000
01000000
00000000
,
00001000
00010000
00001000
00010000
00000100
00000000
00001000
00000000
00000001
00000100
00000001
00000100
00000010
00000000
00001000
00000000
,
00000100
00010000
00000000
00010000
00001000
00000000
00100000
00000000
00010000
10000000
00010000
10000000
00010000
00000000
01000000
00000000
,
00001000
00010000
00001000
00010000
00000010
00000000
00000100
00000000
00000010
00001000
00000010
00001000
00000100
00000000
00010000
00000000
,
00001000
01000000
00001000
01000000
00001000
00000000
00100000
00000000
00010000
00100000
00010000
00100000
00001000
00000000
00010000
00000000
,
00000010
00001000
00000010
00001000
00000001
00001000
00000001
00001000
00000100
00001000
00000100
00001000
00000100
00010000
00000100
00000000
,
00001000
00100000
00001000
01000000
00001000
01000000
00010000
01000000
00010000
00100000
00010000
10000000
01000000
10000000
01000000
10000000
,
00100000
01000000
00100000
10000000
00100000
10000000
00010000
10000000
00010000
01000000
00010000
01000000
00001000
01000000
00001000
00010000
,
00001000
00010000
00000100
00010000
00000100
00001000
00000100
00000010
00000001
00000000
00000100
00000001
00000100
00000000
00000001
00000010
,
00000001
00000000
00000100
00000010
00000100
00000000
00010000
00000010
00010000
00000000
00010000
00100000
00010000
00000000
00010000
00000000
,
00100000
00001000
00100000
00001000
00100000
00001000
00100000
00001000
00010000
00000010
00010000
00000010
00010000
00000010
00010000
00000010
,
00010000
00001000
01000000
00001000
01000000
00001000
01000000
00001000
01000000
00100000
01000000
00100000
10000000
00010000
10000000
00010000
,
10000000
00010000
01000000
00010000
01000000
00010000
01000000
00001000
01000000
00001000
01000000
00001000
00010000
00001000
00010000
00001000
,
00010000
00000010
00010000
00000010
00010000
00000010
00000100
00000010
00000100
00000010
00001000
00000001
00001000
00000001
00001000
00000100
,
00001000
00000000
00000000
00000000
;
