#VERSION:0.83;
#TITLE:A Little Butterfly;
#ARTIST:leeium;
#GENRE:Breakdown;
#CREDIT:B. M'Rey;
#MUSIC:A Little Butterfly.ogg;
#BANNER:A Little Butterfly.png;
#BACKGROUND:A Little Butterfly-bg.png;
#CDTITLE:./CDTITLES/BOF-TT.png;
#SAMPLESTART:48.821;
#SAMPLELENGTH:15;
#OFFSET:-0.075;
#BPMS:0=80.007,47=160.015,112=80.007,160=160.015,256=80.007;
#STOPS:47=0.375;

//--------------- dance-single - B. M'Rey ----------------
#NOTEDATA:;
#STEPSTYPE:dance-single;
#DESCRIPTION:B. M'Rey;
#CREDIT:B. M'Rey;
#DIFFICULTY:Beginner;
#METER:3;
#RADARVALUES:0,0,0,0,0;
#NOTES:
0000
0000
0000
0000
,
0000
0000
0000
0000
,
1000
0001
0000
0000
,
0000
0000
0000
0000
,
0001
0000
0000
0000
,
1000
0000
0000
0000
,
0001
1000
0000
0000
,
0100
0000
0000
0000
,
0001
0000
1000
0000
,
0100
0000
0010
0000
,
1000
0000
0000
0000
,
0001
0000
0000
1001
,
1000
0000
0000
0000
,
0010
0000
0000
0000
,
0100
0000
0000
0000
,
0001
0000
0000
0000
,
1000
0000
0000
0000
,
0010
0000
0000
0000
,
0100
0000
0000
0000
,
0001
0000
0000
0000
,
1000
0000
0001
0000
,
1000
0000
0001
0000
,
1000
0000
0010
0000
,
0100
0000
0010
0000
,
0100
0000
0001
0000
,
0100
0000
0001
0000
,
0010
0000
1000
0000
,
0010
0000
1000
0000
,
1001
0000
0000
0000
,
0010
0000
0000
0000
,
0100
0000
0000
0000
,
1000
0000
0000
0000
,
0001
0000
1000
0000
,
0010
0000
0100
0000
,
0010
0000
0001
0000
,
1000
0000
0100
0000
,
0010
0000
0100
0000
,
0001
0000
1000
0000
,
0010
0000
0100
0000
,
0001
0000
1000
0000
,
0001
0000
0001
0000
,
1000
1000
1000
0000
,
0100
0000
0010
0000
,
0100
0100
0100
0000
,
0001
0000
1000
0000
,
0010
0010
0010
0000
,
0001
0000
0010
0000
,
0100
0100
0100
0000
,
1000
0000
0010
0000
,
0100
0000
0010
0000
,
0001
0000
0100
0000
,
0010
0000
1000
0000
,
0010
0000
0100
0000
,
0001
0000
0100
0000
,
0010
0000
1000
0000
,
0010
0000
0110
0000
,
0001
0000
1000
0000
,
0001
0000
1000
0000
,
0100
0000
0001
0000
,
0100
0000
0001
0000
,
0010
0000
1000
0000
,
0010
0000
1000
0000
,
0100
0000
0001
0000
,
0100
0000
0001
0000
,
1000
0000
0010
0000
,
0100
0000
0001
0000
,
1000
0000
0000
0000
,
0010
0000
0000
0000
;

//--------------- dance-single - B. M'Rey ----------------
#NOTEDATA:;
#STEPSTYPE:dance-single;
#DESCRIPTION:B. M'Rey;
#CREDIT:B. M'Rey;
#DIFFICULTY:Easy;
#METER:4;
#RADARVALUES:0,0,0,0,0;
#NOTES:
0000
0000
0000
0000
,
0000
0000
0000
0000
,
0001
1000
0000
0000
,
0100
0000
0000
0000
,
0000
0000
0010
0000
0000
1000
0000
0100
,
1000
0000
0000
0000
0000
0010
0000
0001
,
0010
0000
1000
0000
0000
1000
0000
0010
,
0100
0000
0000
0010
0000
1000
0000
0001
,
1000
0000
0001
0000
,
0010
0000
0100
0000
,
1000
0000
0001
0000
,
0010
0000
0001
1001
,
0001
0000
0010
0000
,
0010
0100
0001
0000
,
0010
0000
0010
0000
,
0001
0100
0010
0000
,
0010
0000
0100
0000
,
0001
0100
0001
0000
,
0001
0000
0010
0000
,
0001
0000
0000
0000
,
1010
0000
0001
0100
,
0001
0010
0001
0010
,
0001
0000
0100
0010
,
0001
0010
0001
0100
,
0010
0000
0010
0100
,
0001
1000
0010
0100
,
0010
0000
0010
1000
,
0001
0010
0001
0010
,
0001
0000
0000
0000
,
1000
0000
0000
0000
,
0100
0000
0000
0000
,
0001
0000
0000
0000
,
0001
0000
0010
0000
,
0001
0000
0100
0010
,
0001
0000
1000
0000
,
0001
0000
0100
0010
,
0100
0000
0001
0000
,
1000
0000
0010
1000
,
0001
0000
0100
0000
,
0001
0000
0100
1000
,
0010
0000
0001
0000
,
1000
0100
0010
0000
,
0100
0000
0100
0000
,
0100
1000
0001
0000
,
0001
0000
0001
0000
,
0010
1000
0100
0000
,
0100
0000
0010
0000
,
0010
0100
0001
0000
,
0010
0000
0100
0000
,
0001
0000
0010
0000
,
1100
0000
0001
0000
,
0010
1000
0010
0000
,
0110
0000
0100
0000
,
0010
0000
0001
0000
,
0110
0000
0001
0000
,
0001
1000
0001
0000
,
0000
0000
0100
1000
,
0001
0100
0010
1000
,
0010
0000
0001
0010
,
0001
0010
0001
0000
,
0010
0000
0001
0000
,
1000
0000
0001
0000
,
0110
0000
0100
0000
,
0001
1000
0001
0000
,
0001
0000
0000
0000
,
1000
0000
0000
0000
,
0020
0000
0000
0000
,
0000
0000
0000
0000
,
0030
0000
0000
0000
;

//--------------- dance-single - B. M'Rey ----------------
#NOTEDATA:;
#STEPSTYPE:dance-single;
#DESCRIPTION:B. M'Rey;
#CREDIT:B. M'Rey;
#DIFFICULTY:Medium;
#METER:5;
#RADARVALUES:0,0,0,0,0;
#NOTES:
0000
0000
0000
0000
,
0000
0000
0000
0000
,
1000
0001
0010
0000
0000
0000
0000
0000
,
0100
0000
0000
0000
,
0010
0000
1000
0000
0000
0001
0000
0100
,
0010
0000
0001
0000
0000
1000
0000
0010
,
0100
0001
1000
0000
0000
0010
0000
0100
,
0000
0001
0000
1000
0000
0010
0000
0100
,
0001
1000
0001
0000
0010
0100
0010
0000
,
1000
0100
1000
0000
0010
0000
0100
0000
,
0001
0010
0100
1000
,
1000
0100
0010
1001
,
0001
1000
0001
0100
,
0010
0100
0010
0000
,
1000
0001
1000
0010
,
1000
0010
0100
0000
,
1000
0001
1000
0100
,
0010
0100
0010
0000
,
0001
1000
0001
1000
,
0010
1000
0100
0000
,
0010
0000
0000
0000
0000
0000
0000
0000
0100
0000
0000
0001
0000
0000
1000
0000
,
0000
0000
0010
0000
0000
0000
0000
0000
0100
0000
0000
0010
0000
0000
1000
0000
,
0000
0000
0000
0000
0000
0000
0000
0000
0100
0000
0000
0001
0000
0000
1000
0000
,
0000
0000
0010
0000
0100
0000
0000
0000
0001
0000
0000
1000
0000
0000
0010
0000
,
0000
0000
0000
0000
0000
0000
0000
0000
0100
0000
0000
0010
0000
0000
1000
0000
,
0000
0000
0001
0000
0100
0000
0000
0000
0010
0000
0000
0100
0000
0000
0001
0000
,
0000
0000
0000
0000
0000
0000
0000
0000
0010
0000
0000
1000
0000
0000
0001
0000
,
0000
0000
0100
0000
0010
0000
0000
0000
1000
0000
0000
0001
0000
0000
0100
0000
,
0001
0000
0100
0000
,
0010
0000
1000
0000
,
0001
0000
0010
0000
,
0100
0000
1000
0000
,
0010
1000
0010
0100
,
0010
0000
1000
0000
0001
0010
0100
0000
,
0010
1000
0100
1000
,
0100
0000
0010
0000
0001
0100
0010
0000
,
0100
0010
0100
1000
,
0001
0000
1000
0000
0100
0001
0010
0000
,
0100
1000
0001
0100
,
0010
0000
1000
0000
0001
1000
0010
0000
,
0100
0000
0001
0000
,
0010
1000
0010
0000
,
0110
0000
0000
0110
,
0000
0010
0011
0000
,
1100
0000
0010
0000
,
0010
1000
0100
0000
,
1001
0000
0001
0000
,
0001
1000
0110
0000
,
0100
0000
0001
1000
,
0000
1000
0100
0000
,
0110
0000
0001
0110
,
0000
1000
1100
0000
,
0011
0000
0100
1000
,
0000
0100
0010
0000
,
0110
0000
0001
0101
,
0000
1000
0010
0000
,
0100
0000
0000
0000
0000
0000
0000
0000
1000
0000
0000
0010
0000
0000
0100
0000
,
0000
0001
1000
0000
0010
0000
0100
0000
,
0000
0000
0000
0000
0000
0000
0000
0000
0001
0000
0000
1000
0000
0000
0010
0000
,
0000
0000
0100
0000
0010
0000
0000
0000
1000
0000
0000
0001
0000
0000
0100
0000
,
0010
0010
0100
1000
,
0000
0010
0100
0010
,
0000
1000
0100
0010
,
0001
0010
0100
0010
,
0001
0000
1000
0000
0010
0100
0010
0000
,
1000
0000
0001
0000
0100
0001
0100
0000
,
0020
0000
0000
0000
,
0000
0000
0000
0000
,
0130
0000
0000
0000
;

//--------------- dance-single - B. M'Rey ----------------
#NOTEDATA:;
#STEPSTYPE:dance-single;
#DESCRIPTION:B. M'Rey;
#CREDIT:B. M'Rey;
#DIFFICULTY:Hard;
#METER:8;
#RADARVALUES:0,0,0,0,0;
#NOTES:
0000
0000
0000
0000
,
0000
0000
0000
0000
,
1000
0001
0010
0000
0000
0000
0000
0000
,
1000
0000
0000
0000
,
0001
0010
1000
0000
0000
0100
0000
0010
,
0000
1000
0100
0010
0000
0001
0000
1000
,
0010
0100
0010
0000
0000
0001
0000
1000
,
0000
0010
0100
0010
0000
0001
0000
1000
,
0010
0100
0010
0000
0001
0010
0001
0000
,
1000
0100
1000
0000
0010
0100
0001
0000
,
0010
1000
0010
1000
0010
1000
0010
1000
,
0010
0100
0001
0100
0001
0100
1001
0000
,
0001
1000
0001
1000
,
0010
0100
0010
0000
,
0001
0010
0001
0100
,
0010
0100
1000
0000
,
0010
0100
0001
0010
,
1000
0100
0010
0000
,
0001
1000
0010
0100
,
0010
0000
0100
0000
,
0001
0000
0000
0000
1000
0100
0000
1000
,
0000
0001
1000
0000
0010
0100
0000
0001
,
0000
0010
0100
0000
0100
0010
0000
1000
,
0000
0001
1000
0000
0010
0100
0000
0010
,
1000
0000
0000
0000
0001
0100
0000
0010
,
0000
1000
0010
0000
0100
0001
0000
0010
,
0000
0000
0000
0000
0100
0010
0000
1000
,
0100
0000
0001
0000
0100
0010
0000
1000
,
0001
0100
0010
1000
,
0100
1000
0001
0010
,
0001
0100
0010
1000
,
0100
1000
0010
0100
,
0001
1000
0001
0000
0010
0100
0010
0000
,
1000
0100
0001
0010
0100
0010
1000
0000
,
0001
0010
0001
0000
1000
0100
1000
0000
,
0010
0100
0001
1000
0010
0100
0001
0010
,
0100
1000
0010
0000
0100
1000
0010
0000
,
0100
0001
0010
1000
0100
1000
0001
0000
,
1000
0010
0100
0000
0001
0010
0001
0000
,
1000
0010
0100
0001
1000
0010
0100
0000
,
0101
0000
1010
0000
1001
0000
0100
0010
,
0100
0000
0001
0100
0001
0000
0000
0000
,
1010
0000
1001
0000
1100
0000
0010
0100
,
0010
0000
0001
0100
0001
0000
0000
0110
,
0000
0000
1010
0000
1001
0000
0100
0010
,
0100
0000
1000
0100
1000
0000
0000
0000
,
0110
0000
0101
0000
0110
0000
1000
0100
,
1000
0000
0001
0100
0001
0000
0000
0000
,
0101
1100
0011
1100
,
0101
0110
1001
0110
,
0110
1010
0110
0101
,
0110
1010
1001
0000
,
0110
0101
0110
1010
,
1010
0101
0110
1010
,
1001
0110
0101
0110
,
1010
1001
0110
0000
,
1000
0001
0000
0000
0001
1000
0000
0010
,
0000
0000
0100
0000
0001
0000
0100
0010
,
0000
0000
0000
0000
1000
0100
0000
0001
,
0100
0000
0010
0000
1000
0010
0000
1000
,
0100
0000
0100
0000
0100
0010
0100
0000
,
0001
0000
0001
0000
0100
0001
0100
0000
,
0010
0000
0010
0000
1000
0010
1000
0000
,
0100
0010
0100
0010
0100
0000
0000
0000
,
0001
1000
0010
0100
0001
0100
0010
0000
,
1000
0100
1000
0001
0100
0010
0100
0000
,
0001
1000
0010
0100
,
0001
0010
1000
0100
,
0010
0000
0000
0000
;

//--------------- dance-single - B. M'Rey ----------------
#NOTEDATA:;
#STEPSTYPE:dance-single;
#DESCRIPTION:B. M'Rey;
#CREDIT:B. M'Rey;
#DIFFICULTY:Challenge;
#METER:12;
#RADARVALUES:0,0,0,0,0;
#NOTES:
0000
0000
0000
0000
,
0000
0000
0000
0000
,
1000
0000
0001
0100
0010
0000
0000
0000
1000
0000
0000
0000
0010
0000
0000
0000
,
0100
0001
1000
0010
,
1000
0000
0001
0010
0100
0010
0100
1000
0100
0000
1001
0000
0000
0000
0110
0000
,
0000
0001
0100
0010
0000
0010
1000
0001
1000
0000
0110
0000
0000
0000
0101
0000
,
0110
0000
0001
0100
0010
1000
0001
1000
0010
0000
1001
0000
0000
0000
1100
0000
,
0000
0010
0001
0010
0000
1000
0001
0010
0000
0000
0110
0000
0000
0000
0101
0000
,
0001
0000
0001
1000
0001
0000
0100
0010
0100
0010
0001
0100
0001
0000
0000
0000
,
0100
0000
0001
1000
0001
0000
0010
0000
0100
0010
0100
1000
0010
0000
0000
0000
,
0100
0010
0001
0010
0001
0010
0100
1000
0100
1000
0100
0010
0001
0000
1000
0000
,
0001
1000
0010
1000
0010
0100
0010
0100
0001
0100
0001
0010
1001
0000
0000
0000
,
0001
1000
0001
0100
0001
0100
0010
0100
,
0010
1000
0010
1000
0001
0010
0001
1000
,
0001
1000
0010
1000
0001
0100
0001
0100
,
0001
0010
0100
0010
0100
0010
0001
0100
,
0001
1000
0001
0100
0010
1000
0010
1000
,
0010
0100
0001
1000
0001
0100
0001
0100
,
0010
0100
0010
1000
0001
1000
0001
0010
,
0001
1000
0010
1000
0010
0000
1100
0000
,
0101
0000
0000
0000
1001
0000
0000
0000
0010
0000
0001
1000
0000
0010
0100
0000
,
0001
0000
1000
0000
0010
0000
0000
0010
0001
0000
1000
0100
1000
0000
0001
0010
,
0001
0000
0000
0000
1000
0000
0001
0000
0010
0100
0000
1000
0100
0000
0001
0010
,
0001
0000
0100
0000
0010
0000
1000
0000
0100
0010
0000
0001
0010
0000
1000
0100
,
1000
0000
0000
0000
0010
0000
0010
0000
0010
0000
1000
0100
0000
0001
0010
0000
,
0100
0000
1000
0000
0001
0000
0010
0000
1000
0000
0001
0010
0001
0000
1000
0100
,
1000
0000
0000
0000
0100
0000
0000
0000
0010
0000
0100
0010
0000
1000
0001
0000
,
0100
0000
0010
0000
1000
0000
0100
0000
0001
1000
0010
1000
0010
1000
0100
0010
,
0001
1000
0001
1000
0000
0100
0010
0000
0010
1000
0001
0000
0001
1000
0000
0010
,
0100
0010
0100
1000
0001
0010
0100
1000
0100
1000
0100
0010
0001
0000
0000
0000
,
0100
0000
0001
1000
0001
0000
0001
0000
0010
0100
0010
0000
0010
1000
0000
1000
,
0100
0000
0100
0010
0000
1000
0010
0000
0100
0000
0000
0000
0001
0000
0001
1000
,
0001
0000
0100
0010
0100
0000
0000
0000
0100
0000
0010
1000
0100
0000
0000
0000
,
0001
0000
0100
0010
0100
0000
1100
0000
0010
1000
0010
1000
0001
0000
0000
0000
,
0001
0000
0010
0100
0010
0000
0000
0000
0100
0000
0100
1000
0001
0000
0000
0000
,
0001
0000
0010
0100
0010
0000
0011
0000
0001
0010
0001
1000
0010
0000
0010
1000
,
0100
0000
0001
0010
0001
0000
0000
0000
0100
0000
0100
0010
0001
0000
0000
0000
,
0100
0000
0100
0010
0001
0000
0011
0000
0100
1000
0010
1000
0001
0000
0000
0000
,
0010
0000
0010
1000
0001
0000
0000
0000
0001
0000
0100
1000
0100
0000
0000
0000
,
0001
0000
0001
1000
0100
0000
1100
0000
0010
0100
0010
0100
0010
0000
0100
1000
,
1001
0000
0011
1001
1010
0000
0011
0101
,
1010
1001
0110
1001
0110
0000
0100
0000
,
0110
0000
0101
1010
0110
0000
0110
0101
,
1010
0011
0101
0110
0110
0000
0100
0000
,
0011
0000
1010
1100
0101
0000
0101
1010
,
0110
1001
1001
1010
0110
0000
0100
0000
,
1001
0000
0011
0101
0110
0000
1100
0110
,
1100
0000
1010
0000
0011
0000
1100
0000
0101
0000
0010
0000
0100
1000
0010
0100
,
0010
1000
0100
1000
0010
1000
0100
0000
,
0001
0100
0010
1000
0100
0010
0001
0000
,
1100
0000
0010
1000
0001
0000
0110
0000
,
0001
0010
0100
1000
0110
0000
0010
1000
,
1001
0000
0010
0100
0001
0010
0001
0000
,
0010
0100
0000
0010
0100
1000
0010
0000
,
0110
0000
0100
1000
0010
0100
0011
0000
,
0001
0100
0010
0100
0020
0000
0000
0000
,
0130
0000
0000
0000
0001
0000
0000
0000
0100
0000
0010
0001
0000
0001
0100
0000
,
0010
0000
0100
0000
0001
0000
1000
0000
0010
0000
0100
0001
0100
0000
0010
0001
,
0010
0000
0000
0000
0010
0000
1000
0000
0100
0000
0010
0001
0000
0001
0010
0000
,
0100
0000
1000
0000
0010
0000
0100
0000
0001
0000
0010
0100
0000
0100
1000
0000
,
0100
0000
1000
0000
0001
0000
1000
0000
0010
0100
0010
0100
0001
0000
0010
0000
,
0100
0000
1000
0000
0001
0000
0100
0000
0010
0100
0010
0100
0010
0000
1000
0000
,
0100
0000
1000
0000
0010
0000
0100
0000
0010
0100
0010
0100
0001
0000
1000
0000
,
0001
0000
0100
0000
0010
0000
1000
0000
0100
0000
0010
0000
0001
0100
0001
0100
,
0001
0000
0010
1000
0010
0000
0010
0100
0001
1000
0100
0010
0001
0000
0000
0000
,
0100
0000
0001
0010
0100
0000
0100
0010
0001
1000
0100
0010
0001
0000
0000
0000
,
0200
0000
0000
0000
,
2300
0000
0000
0000
,
3001
0000
0000
0000
;
