#TITLE:Sonic3 & Knuckles Credits;
#ARTIST:Howard Drossin;
#BANNER:creditsfullversion.png;
#BACKGROUND:creditsfullversion-bg.png;
#OFFSET:-0.778481;
#BPMS:0=141.361257;
#MUSIC:Sonic3 & Knuckles Credits.mp3;
#CREDIT:Gorilla v1.1.4 (Dancing Monkeys v1.06); // --- Arrows ---
#NOTES:
     dance-single:
     Basic:
     easy:
     3:
     :
0000
0000
0000
0000
1000
0000
0001
0000
,
1000
0000
0000
0000
0000
0000
0000
0000
,
0000
0000
0000
0000
1000
0000
0001
0000
,
0000
0000
0000
0000
0001
0000
1000
0000
,
0000
0000
0000
0000
0001
0000
1000
0000
,
0000
0000
0000
0000
1000
0000
1000
0000
,
0000
0000
0000
0000
1000
0000
0001
0000
,
0000
0000
0000
0000
0001
0000
1000
0000
,
0000
0000
0000
0000
0001
0000
1000
0000
,
0000
0000
0000
0000
0001
0000
1000
0000
,
0000
0000
0000
0000
1000
0000
0001
0000
,
0000
0000
0000
0000
1000
0000
0001
0000
,
0000
0000
0000
0000
0001
0000
1000
0000
,
0000
0000
0000
0000
0000
0000
0001
0000
,
0000
0000
0000
0000
1000
0000
0001
0000
,
1000
0000
0100
0000
0000
0000
0010
0000
,
0000
0000
0001
0000
0010
0000
0000
0000
,
0001
0000
0000
0000
0001
0000
0000
0000
,
0001
0000
0000
0000
0001
0000
0000
0000
,
0000
0000
1000
0000
0010
0000
0010
0000
,
0000
0000
0000
0000
1000
0000
1000
0000
,
0000
0000
1000
0000
0000
0000
0001
0000
,
0000
0000
0001
0000
0000
0000
1000
0000
,
1000
0000
0000
0000
0000
0000
0000
0000
,
0001
0000
0100
0000
0000
0000
0000
0000
,
0000
0000
0000
0000
0000
0000
1000
0000
,
0001
0000
0000
0000
0000
0000
0000
0000
,
1000
0000
0000
0000
0000
0000
0000
0000
,
0000
0000
0000
0000
0000
0000
0000
0000
,
1000
0000
0010
0000
0000
0000
0000
0000
,
1000
0000
0010
0000
0100
0000
0010
0000
,
1000
0000
0000
0000
0100
0000
1000
0000
,
1000
0000
0100
0000
0010
0000
1000
0000
,
0000
0000
1000
0000
0000
0000
0010
0000
,
0001
0000
0000
0000
0010
0000
0100
0000
,
1000
0000
0000
0000
0010
0000
1000
0000
,
1000
0000
0001
0000
0000
0000
0010
0000
,
0000
0000
1000
0000
0000
0000
0010
0000
,
1000
0000
0001
0000
0000
0000
0000
0000
,
0001
0000
0100
0000
0001
0000
0100
0000
,
0001
0000
0010
0000
0001
0000
1000
0000
,
0001
0000
1000
0000
0010
0000
0100
0000
,
0001
0000
0010
0000
0001
0000
1000
0000
,
1000
0000
0100
0000
0100
0000
0010
0000
,
1000
0000
1000
0000
0000
0000
0100
0000
,
1000
0000
0010
0000
0100
0000
0001
0000
,
1000
0000
1000
0000
0000
0000
0100
0000
,
1000
0000
0101
0000
1000
0000
0010
0000
,
0000
0000
0000
0000
0001
0000
0100
0000
,
0000
0000
0000
0000
1000
0000
0010
0000
,
1000
0000
0000
0000
0000
0000
0100
0000
,
1000
0000
0100
0000
0100
0000
0010
0000
,
1000
0000
0000
0000
0010
0000
1000
0000
,
0001
0000
0100
0000
0100
0000
0010
0000
,
0001
0000
0100
0000
0001
0000
0001
0000
,
0000
0000
1000
0000
0010
0000
0010
0000
,
1000
0000
1000
0000
0001
0000
0000
0000
,
1000
0000
0000
0000
0100
0000
1000
0000
,
0001
0000
0010
0000
0100
0000
0010
0000
,
0001
0000
0010
0000
0100
0000
0000
0000
,
1000
0000
0100
0000
0100
0000
0010
0000
,
0001
0000
1000
0000
0100
0000
1000
0000
,
0000
0000
1000
0000
1000
0000
0010
0000
,
0001
0000
0010
0000
0100
0000
0010
0000
,
1000
0000
0010
0000
0100
0000
0000
0000
,
2000
0000
0000
0000
0000
0000
3000
0000
,
0001
0000
0000
0000
0001
0000
0000
0000
,
0000
0000
1000
0000
0000
0000
0001
0000
,
0000
0000
0000
0000
1000
0000
0001
0000
,
0000
0000
1000
0000
0010
0000
0010
0000
,
0001
0000
0000
0000
0001
0000
0000
0000
,
0000
0000
1000
0000
0000
0000
0020
0000
,
0000
0000
0000
0000
0000
0000
0000
0000
,
0000
0000
0030
0000
0000
0000
3000
0000
,
0000
0000
1000
0000
0010
0000
1000
0000
,
0000
0000
1000
0000
1000
0000
0100
0000
,
0000
0000
1000
0000
0010
0000
1000
0000
,
0000
0000
1000
0000
0100
0000
0001
0000
,
0001
0000
1000
0000
0010
0000
0100
0000
,
0001
0000
1000
0000
0010
0000
0100
0000
,
1000
0000
0000
0000
0100
0000
1000
0000
,
0001
0000
0010
0000
0100
0000
0010
0000
,
0001
0000
1000
0000
0000
0000
0010
0000
,
0001
0000
0001
0000
0000
0000
0100
0000
,
0001
0000
1000
0000
0000
0000
0010
0000
,
0001
0000
0001
0000
0010
0000
0000
0000
,
0001
0000
0001
0000
0000
0000
0100
0000
,
1000
0000
0000
0000
0100
0000
1000
0000
,
1000
0000
0100
0000
0100
0000
0010
0000
,
0001
0000
1000
0000
0000
0000
0001
0000
,
1000
0000
0100
0000
0000
0000
0010
0000
,
0001
0000
0010
0000
0000
0000
0100
0000
,
0001
0000
0100
0000
0000
0000
0010
0000
,
1000
0000
0010
0000
0000
0000
0100
0000
,
1000
0000
0100
0000
0000
0000
0010
0000
,
1000
0000
0100
0000
0000
0000
0010
0000
,
1000
0000
0010
0000
0000
0000
0100
0000
,
0000
0000
0001
0000
1000
0000
0100
0000
,
1000
0000
0100
0000
0000
0000
0010
0000
,
0000
0000
1000
0000
0000
0000
0001
0000
,
0000
0000
0001
0000
0000
0000
1000
0000
,
0000
0000
0000
0000
0000
0000
0001
0000
,
0000
0000
0000
0000
0000
0000
1000
0000
,
0000
0000
0000
0000
1000
0000
0010
0000
,
0001
0000
0001
0000
0010
0000
0000
0000
,
0001
0000
1000
0000
0000
0000
0010
0000
,
1000
0000
0010
0000
0100
0000
0000
0000
,
0000
0000
0000
0000
1000
0000
0001
0000
,
0000
0000
0000
0000
0001
0000
1000
0000
,
0000
0000
0000
0000
0001
0000
1000
0000
,
0000
0000
1000
0000
0100
0000
0001
0000
,
0000
0000
0001
0000
0100
0000
0010
0000
,
0001
0000
0000
0000
1000
0000
0010
0000
,
0000
0000
0001
0000
0100
0000
0010
0000
,
0000
0000
0001
0000
0100
0000
0010
0000
,
0001
0000
0000
0000
1000
0000
0010
0000
,
1000
0000
0000
0000
0001
0000
0100
0000
,
0000
0000
1000
0000
0010
0000
0010
0000
,
0001
0000
0000
0000
0010
0000
0100
0000
,
0001
0000
0000
0000
1000
0000
0010
0000
,
1000
0000
0000
0000
0001
0000
0010
0000
,
1000
0000
0000
0000
0100
0000
1000
0000
,
0001
0000
0000
0000
0001
0000
0000
0000
,
0001
0000
0000
0000
1000
0000
0010
0000
,
1000
0000
0000
0000
0001
0000
0100
0000
,
1000
0000
0000
0000
0100
0000
1000
0000
,
1000
0000
1000
0000
0001
0000
0000
0000
,
0000
0000
0000
0000
1000
0000
0001
0000
,
0000
0000
0000
0000
0200
0000
0000
0000
,
0000
0000
0000
0000
0300
0000
0100
0000
,
1000
0000
0000
0000
0100
0000
1000
0000
,
0000
0000
1000
0000
0010
0000
0010
0000
,
0000
0000
1000
0000
0010
0000
0010
0000
,
0000
0000
1000
0000
0100
0000
0100
0000
,
0000
0000
1000
0000
0100
0000
0100
0000
,
0000
0000
1000
0000
0010
0000
0010
0000
,
0001
0000
0001
0000
0010
0000
0000
0000
,
0001
0000
0010
0000
0001
0000
1000
0000
,
1000
0000
0000
0000
0000
0000
0000
0000
,
#NOTES:
     dance-single:
     Standard:
     medium:
     6:
     :
0000
0000
0001
0000
0010
0000
0001
0000
,
1000
0000
0000
0010
0000
0000
0000
0000
,
0000
0000
0001
0000
0010
0000
0001
0000
,
0000
0000
1000
0000
0010
0000
1000
0000
,
0000
0000
1000
0000
0010
0000
1000
0000
,
0001
0000
0000
1000
0100
0000
0100
0000
,
0000
0000
0001
0000
0010
0000
0001
0000
,
0000
0000
0001
0000
0100
0000
0001
0000
,
0000
0000
1000
0000
0010
0000
1000
0000
,
0000
0000
1000
0000
0100
0000
1000
0000
,
0000
0000
1000
0000
0100
0000
1000
0000
,
0000
0000
0001
0000
0010
0000
0001
0000
,
0000
0000
1000
0000
0010
0000
1000
0000
,
0000
1000
0000
0010
0000
0100
0000
0000
,
0000
0000
0001
0000
0010
0000
0001
0000
,
1000
0000
0010
0000
0001
0000
0100
0000
,
1000
0000
0010
0000
0100
0000
0000
0000
,
0001
1000
0000
0000
1000
0000
0000
0000
,
0001
1000
0000
0000
1000
0000
0000
0000
,
0001
0000
0010
0000
0100
0000
0100
1000
,
0001
0000
0000
1000
0100
0000
0100
0000
,
0000
0000
0001
0000
1000
0000
0010
0000
,
0000
0000
1000
0000
0001
0000
0010
0000
,
1000
0000
0000
0010
0000
0000
0000
0000
,
0001
0000
0010
0000
0000
0000
0000
0001
,
0000
0000
0000
0000
0000
0001
1000
0000
,
0001
0100
0000
0000
0000
0000
0000
1000
,
1000
0000
0000
0100
0000
0000
0000
0000
,
0000
1000
0000
0000
0000
0100
0000
0000
,
0001
1000
0100
0000
0000
0000
0100
0000
,
0001
0000
0010
0000
0100
0000
1000
0010
,
1000
0010
0000
0000
1000
0001
0100
0000
,
0001
0000
0010
0000
0001
0000
1000
0010
,
0000
0000
1000
0001
0010
0000
0001
0000
,
0001
0000
0000
0000
1000
0001
1000
0000
,
0001
0010
0100
0000
0010
0000
0100
0000
,
1000
0000
0100
0000
0000
0000
0010
1000
,
0000
0000
1000
0001
0010
0000
0001
0000
,
0001
0001
0100
0000
0000
0000
0000
0000
,
0000
0000
0001
0000
0100
0001
0100
0010
,
1000
0000
0001
1000
0010
1000
0001
0100
,
1000
0001
0010
0000
0100
1000
0001
1000
,
1000
0000
0001
1000
0010
1000
0001
0100
,
1000
0000
0001
0000
0001
0001
0010
0100
,
1000
0000
1000
0010
1000
0000
0100
1000
,
0001
0000
1001
0000
0001
0000
1000
0001
,
1000
0000
1000
0010
1000
0000
0100
1000
,
1000
0000
1010
0000
0001
0000
0000
0100
,
0000
0000
0000
0000
0001
0010
0001
0100
,
0000
0001
0000
0000
0100
0000
0001
0000
,
1000
0000
0000
0000
0000
0010
0100
0100
,
1000
0000
0001
0000
0001
0001
0010
0100
,
0001
0010
0100
0000
0010
0000
0100
0000
,
0001
0000
1000
0010
0010
0000
0100
1000
,
1000
0000
0001
1000
0010
0000
0010
0100
,
0001
0000
0010
0000
0100
0000
0100
1000
,
0001
0000
0001
0100
0010
0000
1000
0000
,
1000
0000
0100
0000
1000
0000
0001
0100
,
1000
0001
1000
0000
0001
1000
0010
0000
,
0001
0010
0001
0000
0010
0000
0000
0100
,
1000
0000
0001
0000
0001
0001
0010
0100
,
0001
0000
0010
0100
1000
0001
0100
0001
,
0000
1000
0100
0000
0100
0010
0100
0010
,
1000
0001
0100
0010
1000
0100
1000
0000
,
1000
0000
0001
1000
0010
0000
0000
0000
,
0002
0000
0000
0000
0000
0000
0003
1000
,
0001
1000
0000
0000
1000
0000
0000
0000
,
0000
0000
0001
0000
1000
0000
0010
0000
,
0000
0000
0001
0000
0010
0000
0001
0000
,
0001
0000
0010
0000
0100
0000
0100
1000
,
0001
1000
0000
0000
1000
0000
0000
0000
,
0000
0000
0001
0000
1000
0000
0020
0000
,
0000
0000
0000
0000
0000
0000
0100
0000
,
0000
0000
0030
0000
0000
0000
0003
1000
,
0000
1000
1000
0000
0001
0010
0000
0001
,
0000
0001
1000
0001
0001
0100
0010
0000
,
0000
1000
1000
0000
0001
0010
0000
0001
,
0000
0001
0010
0000
0100
1000
0100
0000
,
0001
1000
0001
0010
1000
0000
0010
0000
,
0001
1000
0001
0010
1000
0000
0010
0000
,
1000
0000
0100
0000
1000
0000
0001
0100
,
1000
0001
1000
0000
0001
1000
0010
0000
,
1000
0000
0001
1000
0000
0000
0001
0010
,
0001
0010
0010
0000
0000
0000
0100
0010
,
1000
0000
0001
1000
0000
0000
0001
0010
,
0001
0000
0001
1000
0010
0000
0100
0000
,
0001
0010
0010
0000
0000
0000
0100
0010
,
1000
0000
0100
0000
1000
0000
0001
0100
,
1000
0000
0001
0000
0001
0001
0010
0100
,
1000
0010
0100
0010
0000
0000
1000
0000
,
1000
0000
0010
0000
0001
0000
0100
0000
,
0001
0000
0100
0000
1000
0000
0010
0000
,
1000
0000
0100
0000
0001
0000
0010
0000
,
1000
0000
0100
0000
0001
0000
0010
0000
,
0001
0000
0010
0000
1000
0000
0100
0000
,
1000
0000
0010
0000
0001
0000
0100
0000
,
0001
0000
0010
0000
1000
0000
0100
0000
,
0001
0010
0100
0000
0010
0000
0001
0000
,
1000
0000
0010
0000
0001
0000
0100
0000
,
0000
0000
0001
0000
1000
0000
0010
0000
,
0000
0000
1000
0000
0001
0000
0010
0000
,
0000
1000
0000
0010
0000
0100
0000
0000
,
0000
1000
0000
0100
0000
0010
0000
0000
,
0000
0001
0000
0000
0100
0000
0001
0000
,
0001
0000
0001
1000
0010
0000
0100
0000
,
0001
0000
0010
0000
0001
0000
0100
0000
,
1000
0000
0001
1000
0010
0000
0000
0000
,
0000
0000
0001
0000
0010
0000
0001
0000
,
0000
0000
1000
0000
0100
0000
1000
0000
,
0000
0000
1000
0000
0100
0000
1000
0000
,
0000
0001
0010
0000
0100
1000
0100
0000
,
1000
0000
0001
0000
0100
0000
0001
0000
,
1000
0000
0000
0000
0100
0010
0100
0000
,
1000
0000
0001
0000
0100
0000
0001
0000
,
0001
0000
1000
0000
0010
0000
1000
0000
,
1000
0000
0000
0000
0100
0010
0100
0000
,
1000
0000
0000
0000
0100
0010
0100
0000
,
0001
0000
0010
0000
0100
0000
0100
1000
,
0001
1000
0000
0000
0001
0001
0100
0000
,
1000
0000
0000
0000
0100
0010
0100
0000
,
0001
0000
0000
0000
0010
0100
0010
0000
,
1000
0000
0100
0000
1000
0000
0001
0100
,
0001
1000
0000
0000
1000
0000
0000
0000
,
1000
0000
0000
0000
0100
0010
0100
0000
,
0001
0000
0000
0000
0100
0010
0100
0000
,
1000
0000
0100
0000
1000
0000
0001
0100
,
0001
0000
0001
0100
0010
0000
1000
0000
,
0000
0000
0001
0000
0010
0000
0001
0000
,
0001
0000
0000
1000
2000
0000
0100
0000
,
0000
0000
0010
0000
3000
0000
0100
0010
,
1000
0000
0100
0000
1000
0000
0001
0100
,
0001
0000
0010
0000
0100
0000
0100
1000
,
0001
0000
0010
0000
0100
0000
0100
1000
,
0001
0000
0100
0000
0010
0000
0010
1000
,
1000
0000
0100
0000
0010
0000
0010
0001
,
1000
0000
0100
0000
0010
0000
0010
0001
,
0001
0000
0001
1000
0010
0000
0100
0000
,
1000
0000
0001
1000
0010
1000
0001
0100
,
0001
0000
0000
0000
0000
0000
0000
0000
,
#NOTES:
     dance-single:
     Heavy:
     hard:
     9:
     :
0001
0000
0001
0000
0010
0010
0001
0000
,
0001
0000
0000
0100
0001
0001
0000
0100
,
0001
0000
0001
0000
0010
0010
0001
0000
,
1000
0000
1000
0000
0100
0100
1000
0000
,
0001
0000
0001
0000
0100
0100
0001
0000
,
0001
0001
0000
1000
0010
0100
0100
0000
,
0001
0000
0001
0000
0010
0010
0001
0000
,
0001
0000
0001
0000
0010
0010
0001
0000
,
0001
0000
0001
0000
0100
0100
0001
0000
,
1000
0000
1000
0000
0010
0010
1000
0000
,
1000
0000
1000
0000
0010
0010
1000
0000
,
1000
0000
1000
0000
0010
0010
1000
0000
,
1000
0000
1000
0000
0100
0100
1000
0000
,
0000
0001
0010
0001
0000
1000
0010
1000
,
0001
0000
0001
0000
0010
0010
0001
0000
,
1000
0100
1000
0010
1000
0000
0010
0100
,
0001
0001
1000
0100
1000
0000
0000
0001
,
0001
1000
0000
0100
0100
0001
0100
0100
,
0001
1000
0000
0010
0010
0001
0010
0010
,
1000
0100
1000
0010
1000
0100
0100
1000
,
0001
0001
0000
1000
0010
0100
0100
0000
,
0000
0000
0001
0100
0001
0010
0001
0001
,
0000
0000
0001
0010
0001
0100
0001
0001
,
0001
0000
0000
0100
0001
0001
0000
0100
,
1000
1000
0010
0100
0000
0001
0001
0100
,
0001
0000
0000
1000
0000
0100
0010
0000
,
0001
0100
1000
0000
1000
0100
0000
0001
,
1000
0000
0010
1000
0000
0000
1000
1000
,
0000
0001
0100
0010
0100
0001
0000
0000
,
1000
0001
0100
1000
0000
0100
0100
0010
,
1000
0100
0010
0010
0100
1000
0001
0100
,
1000
0010
0000
0100
0010
0100
0001
0000
,
0001
0001
1000
0000
0100
0010
0001
0100
,
0000
0001
1000
0001
1000
0010
1000
0001
,
1000
0000
0010
0000
0100
0010
0100
0001
,
1000
0001
0100
0001
0100
0010
0100
0001
,
1000
0001
0100
0010
0010
1000
0100
1000
,
0000
0001
1000
0001
1000
0010
1000
0001
,
1000
1000
0010
0100
0000
0000
0000
0010
,
1000
0001
0010
0100
0010
0100
1000
0010
,
0001
0010
0001
0010
0100
0000
1001
0000
,
1000
0000
0011
0000
0001
0010
0001
0000
,
0001
0010
0001
0010
0100
0000
1001
0000
,
1000
0000
0100
1000
1000
1000
0010
1000
,
1000
0100
0100
0010
0000
1000
0010
0100
,
1000
0000
0110
0000
0100
1000
0100
0010
,
1000
0100
0100
0010
0000
1000
0010
0100
,
0001
0000
0101
0000
0001
1000
0000
0010
,
0000
1000
0100
0010
0100
1000
0100
0001
,
0001
0010
0001
0010
0100
1000
0100
0000
,
1000
0000
1000
0100
0000
1000
0100
0100
,
1000
0000
0100
1000
1000
1000
0010
1000
,
1000
0001
0100
0001
0100
0010
0100
0001
,
0001
0000
0000
1000
1000
0010
0100
0010
,
0000
0000
1100
0000
0100
0001
0001
0010
,
1000
0100
1000
0010
1000
0100
0100
1000
,
0001
0000
0001
0010
0100
1000
0001
0100
,
0001
1000
0001
1000
0001
0000
0010
0100
,
0001
0100
0010
0010
0100
0001
1000
0001
,
0001
0010
0001
0000
1000
0100
0000
1000
,
1000
0000
0100
1000
1000
1000
0010
1000
,
1000
0100
0010
0100
1000
0001
1000
0001
,
0000
1000
0010
0000
0010
1000
0001
0100
,
0001
0100
0001
1000
0001
1000
0100
0000
,
0001
0010
0001
0100
0001
1000
0000
0010
,
2000
0000
0000
0000
0010
0000
3000
1000
,
0001
1000
0000
0100
0100
0001
0100
0100
,
0000
0000
0001
0100
0001
0010
0001
0001
,
0001
0000
0001
0000
0010
0010
0001
0000
,
1000
0100
1000
0010
1000
0100
0100
1000
,
0001
1000
0000
0100
0100
0001
0100
0100
,
0000
0000
0001
0100
0001
0010
0200
0000
,
1000
0000
1000
0000
0010
0000
0010
0000
,
2000
0000
0300
0000
0010
0000
3000
1000
,
0000
0001
0001
0100
0010
1000
0000
0100
,
0001
0100
1000
0100
0100
0010
0100
0010
,
0000
0001
0001
0100
0010
1000
0000
0100
,
0001
0100
1000
0100
0001
0100
0010
0100
,
1000
0100
0010
0100
0010
0000
0001
0100
,
0001
0010
0100
0010
0100
0000
1000
0010
,
0001
1000
0001
1000
0001
0000
0010
0100
,
0001
0100
0010
0010
0100
0001
1000
0001
,
1000
0001
0100
0001
0000
0010
0001
1000
,
1000
0100
0100
0010
0100
1000
0001
0010
,
1000
0001
0100
0001
0000
0010
0001
1000
,
1000
0010
0010
1000
0001
0000
0100
0001
,
1000
0100
0100
0010
0100
1000
0001
0010
,
0001
1000
0001
1000
0001
0000
0010
0100
,
1000
0000
0100
1000
1000
1000
0010
1000
,
1000
0001
1000
0010
0001
0001
0100
1000
,
1000
0100
1000
0010
1000
0000
0010
0100
,
0001
0010
0001
0100
0001
0000
0100
0010
,
0001
0010
0001
0100
0001
0000
0100
0010
,
0001
0100
0001
0010
0001
0000
0010
0100
,
1000
0010
1000
0100
1000
0000
0100
0010
,
1000
0010
1000
0100
1000
0000
0100
0010
,
1000
0010
1000
0100
1000
0000
0100
0010
,
0001
0010
0001
0001
1000
0010
0100
0001
,
1000
0100
1000
0010
1000
0000
0010
0100
,
0000
0000
0001
0100
0001
0010
0001
0001
,
0000
0000
1000
0010
1000
0100
1000
1000
,
0000
0001
0010
0001
0000
1000
0010
1000
,
0000
0001
0010
0001
0000
1000
0010
1000
,
0001
0010
0001
0010
0100
1000
0100
0000
,
1000
0010
0010
1000
0001
0000
0100
0001
,
1000
0100
0001
0100
1000
0100
1000
0100
,
0001
0010
0001
0100
0001
1000
0000
0010
,
0001
0000
0001
0000
0010
0010
0001
0000
,
1000
0000
1000
0000
0100
0100
1000
0000
,
1000
0000
1000
0000
0010
0010
1000
0000
,
0001
0100
1000
0100
0001
0100
0010
0100
,
1000
0100
0010
0001
0010
0001
1000
1000
,
1000
0010
1000
0000
0010
0100
0010
0100
,
1000
0100
0010
0001
0010
0001
1000
1000
,
1000
0100
0010
0001
0010
0001
1000
1000
,
1000
0010
1000
0000
0010
0100
0010
0100
,
1000
0010
1000
0000
0010
0100
0010
0100
,
1000
0100
1000
0010
1000
0100
0100
1000
,
1000
0010
1000
0000
0010
0010
1000
0000
,
1000
0010
1000
0000
0010
0100
0010
0100
,
1000
0010
1000
0000
0010
0100
0010
0100
,
0001
1000
0001
1000
0001
0000
0010
0100
,
0001
1000
0000
0100
0100
0001
0100
0100
,
1000
0010
1000
0000
0010
0100
0010
0100
,
1000
0100
1000
0000
0100
0010
0100
0010
,
0001
1000
0001
1000
0001
0000
0010
0100
,
0001
0000
0001
0010
0100
1000
0001
0100
,
0001
0000
0001
0000
0010
0010
0001
0000
,
0001
0001
0000
1000
0002
0000
0100
0000
,
1000
0000
0100
0000
0103
1000
0001
0010
,
0001
1000
0001
1000
0001
0000
0010
0100
,
1000
0100
1000
0010
1000
0100
0100
1000
,
1000
0100
1000
0010
1000
0100
0100
1000
,
0001
0010
0001
0100
0001
0010
0010
0001
,
1000
0010
1000
0100
1000
0010
0010
1000
,
1000
0010
1000
0100
1000
0010
0010
1000
,
1000
0010
0010
1000
0001
0000
0100
0001
,
0001
0010
0001
0010
0100
0000
1001
0000
,
0001
0000
0000
0000
0000
0000
0000
0000
,
