#TITLE:TRIP MACHINE;
#SUBTITLE:;
#ARTIST:DE-SIRE;
#TITLETRANSLIT:;
#SUBTITLETRANSLIT:;
#ARTISTTRANSLIT:;
#CREDIT:;
#BANNER:TRIP MACHINE.png;
#BACKGROUND:TRIP MACHINE-bg.png;
#LYRICSPATH:;
#CDTITLE:./CDTITLES/DANCE DANCE REVOLUTION.PNG;
#MUSIC:TRIP MACHINE.mp3;
#OFFSET:-0.049;
#SAMPLESTART:12.010;
#SAMPLELENGTH:15.000;
#SELECTABLE:YES;
#DISPLAYBPM:160.000;
#BPMS:0.000=160.090;
#STOPS:224.500=0.187
,225.500=0.187
,226.500=0.187
,227.500=0.187
;
#BGCHANGES:;

//---------------dance-single - ----------------
#NOTES:
     dance-single:
     :
     Easy:
     4:
     0.303,0.295,0.012,0.023,0.000:
0000
0000
0000
0000
,
0000
0000
0000
0000
,
0000
0000
0000
0000
,
0000
0000
0000
0000
,
0000
0000
0000
0000
,
0100
0000
0100
0000
,
0100
0000
0100
0000
,
0100
0000
0000
0000
,
1000
0100
0010
0001
,
0100
0010
1000
0000
,
0001
0010
0100
1000
,
0010
0100
0001
0000
,
1000
0100
0001
0100
,
0001
0100
1000
0000
,
1000
0010
1000
0010
,
0001
0010
0001
0000
,
1000
0100
1000
0100
,
0010
0001
0010
0100
,
1000
0001
0100
0010
,
1000
0010
0100
0000
,
0001
1000
0100
1000
,
0001
0010
0001
0100
,
0010
1000
0010
0100
,
0001
0010
0100
0000
,
2001
0000
3100
0000
,
0002
0100
0103
0000
,
1000
0010
0100
0001
,
0010
0100
1000
0000
,
0001
0100
0001
0100
,
1000
0100
1000
0000
,
1000
0100
0010
0001
,
0100
0010
1000
1000
,
0001
0001
1000
1000
,
0001
1000
0001
1000
,
0010
0010
0100
0100
,
0010
0100
0010
0100
,
0001
0001
0010
0010
,
0001
0010
0001
0010
,
0100
0100
1000
1000
,
0100
1000
0100
1000
,
0100
0000
0000
0000
,
0010
0000
0000
0010
0000
0000
0100
0000
,
0000
0001
0001
0000
0100
0000
0100
0000
,
0010
0010
0100
0000
,
1000
1000
0100
0100
,
0010
0010
0001
0001
,
0100
0010
0100
0010
,
1000
0001
1000
0000
,
0001
0010
0001
0000
,
1000
0010
1000
0000
,
0001
0100
0010
1000
,
0010
0100
0001
0010
,
0100
1000
0100
0000
,
1000
0100
1000
0000
,
0001
0100
0010
1000
,
0010
0100
0001
0010
,
0100
1000
0000
1000
0000
1000
0000
1000
;

//---------------dance-single - ----------------
#NOTES:
     dance-single:
     :
     Medium:
     6:
     0.418,0.459,0.069,0.000,0.000:
0000
0000
0000
0000
,
0000
0000
0000
0000
,
0000
0000
0000
0000
,
0000
0000
0000
0000
,
0000
0000
0000
0000
,
1000
0000
0100
0000
,
0010
0000
0001
0000
,
0100
0010
0100
0010
0000
0000
0100
0000
,
0100
0010
1000
0001
,
0010
0100
0000
0100
0000
1000
0100
0000
,
1000
0100
1000
0000
0001
0100
0001
0000
,
1000
0010
0000
0010
0000
0001
0010
0000
,
1000
0100
0001
0000
0101
0000
1100
0000
,
1000
0001
0000
0001
0000
0001
0000
0001
,
0100
0000
0010
0000
1000
0100
1000
0000
,
0001
0100
0000
0010
1000
0000
1000
0000
,
0010
0100
0010
0000
0010
0100
0010
0000
,
0100
0001
0100
0001
0000
0001
0000
0000
,
1000
0100
0001
0000
0001
0100
1000
0000
,
0010
0010
0100
0100
,
0010
0010
1000
0001
,
1000
0010
0001
0000
0001
0010
1000
0000
,
1000
0100
1000
0000
0001
0000
0001
0000
,
0100
0100
0010
0010
,
1000
0000
0000
0000
,
1000
1000
0000
0001
0000
0100
0100
0000
,
0010
0010
1000
0100
,
0010
0001
0000
0100
0000
0100
0010
1000
,
0100
0000
0010
0000
0010
0001
0010
0100
,
0000
1001
0000
0000
1000
0000
1000
0000
,
0001
0001
0100
0100
,
0010
1000
0010
1000
0010
0000
0010
0000
,
0100
0000
0100
0000
0001
1000
0100
0000
,
1000
0000
1000
0000
0001
1000
0100
0000
,
1000
0000
1000
0000
0001
0010
0001
0000
,
1000
0000
1000
0000
0001
0010
1000
0000
,
0100
0000
0100
0000
0010
0001
0100
0000
,
0010
0000
1000
0000
0001
0100
0010
0000
,
1000
0000
0100
0000
0010
0001
1000
0000
,
0100
0000
1000
0000
0001
0100
0010
0000
,
1000
0000
0000
0000
,
1000
0100
1000
0100
0000
0010
0010
0000
,
0001
0100
0100
0000
0010
0000
1000
0000
,
0100
0010
0001
0010
0100
0000
0000
0000
,
1000
0000
0100
0000
0010
0001
0100
0000
,
0010
0000
1000
0001
0000
0001
0100
0000
,
0010
0100
0100
0000
0010
0000
0010
0000
,
1000
0100
0001
0000
0101
0000
1100
0000
,
0010
0010
0000
0000
0100
0000
0100
0000
,
0010
1000
0001
1000
,
1000
0100
0010
0000
0001
0000
0001
0000
,
0100
0010
0100
0100
0010
0100
0100
0010
,
0100
0010
0100
0000
0010
0000
0010
0000
,
1000
0000
0001
0000
1001
0000
1000
0100
,
0000
0100
0010
0000
0010
0000
0001
0000
,
0100
0010
1000
0010
,
0100
0010
0100
0010
0100
0010
0100
0010
;

//---------------dance-single - ----------------
#NOTES:
     dance-single:
     :
     Hard:
     8:
     0.573,0.656,0.115,0.092,0.000:
0000
0000
0000
0000
,
0000
0000
0000
0000
,
0000
0000
0000
0000
,
0000
0000
0000
0000
,
0000
0000
0000
0000
,
1000
0100
0001
0000
1000
0100
0001
0000
,
1000
0010
0001
0000
1000
0010
0001
0000
,
1000
0100
0001
0000
0000
0000
0000
0000
,
1000
0100
1000
0000
1000
0100
1000
0000
,
1000
0100
0010
0001
0000
0001
0010
0000
,
0001
0100
0001
0000
0001
0100
0001
0000
,
0001
0010
0100
1000
0000
1000
0100
0000
,
1000
0001
1000
0001
0100
0010
0100
0000
,
0010
1000
0010
1000
0010
0100
0001
0000
,
1000
0100
0001
0000
0001
0100
1000
0000
,
1000
0010
0001
0100
0010
1000
0010
0000
,
0100
0100
0100
0000
0010
0010
0010
0000
,
1000
0100
0010
0001
0010
0000
1001
0000
,
0001
0010
0100
1000
0010
0100
1000
0000
,
0100
0010
0100
0010
1000
0001
1000
0000
,
0001
0010
0100
0000
0001
0010
0100
0000
,
1000
0010
0100
0001
0100
0000
1001
0000
,
0001
0100
1000
0000
0001
0100
1000
0000
,
0010
0100
0010
0100
0010
0100
0010
0100
,
0010
0000
0000
0000
0000
0000
0000
0100
,
0100
0100
0000
0010
0000
1000
1000
0000
,
0001
1000
0001
0000
1000
0001
1000
0000
,
0001
0010
0100
1000
0010
0100
1000
0000
,
0001
0100
0001
0100
0010
1000
0010
0000
,
1000
0100
1000
0100
0010
0001
0010
0000
,
0001
0010
0100
1000
0010
0100
1000
0100
,
0001
0100
0010
1000
0100
0000
1001
0000
,
1000
0001
1000
0000
0001
1000
0001
0000
,
0100
0010
0100
0010
1000
0010
1000
0000
,
0001
0100
0001
0000
0100
0010
0100
0000
,
0010
1000
0100
0010
0001
0100
0010
0000
,
1000
0100
0001
0000
1000
0100
0001
0000
,
1000
0010
0001
0010
0100
0001
0100
0000
,
0010
1000
0001
0000
0010
1000
0001
0000
,
1000
0100
0010
0001
0100
0010
1000
0100
,
1001
0000
0000
0000
,
1000
0100
1000
0100
0001
0100
0001
0000
,
1000
0100
0101
0000
0001
0100
1100
0000
,
1000
0010
0100
0001
0010
0100
0000
0000
,
1000
0100
1000
0000
0100
0010
0100
0000
,
0010
0001
0010
0001
0100
0010
1000
0000
,
0010
0100
0010
0000
0100
0010
0100
0000
,
0001
1000
0001
1000
0100
0010
0100
0010
,
0001
0001
0001
0000
1000
1000
1000
0000
,
0010
0010
0010
0000
0100
0100
0100
0000
,
0001
0010
0100
1000
0001
0010
0100
1000
,
0010
0100
0001
1000
0010
0100
0001
1000
,
0100
0010
0001
0000
0100
0010
0001
0000
,
1000
0010
0100
0001
0010
0100
1000
0100
,
0010
0001
0100
0000
0010
0001
0100
0000
,
0010
1000
0100
0010
0001
0100
0010
1000
,
0010
0000
2002
3003
0100
0000
2002
3003
0010
0000
2002
3003
0100
0000
2002
3003
;

//---------------dance-double - ----------------
#NOTES:
     dance-double:
     :
     Easy:
     7:
     0.366,0.429,0.242,0.000,0.000:
00000000
00000000
00000000
00000000
,
00000000
00000000
00000000
00000000
,
00000000
00000000
00000000
00000000
,
00000000
00000000
00000000
00000000
,
00000000
00000000
00000000
00000000
,
00000000
00000000
00000000
00000000
,
00000000
00000000
00000000
00000000
,
00000000
00000000
00000000
00000000
,
00000010
00000100
00000001
00001000
,
00010000
10000000
01000000
00100000
,
00010000
10000000
00000000
00100000
,
00000000
00010000
01000000
10000000
,
00110000
00001100
00000001
00000100
,
00000110
00000001
00000010
00001000
,
00000010
00000100
00000010
00000100
,
00001000
01000000
00010000
00100000
,
01100000
10010000
00100000
01000000
,
00000000
00000000
00010000
01000000
10000000
00100000
00010000
00000000
,
00100000
10000000
01000000
00010000
,
00001000
00000010
00000001
00000100
,
00000110
00001001
00000010
00000100
,
00000000
00000000
00001000
00000100
00000001
00000010
00001000
00000000
,
00000010
00000001
00000100
00001000
,
00010000
00100000
10000000
01000000
,
00100000
01000000
00010000
00001000
,
00000100
00001000
00010000
01000000
,
10100000
00010000
00001000
00010000
,
01000000
00000000
00000100
00000000
00000001
00000010
00000000
00000000
,
00000100
00001000
00000011
00001100
,
00000010
00001000
01000000
10000000
,
00010000
00100000
10010000
01000000
,
00100000
00010000
01000000
10000000
,
00100000
00100000
01000000
01000000
,
10000000
00000000
10000000
00000000
01000000
00010000
00001000
00000000
,
00000010
00000010
00000100
00000100
,
00000001
00000000
00000001
00000000
00000100
00001000
00010000
00000000
,
00100000
00100000
01000000
01000000
,
10000000
00000000
10000000
00000000
01000000
00010000
00001000
00000000
,
00000010
00000010
00000100
00000100
,
00000001
00000001
00001000
00001000
,
00001001
00000000
00000000
00000000
,
00000100
00000001
00000100
00001000
,
00000010
00000010
00000010
00000100
,
00000001
00000010
00001000
00000010
,
00001000
01000000
00000100
01000000
,
10000000
00010000
10000000
00100000
,
01100000
00010000
10100000
00010000
,
01100000
10000000
01010000
10000000
,
00100000
00001000
00000100
00010000
,
01000000
00000000
01000000
00000000
00000000
00001000
00000000
00000001
,
00000100
00000010
00000101
00001010
,
00000000
00000010
00000000
00000100
00000000
00001000
00000000
01000000
,
10000000
01000000
00010000
00000000
10000000
00000000
00110000
00000000
,
10000000
00000000
01000000
00000000
00000000
00010000
00000000
10000000
,
01000000
00010000
01000000
00001100
,
00000011
00001000
01000000
00010000
,
00100000
10000000
00000000
00010000
01000000
00000000
00000100
00001000
,
00000000
00000001
00000010
00000000
00000000
00000000
00000000
00000000
;

//---------------dance-double - ----------------
#NOTES:
     dance-double:
     :
     Medium:
     8:
     0.397,0.495,0.300,0.000,0.000:
00000000
00000000
00000000
00000000
,
00000000
00000000
00000000
00000000
,
00000000
00000000
00000000
00000000
,
00000000
00000000
00000000
00000000
,
00000000
00000000
00000000
00000000
,
00000000
00000000
00000000
00000000
,
00000000
00000000
00000000
00000000
,
00000000
00000000
00000000
00000000
,
00000010
00001000
00000100
00001000
,
01000000
10000000
00100000
00010000
,
00000100
00100000
01000000
00010000
,
00001000
00000001
00000110
00001000
,
00000100
00000100
00000011
00001100
,
00000001
00001000
01000000
00000100
,
01001000
10000000
00010000
10100000
,
11000000
00010000
10000000
00100000
,
00010000
01000000
00100000
10000000
,
00000000
00000000
00010000
01000000
10000000
00100000
00010000
00000000
,
10100000
01000000
00010000
00100000
,
10000000
01000000
00010000
01000000
00010000
00001000
00000100
00000001
,
00001000
00000100
00000010
00000001
,
00000000
00000000
00001000
00000100
00000001
00000010
00001000
00000000
,
00000011
00000100
00001000
00000010
,
00000001
00000100
00001000
00000100
00001000
00010000
01000000
10000000
,
00110000
01000000
01000000
00100000
,
00010000
00000000
00000000
00000000
00000000
00001000
00000001
00000000
,
00001000
00000010
00000001
00000100
,
00001100
00000000
00000101
00000000
00001000
00000001
00000100
00000000
,
00000010
00000010
00001100
00000001
,
00000100
01001000
00010000
10000000
,
10100000
00000000
00000000
01000000
00000000
10000000
00000000
00100000
,
00000000
10000000
01000000
00010000
00001000
00000000
00000100
00000000
,
00000010
00000010
00000001
00000001
,
00000100
00000000
00001000
00000000
00010000
01000000
10000000
00000000
,
00100000
00100000
10000000
10000000
,
01000000
00000000
00010000
00000000
00001000
00000100
00000001
00000000
,
00000010
00000010
00000001
00000001
,
00000100
00000000
00001000
00000000
00010000
01000000
10000000
00000000
,
00100000
00100000
10000000
10000000
,
01000000
00000000
00010000
00000000
00001000
00000100
00000001
00000000
,
00000100
00000000
00000000
00000000
,
00000100
00001000
00000010
00000001
,
00000000
00001000
00010000
00000000
01000000
00000000
00010000
00000000
,
01010000
00000000
10000000
01000000
00010000
00000000
11000000
00000000
,
01100000
10010000
00110000
11000000
,
01000000
00010000
00100000
00010000
,
00000000
00001000
00000100
00000000
00000001
00000000
00001000
00000000
,
00001100
00000000
00000001
00000100
00001000
00000000
00000101
00000000
,
00000010
00001000
00000010
00000001
,
00000100
00000000
00001001
00000000
00000000
00000010
00000000
00000010
,
00001000
00010000
01000000
10000000
,
00000000
00010000
00000000
00010000
00000000
00010000
00000000
00010000
,
01000000
10000000
00100000
00000000
01001000
00000000
10100000
00000000
,
01000000
00000000
10000000
00000000
00000000
00100000
00000000
00100000
,
00010000
00001000
00000100
00000001
,
00001000
01000000
00110000
01000000
,
10000000
01000000
00000000
00100000
00010000
00000000
00001000
00000100
,
00000000
00000010
00000001
00000000
00000000
00000000
00000000
00000000
;

//---------------dance-double - ----------------
#NOTES:
     dance-double:
     :
     Hard:
     8:
     0.469,0.528,0.242,0.000,0.000:
00000000
00000000
00000000
00000000
,
00000000
00000000
00000000
00000000
,
00000000
00000000
00000000
00000000
,
00000000
00000000
00000000
00000000
,
00000000
00000000
00000000
00000000
,
00000000
00000000
00000000
00000000
,
00000000
00000000
00000000
00000000
,
00000000
00000000
00000000
00000000
,
00000010
00001000
00000100
00000000
00010000
00001000
00100000
00000000
,
00010000
10000000
01000000
00000000
00100000
00010000
01000000
00000000
,
00001000
00010000
00000100
00000000
00001000
00000001
00000100
00000000
,
00000010
00010000
00001000
00000000
00100000
00010000
10000000
00000000
,
01000000
00100000
00010000
00000000
01000000
00001000
00010000
00000000
,
00000100
00000010
00000001
00000000
00001000
00000100
00010000
00000000
,
00001000
00100000
00010000
00000000
10000000
01000000
00100000
00000000
,
00010000
01000000
00000000
00001000
00010000
00000100
00010000
00000000
,
00001010
00000000
00000101
00000000
00001000
00000100
00010000
00001000
,
00000000
00100000
00100000
00100000
00010000
10000000
01000000
00000000
,
00110000
00000000
01001000
00000000
00010000
00010000
00010000
00000100
,
00000000
00000010
00000000
00000010
00000001
00000100
00000010
00000000
,
00001001
00000000
00010100
00000000
00001000
00100000
00010000
10000000
,
00000000
00100000
00100000
00100000
01000000
00010000
01000000
00000000
,
00011000
00000000
00001001
00000000
00000010
00000010
00000010
00000100
,
00000000
00001000
00000000
00010000
00001000
01000000
00100000
00000000
,
10010000
00000000
00000000
00000000
00000000
00000000
00000000
01000000
,
00100000
01000000
00000000
10000000
00100000
01000000
00001000
00010000
,
00000000
00000100
00000000
00000010
00000001
00000100
00000010
00001000
,
00000100
00010000
00000000
00001000
00100000
00010000
01000000
00100000
,
00000000
10000000
00000000
01000000
00100000
00010000
01000000
00001000
,
00100000
00010000
00000000
00000000
00000000
00000000
00000000
10000000
,
01000000
00100000
00000000
00001000
00010000
00000100
00000010
00000001
,
00000000
00001000
00001000
00001000
00000100
00000000
00000100
00000000
,
00010000
00001000
00010000
00000000
00100000
00010000
00100000
00000000
,
10000000
01000000
10000000
00000000
00100000
00100000
00100000
00000000
,
01000000
00001000
01000000
00000000
00010000
00000010
00010000
00000000
,
00001000
00000100
00001000
00000000
00000001
00000001
00000001
00000001
,
00000010
00000100
00001000
00000000
00000010
00010000
00001000
00000000
,
00100000
01000000
10000000
00000000
00010000
00010000
00010000
00000000
,
01000000
00001000
00010000
00000000
00000100
00000010
00000001
00000000
,
00001000
00000010
00010000
00000100
00001000
00000010
00010000
00001000
,
01000000
00000000
00000000
00000000
,
10010000
00000000
00000000
00011000
00000000
00000000
00000000
00000000
,
00001001
00000000
00000000
00000000
,
00011000
00000000
00000000
00010010
00000000
01010000
00000000
00000000
,
11000000
00000000
00000000
00000000
,
00101000
00000000
00000000
00010100
00000000
00000000
00000000
00000000
,
00001001
00000000
00000000
00000000
,
00000110
00000000
00000000
00011000
00000000
00000000
00000000
00000000
,
00100000
01000000
10000000
01000000
00100000
00010000
01000000
00001000
,
00010000
00000100
00001000
00000100
00000010
00000001
00000100
00000000
,
00010000
00001000
00100000
00010000
10000000
01000000
00100000
01000000
,
10000000
00010000
01000000
00001000
00010000
00000100
00000010
00000001
,
00000000
00001000
00000010
00000000
00010000
00001000
01000000
00000000
,
00010000
10000000
01000000
00000000
00100000
00010000
01000000
00000000
,
00001000
00010000
00000000
00000100
00000010
00000001
00000100
00000000
,
00000010
00001000
00000000
00001000
00000100
00010000
00001000
00100000
,
00010000
10000000
00000000
01000000
00100000
00000000
00001000
00010000
,
00000000
00000100
00000010
00000000
00000000
00000000
00000000
00000000
;

//---------------dance-single - ----------------
#NOTES:
     dance-single:
     :
     Beginner:
     2:
     0.150,0.194,0.012,0.000,0.000:
0000
0000
0000
0000
,
0000
0000
0000
0000
,
0000
0000
0000
0000
,
0000
0000
0000
0000
,
0000
0000
0000
0000
,
0100
0000
0100
0000
,
0100
0000
0100
0000
,
0100
0000
0100
0000
,
1000
0000
1000
0000
,
0001
0000
0000
0000
,
0001
0000
0001
0000
,
1000
0000
0000
0000
,
0100
0000
0100
0000
,
0010
0000
0000
0000
,
0010
0000
0010
0000
,
0100
0000
0000
0000
,
1000
0000
1000
0000
,
0100
0000
0100
0000
,
0010
0000
0010
0000
,
0001
0000
0001
0000
,
0100
0000
0100
0000
,
0010
0000
0010
0000
,
1000
0000
1000
0000
,
0001
0000
0001
0000
,
1000
0000
0000
0000
,
1000
0000
1000
0000
,
0001
0000
0000
0000
,
0001
0000
0001
0000
,
1000
0000
1000
0000
,
0010
0000
0010
0000
,
0100
0000
0100
0000
,
0001
0000
0001
0000
,
1000
0000
1000
0000
,
0100
0000
0100
0000
,
0010
0000
0010
0000
,
0001
0000
0001
0000
,
0100
0000
0100
0000
,
0010
0000
0010
0000
,
1000
0000
1000
0000
,
0001
0000
0001
0000
,
1001
0000
0000
0000
,
0100
0000
0100
0000
,
0010
0000
0010
0000
,
1000
0000
0001
0000
,
1000
0000
1000
0000
,
0100
0000
0100
0000
,
0010
0000
0010
0000
,
0001
0000
0001
0000
,
1000
0000
0000
0000
,
0010
0000
0000
0000
,
0100
0000
0100
0000
,
0001
0000
0001
0000
,
0010
0000
0000
0000
,
0100
0000
0000
0000
,
1000
0000
0000
0000
,
0001
0000
0000
0000
,
1000
0000
0000
0000
;

//---------------dance-single - Copied from ----------------
#NOTES:
     dance-single:
     Copied from:
     Challenge:
     9:
     0.698,0.788,0.196,0.069,0.323: // measure 1
0000
0000
0000
0000
,  // measure 2
0000
0000
0000
0000
,  // measure 3
0000
0000
0000
0000
,  // measure 4
0000
0000
0000
0000
,  // measure 5
1000
0100
1000
0100
0001
0100
0001
0100
,  // measure 6
1001
0100
0010
0100
1001
0100
0010
0100
,  // measure 7
1001
0010
0100
0010
1001
0010
0100
0010
,  // measure 8
0110
1000
0001
1000
0000
1000
0001
0000
,  // measure 9
1000
0100
1000
0100
0001
0100
0001
0100
,  // measure 10
1000
0100
0001
0100
1000
0100
0001
0100
,  // measure 11
1000
0010
1000
0010
0001
0010
0001
0010
,  // measure 12
1000
0010
0001
0010
1000
0010
0001
0010
,  // measure 13
1000
1000
1000
0000
0101
0000
0101
0000
,  // measure 14
0001
0010
0100
1000
0001
0010
0100
1000
,  // measure 15
0010
0010
0010
0010
0100
0100
0100
0100
,  // measure 16
0001
1000
0001
1000
0000
0100
0100
0000
,  // measure 17
1000
0000
0000
0000
1000
0000
0000
0000
0100
0000
0000
0110
0000
0000
0110
0000
,  // measure 18
0000
0001
1000
0001
1000
0001
1000
0000
,  // measure 19
0010
0010
0100
0100
0010
0010
0100
0100
,  // measure 20
0001
0000
1000
0000
0001
0000
1000
0000
0001
1000
0000
1000
0001
0000
0100
0000
,  // measure 21
0010
0000
0100
0000
0010
0000
0100
0000
1001
0000
0000
1001
0000
0000
1001
0000
,  // measure 22
0000
1000
0100
0001
0100
1000
0100
0001
,  // measure 23
1000
0001
1000
0001
0100
0010
0100
0010
,  // measure 24
1000
0000
0100
0000
0010
0000
0001
0000
0100
0010
0000
1000
0001
0000
0100
0000
,  // measure 25
0010
0000
0000
0000
0000
0000
0000
1000
,  // measure 26
1000
0100
0010
0001
0100
0010
1000
0001
,  // measure 27
0100
0000
0000
0000
0000
0000
0000
0010
,  // measure 28
0010
1000
0010
0100
0001
0010
0100
1000
,  // measure 29
0100
0000
1000
0100
0010
0001
0100
0010
,  // measure 30
0100
0110
0000
0001
0100
0010
1000
0100
,  // measure 31
0010
0000
0001
0000
0100
0010
0000
1000
,  // measure 32
0000
0010
0100
0001
0010
0000
0010
0000
,  // measure 33
0100
1000
0100
1000
0100
0001
0100
0001
,  // measure 34
0100
1000
0100
0001
0100
1000
0100
0001
,  // measure 35
0100
1000
0010
1000
0010
0001
0010
0001
,  // measure 36
0010
1000
0010
0001
0010
1000
0010
0001
,  // measure 37
1000
0010
0100
0001
0010
0100
1000
0001
,  // measure 38
0100
0010
1000
0010
0100
0001
0010
0100
,  // measure 39
1000
0100
0001
0100
1000
0010
0001
0010
,  // measure 40
1000
0000
0010
0000
0100
0000
0001
0000
0010
0000
0100
0000
1000
0100
1000
0100
,  // measure 41
0000
0000
0000
0000
0000
0000
0000
0000
0000
2002
0000
0000
0000
0000
0000
3003
,  // measure 42
0001
0000
0000
0100
0001
0000
0000
0100
0001
0000
0000
0100
0001
0000
0000
0100
,  // measure 43
0010
0000
0000
0100
0010
0000
0000
0100
0010
0000
0000
0100
0010
0000
0000
1000
,  // measure 44
0100
0000
0000
1000
0100
0000
0101
0000
0010
0000
1100
0000
0000
0000
0000
0000
,  // measure 45
1001
0000
0100
0010
0100
0000
0010
0100
0010
0000
0100
0010
0100
0000
0001
0000
,  // measure 46
1000
0000
0100
1000
0100
0000
1000
0100
1000
0000
0100
1000
0100
0000
0010
0000
,  // measure 47
0001
0000
0100
0001
0100
0000
0001
0100
0001
0000
0100
0001
0100
0000
0010
0000
,  // measure 48
1000
0000
0100
0010
0100
0000
0010
0001
0010
0000
0100
1000
0100
0000
0010
0000
,  // measure 49
0001
0000
0100
0000
0010
1000
0000
0000
0010
1000
0000
0000
0010
1000
0000
0000
,  // measure 50
0100
0000
0010
0000
0001
0010
0000
0000
0001
0010
0000
0000
0001
0010
0000
0000
,  // measure 51
0100
0000
1000
0000
0001
0100
0000
0000
0001
0100
0000
0000
0001
0100
0000
0000
,  // measure 52
0010
0000
1000
0000
0100
1000
0000
0000
0100
0000
0100
0000
0001
0000
0001
0000
,  // measure 53
0100
0000
0100
0000
1000
0100
0000
0000
1000
0100
0000
0000
1000
0100
0000
0000
,  // measure 54
0010
0000
0010
0000
0001
0100
0000
0000
0001
0100
0000
0000
0001
0100
0000
0000
,  // measure 55
0010
0000
0010
0000
1000
0001
0000
0000
1000
0001
0000
0000
1000
0001
0000
0000
,  // measure 56
0100
0000
0100
0000
0010
0100
0000
0000
0010
0100
0000
0000
0010
0100
0000
0000
,  // measure 57
1000
0100
0020
0000
0031
0100
0020
0000
1030
0100
0020
0000
0031
0100
0020
0000
,  // measure 58
0030
0000
0000
0000
;
