#TITLE:STRICTLY BUSINESS;
#SUBTITLE:;
#ARTIST:MANTRONIK VS EPMD;
#TITLETRANSLIT:;
#SUBTITLETRANSLIT:;
#ARTISTTRANSLIT:;
#CREDIT:;
#BANNER:STRICTLY BUSINESS.png;
#BACKGROUND:STRICTLY BUSINESS-bg.png;
#LYRICSPATH:STRICTLY BUSINESS.lrc;
#CDTITLE:./CDTITLES/DANCEMANIA WINTERS.PNG;
#MUSIC:STRICTLY BUSINESS.mp3;
#OFFSET:-7.704;
#SAMPLESTART:59.420;
#SAMPLELENGTH:12.000;
#SELECTABLE:YES;
#DISPLAYBPM:125.000;
#BPMS:0.000=125.230;
#STOPS:;
#BGCHANGES:;

//---------------dance-single - ----------------
#NOTES:
     dance-single:
     :
     Easy:
     2:
     0.173,0.187,0.011,0.011,0.000:
0000
0000
0000
0000
,
0000
0000
0000
0000
,
1000
0100
1000
0000
,
0001
0100
0001
0000
,
1000
0010
1000
0000
,
0001
0010
0001
0000
,
0100
0000
0100
0000
,
1000
0000
1000
0000
,
0001
0000
0001
0000
,
0100
0000
0100
0000
,
0010
0000
0010
0000
,
1000
0000
0001
0000
,
1000
1000
0100
0000
,
0001
0000
0001
0000
,
0100
0010
0100
0000
,
0010
0000
0010
0000
,
1000
0001
1000
0000
,
0001
0000
0001
0000
,
1000
0010
1000
0000
,
0001
0000
0001
0000
,
0100
0010
1000
0000
,
0200
0300
0010
0010
,
1000
1000
0001
0001
,
1000
0000
0001
0000
,
0100
0000
0010
0000
,
1000
1000
0001
0001
,
1000
0001
1000
0001
,
1000
0000
1000
0000
,
0001
0100
0010
0000
,
1000
0000
1000
0000
,
0100
0010
0001
0000
,
0100
0000
0100
0000
,
0010
1000
0001
0000
,
1000
0000
1000
0000
,
0100
0010
0001
0000
,
0100
0010
1000
0000
,
0001
1000
0100
0000
,
1000
0001
0100
0000
,
0010
1000
0001
0000
,
1000
0000
0100
0000
,
0010
0001
0100
0000
,
0001
0000
1000
0000
,
0100
1000
1001
0000
;

//---------------dance-single - ----------------
#NOTES:
     dance-single:
     :
     Medium:
     4:
     0.313,0.306,0.099,0.011,0.011:
0000
0000
0000
0000
,
0000
0000
0000
0000
,
1000
0100
0000
0100
0010
0000
0010
0000
,
0001
0001
0100
0100
,
0010
1000
0000
1000
0001
0000
0001
0000
,
1000
0100
0010
0010
,
0001
0000
0001
0000
0000
1000
0000
0000
0001
0000
0001
0000
0000
1000
0000
0000
,
0001
0001
0100
0100
,
0010
0010
1000
1000
,
0100
0010
0100
0000
0010
0100
0010
0000
,
1000
1000
0001
0001
,
1000
0000
0000
0100
0010
0000
0010
0000
,
0001
0001
0100
0010
,
1000
0010
0100
0001
,
0010
0100
1000
0000
0010
0100
1000
0000
,
0001
0001
0100
0100
,
0010
0010
1000
1000
,
0010
0100
0001
0000
0010
0100
0001
0000
,
1000
1000
0001
0001
,
0100
0000
0000
0100
0010
0100
0010
0000
,
0010
0000
0000
0010
0100
0010
0100
0000
,
2000
0000
3000
0000
0100
0100
0100
0000
,
0010
0010
0001
0001
,
0100
0010
1000
0001
,
1000
0100
1000
0000
0001
0001
0001
0000
,
0100
0100
0010
0010
,
0100
0000
0010
0000
0100
0010
0100
0010
,
0100
0100
0010
0010
,
1000
0100
0001
1001
,
0001
0001
0100
0100
,
1000
0000
0100
0000
0001
0100
1001
0000
,
1000
1000
0010
0010
,
0001
0000
0010
0000
1000
0100
0011
0000
,
0001
0001
0100
0100
,
0010
0000
1000
0000
0100
1000
1100
0000
,
0001
0000
0100
0000
0010
1000
1010
0000
,
0001
0000
0010
0000
1000
0100
0101
0000
,
1000
0000
0100
0000
0010
0001
0011
0000
,
0001
0000
0010
0000
0100
1000
1001
0000
,
0001
0001
0100
0100
,
0010
0000
1000
0000
0100
0010
0001
0000
,
0100
0010
1000
0100
,
0010
0000
0001
0000
0100
0010
1001
0000
;

//---------------dance-single - ----------------
#NOTES:
     dance-single:
     :
     Hard:
     6:
     0.396,0.353,0.132,0.000,0.011:
0000
0000
0000
0000
,
0000
0000
0000
0000
,
1000
0100
1000
0000
0001
0100
0001
0000
,
1000
0010
1000
0010
1000
0000
1001
0000
,
0001
0010
0001
0000
0100
0010
0100
0000
,
0010
1000
0010
1000
0010
0000
1001
0000
,
1000
0000
0100
0000
0000
0001
0000
0000
1000
0000
0010
0000
0000
0001
0000
0000
,
1000
0100
0001
0000
1000
0100
0001
0000
,
1000
0010
0001
0000
1000
0010
0001
0000
,
1000
0100
0010
0001
1000
0100
0010
0000
,
0001
0100
0010
1000
0001
0100
0010
1000
,
0010
0010
0100
0100
,
0001
0001
0001
0000
1000
1000
1000
0000
,
0100
0110
0010
0110
,
1000
0100
0010
0001
0010
0100
1000
0000
,
0001
0000
0001
0000
0100
0100
0100
0000
,
0010
1000
0010
0100
0001
0100
0010
0000
,
1000
0100
0001
0000
1000
0010
0001
0000
,
1000
0100
0010
0001
0100
0010
1000
0000
,
0001
0010
0100
0000
0001
0010
0100
0000
,
1000
0010
0100
0001
1000
0010
0100
0000
,
1000
0000
0000
1000
0001
1000
0001
1000
,
0001
0001
0100
0100
,
0010
1000
0010
0000
0010
1000
0010
0000
,
0100
0001
0100
0001
0100
0001
0100
0001
,
0100
0100
0010
0010
,
0100
0010
0100
0000
0010
0100
0010
0110
,
0010
0010
1000
1000
,
0001
1000
0100
0010
0001
0100
0010
0000
,
1000
1000
0010
0010
,
1000
0010
0100
0001
1000
0010
0100
0000
,
0001
0001
1000
1000
,
0100
0010
0001
0100
0010
1000
0100
0010
,
0001
0001
1000
1000
,
0100
1000
0100
0000
0010
0001
0011
0000
,
0001
0100
0001
0000
0100
0010
1010
0000
,
1000
0100
1000
0000
0001
0100
1100
0000
,
1000
0100
1000
0000
1000
0100
0101
0000
,
0001
0010
0001
0000
0001
0010
1010
0000
,
1000
1000
0001
0001
,
0100
0010
0100
0000
0010
1000
1010
0000
,
1000
1000
0100
0100
,
0010
0001
0010
0100
1000
0100
1001
0000
;

//---------------dance-double - ----------------
#NOTES:
     dance-double:
     :
     Easy:
     5:
     0.259,0.259,0.000,0.000,0.000:
00000000
00000000
00000000
00000000
,
00000000
00000000
00000000
00000000
,
00000000
00000000
00000000
00000000
,
00000000
00000000
00000000
00000000
,
00000000
01000000
01000000
00000000
,
00000000
00000100
00000100
00000000
,
00000100
00001000
00010000
00000000
01000000
00010000
00001000
00000000
,
00000010
00001000
00000100
00001000
,
00100000
00010000
01000000
00010000
,
00000010
00001000
00000100
00001000
,
00100000
00010000
01000000
00010000
,
00000010
00001000
00000000
00001000
,
00000010
00001000
00000100
00001000
,
00100000
00010000
01000000
00010000
,
00000000
00001000
00000000
00001000
,
00000010
00000001
00001000
00000100
,
00100000
10000000
00010000
01000000
,
00000010
00000001
00001000
00000100
,
00100000
10000000
00010000
01000000
,
00001000
00010000
01000000
00010000
,
00000010
00001000
00000100
00001000
,
00100000
00010000
01000000
00010000
,
01000000
10000000
00001000
01000000
,
00000100
00000001
00010000
00000100
,
01000000
10000000
00001000
01000000
,
00000100
00000001
00010000
00000100
,
00000010
00000000
00001000
00000000
01000000
00010000
00001000
00000000
,
00000100
00010000
01000000
10000000
,
00010000
00000000
00001000
00000000
01000000
00010000
00001000
00000000
,
00000100
00001000
00010000
00000000
01000000
00000000
10000000
00000000
,
00010000
00000000
00001000
00000000
01000000
00010000
00001000
00000000
,
00000100
00010000
01000000
10000000
,
00010000
00000000
00001000
00000000
01000000
00010000
00001000
00000000
,
00000100
00001000
00010000
00000000
01000000
00000000
10000000
00000000
,
00010000
00000000
00001000
00000000
01000000
00010000
00001000
00000000
,
00000010
00000000
00001000
00000000
01000000
00010000
00001000
00000000
,
00000010
00000000
00001000
00000000
01000000
00010000
00001000
00000000
,
00000010
00000000
00001000
00000000
01000000
00010000
00001000
00000000
,
00000010
00000000
00001000
00000000
01000000
00010000
00001000
00000000
,
00000100
00010000
01000000
10000000
,
00010000
00000000
00001000
00000000
01000000
00010000
00001000
00000000
,
00000100
00001000
00010000
00000000
01000000
00000000
10000000
00000000
,
00010000
00000000
00001000
00000000
01000000
00010000
00001000
00000000
;

//---------------dance-double - ----------------
#NOTES:
     dance-double:
     :
     Medium:
     6:
     0.313,0.306,0.154,0.000,0.000:
00000000
00000000
00000000
00000000
,
00000000
00000000
00000000
00000000
,
00000000
00000000
00000000
00000000
,
00000000
00000000
00000000
00000000
,
00000000
01000000
00000000
00000100
,
00001000
00000100
00000001
00000010
,
00000001
00000100
00001000
00000000
00010000
00000000
10000000
00000000
,
00110000
10000000
01000000
00010000
,
10100000
01000000
00010000
00100000
,
11000000
00010000
00100000
10000000
,
01010000
00100000
10000000
01000000
,
00100000
00000000
01000000
00000000
01000000
00010000
00001000
00000000
,
00000010
00000001
00001000
00000100
,
00000011
00000100
00000100
00001000
,
00000110
00001001
00000100
00000001
,
00000010
00000000
00001000
00000000
00000100
00001000
00010000
00000000
,
00100000
10000000
00010000
01000000
,
10100000
01000000
01000000
00010000
,
01100000
10010000
01000000
10000000
,
00100000
00000000
00010000
00000000
01000000
00010000
00001000
00000000
,
00001100
00000011
00000100
00000010
,
00001000
00000001
00001000
00010000
,
01010000
10100000
01000000
00100000
,
00010000
10000000
00010000
00001000
,
00000100
00001000
00000010
00000001
,
00000100
00001000
00000010
00000001
,
00000100
00000000
00001000
00000000
00000010
00000001
00000100
00000000
,
00000100
00001000
00010000
00000000
01000000
00000000
00001000
00000000
,
00010000
01000000
10000000
00000000
01000000
00010000
00001000
00000000
,
00000100
00001000
00010000
00000000
01000000
00000000
00001000
00000000
,
00010000
01000000
10000000
00000000
01000000
00010000
00001000
00000000
,
00000100
00001000
00010000
00000000
01000000
00000000
00001000
00000000
,
00010000
01000000
10000000
00000000
01000000
00010000
00001000
00000000
,
00000100
00001000
00010000
00000000
01000000
00000000
00001000
00000000
,
00010000
01000000
10000000
00000000
01000000
00010000
00001000
00000000
,
00000010
00001000
00010000
00000000
01000000
00010000
00001000
00000000
,
00000010
00001000
00010000
00000000
01000000
00010000
00001000
00000000
,
00000010
00001000
00010000
00000000
01000000
00010000
00001000
00000000
,
00000010
00001000
00010000
00000000
01000000
00010000
00001000
00000000
,
01000000
00010000
00001000
00000000
00000100
00000000
00010000
00000000
,
00001000
00000100
00000001
00000000
00000100
00001000
00010000
00000000
,
01000000
00010000
00001000
00000000
00000100
00000000
00010000
00000000
,
00001000
00000100
00000001
00000000
00000100
00001000
00010000
00000000
;

//---------------dance-couple - ----------------
#NOTES:
     dance-couple:
     :
     Easy:
     4:
     0.509,0.517,1.000,0.000,0.000:
00000000
00000000
00000000
00000000
,
00000000
00000000
00000000
00000000
,
00000000
00010001
00000000
00100010
,
00000000
00000000
10001000
01000100
,
00000000
00010001
00000000
00100010
,
10001000
00010001
00100010
01000100
,
00010001
01000100
10001000
00000000
00010001
01000100
10001000
00000000
,
01000100
00010001
00100010
10001000
,
01000100
00010001
00100010
10001000
,
01000100
00010001
00100010
10001000
,
01000100
00010001
00100010
10001000
,
01000100
00000000
01000100
00000000
00010001
01000100
10001000
00000000
,
01000100
00011000
00100010
10000001
,
01000100
00011000
00100010
01000100
,
00011000
00100010
10000001
01000100
,
00011000
00100010
10000001
00011000
,
01000100
10000001
00100010
00011000
,
01000100
10000001
00100010
01000100
,
10000001
00100010
00011000
01000100
,
10000001
00000000
00100010
00000000
00011000
01000100
10000001
00000000
,
01000100
00011000
00100010
10000001
,
01000100
00011000
00100010
01000100
,
00011000
00100010
10000001
01000100
,
00011000
00100010
10000001
00011000
,
01000100
10000001
00100010
00011000
,
01000100
10000001
00100010
00011000
,
01000100
00000000
01000100
00000000
00010001
01000100
10001000
00000000
,
00010001
01000100
10001000
00000000
01000100
00000000
00010001
00000000
,
01000100
10001000
01000100
00010001
,
00000001
00000100
10001000
00000000
00000100
00000000
00010001
00000000
,
00000100
10001000
00000100
00010001
,
00010001
10001000
01000100
00010001
,
01000100
10001000
01000100
00010001
,
00010000
01000000
10001000
00000000
01000000
00000000
00010001
00000000
,
01000000
10001000
01000000
00010001
,
01000100
10001000
01000100
00010001
,
01000100
10001000
01000100
00010001
,
01000100
10001000
01000100
00010001
,
01000100
10001000
01000100
00010001
,
00010001
10001000
01000100
00010001
,
01000100
10001000
01000100
00010001
,
00010001
01000100
10001000
00000000
01000100
00000000
00010001
00000000
,
01000100
10001000
01000100
01000100
;

//---------------dance-couple - ----------------
#NOTES:
     dance-couple:
     :
     Medium:
     5:
     0.594,0.612,1.000,0.000,0.000:
00000000
00000000
00000000
00000000
,
00000000
00000000
00000000
00000000
,
00000000
00010001
00000000
00100010
,
00000000
00000000
10001000
01000100
,
00000000
00010001
00000000
00100010
,
10001000
00010001
00100010
01000100
,
00010001
01000100
10001000
00000000
00010001
01000100
10001000
00000000
,
01000100
10011001
01000100
00010001
,
01000100
10001000
01000100
00100010
,
01000100
10011001
01000100
00010001
,
01000100
10001000
01000100
00100010
,
01000100
00000000
10001000
00000000
00010001
01000100
10001000
00000000
,
01000100
01100110
00010001
01000100
,
10001000
00100010
00010001
00010001
,
01000100
01100110
10001000
01000100
,
00010001
00000000
00100010
00000000
10001000
01000100
00010001
00000000
,
00100000
10010000
01000000
01010101
,
00100000
01100000
10000000
01000100
,
00010000
00100000
01000000
00010001
,
11001100
00000000
00000000
00000000
00010001
01000100
10001000
00000000
,
00000010
00001001
00000100
01010101
,
00000010
00000110
00000001
01000100
,
00001000
00000010
00000100
10001000
,
01010101
00000000
00000000
00000000
10001000
01000100
00010001
00000000
,
01000100
01000100
10001000
01100110
,
10001000
01000100
00010001
00100010
,
01000100
00000000
10001000
00000000
00010001
01000100
10001000
00000000
,
00010001
01000100
10001000
00000000
01000100
00000000
00010001
00000000
,
01000100
00000000
01100110
00000000
10001000
01000100
00010001
00000000
,
00010001
01000100
10001000
00000000
01000100
00000000
00010001
00000000
,
01000100
00000000
01100110
00000000
10001000
01000100
00010001
00000000
,
00010001
10001000
01000100
00010001
,
01000100
00000000
01100110
00000000
10001000
01000100
00010001
00000000
,
00010001
01000100
10001000
00000000
01000100
00000000
00010001
00000000
,
01000100
00000000
01100110
00000000
10001000
01000100
00010001
00000000
,
01000100
00000000
01100110
00000000
10001000
01000100
00010001
00000000
,
01000100
00000000
01100110
00000000
10001000
01000100
00010001
00000000
,
01000100
00000000
01100110
00000000
10001000
01000100
00010001
00000000
,
01000100
00000000
01100110
00000000
10001000
01000100
00010001
00000000
,
00010001
10001000
01000100
00010001
,
01000100
00000000
01100110
00000000
10001000
01000100
00010001
00000000
,
00010001
01000100
10001000
00000000
01000100
00000000
00010001
00000000
,
01000100
00000000
01100110
00000000
10001000
01000100
00010001
00000000
;

//---------------dance-couple - ----------------
#NOTES:
     dance-couple:
     :
     Hard:
     6:
     0.569,0.612,1.000,0.000,0.000:
00000000
00000000
00000000
00000000
,
00000000
00000000
00000000
00000000
,
00000000
00000000
00000000
00000000
,
00000000
00000000
00000000
00000000
,
00000000
00010001
00000000
00100010
,
10001000
00010001
00100010
01000100
,
00100010
10001000
01000100
00000000
00010001
01000100
10001000
00000000
,
01000100
10011001
01000100
00010001
,
01000100
10101010
01000100
00100010
,
01000100
10011001
01000100
00010001
,
01000100
10101010
01000100
00100010
,
01000100
00000000
10001000
00000000
00010001
01000100
10001000
00000000
,
00100000
10000000
00010000
11000000
,
01000100
00000000
00010001
01000100
10001000
00100010
00010001
00000000
,
00000010
00000001
00001000
00000101
,
01000100
00000000
10001000
01000100
00010001
00100010
10001000
00000000
,
00100000
10000000
01000000
00010000
,
00010001
00000000
01000100
10001000
00100010
10001000
01000100
00000000
,
00000010
00000001
00000100
00001000
,
10001000
00000000
01000100
00010001
00100010
00010001
01000100
00000000
,
10000000
00100000
10010000
01000000
,
00100010
00000000
01100110
00000000
00010001
01000100
10001000
00000000
,
00000001
00000010
00001001
00000100
,
00100010
00000000
01100110
00000000
10001000
01000100
00010001
00000000
,
01000100
00011000
00100010
10000001
,
00100010
00011000
01000100
10000001
,
01000100
00000000
00010001
00000000
10001000
01000100
00010001
00000000
,
00010001
00100010
10001000
00000000
01000100
00000000
00010001
00000000
,
10001000
01000100
00010001
00000000
01000100
10001000
00100010
00000000
,
00010000
00100000
10001000
00000000
01000000
00000000
00010001
00000000
,
10000000
01000000
00010001
00000000
01000000
10000000
00100010
00000000
,
00010001
10001000
01000100
00010001
,
10001000
01000100
00010001
00000000
01000100
10001000
00100010
00000000
,
00000001
00000010
10001000
00000000
00000100
00000000
00010001
00000000
,
00001000
00000100
00010001
00000000
00000100
00001000
00100010
00000000
,
00100010
00010001
01000100
00000000
00010001
01000100
10001000
00000000
,
10001000
01000100
00010001
00000000
01000100
00010001
00100010
00000000
,
00100010
10001000
01000100
00000000
10001000
01000100
00010001
00000000
,
00010001
01000100
10001000
00000000
01000100
10001000
00100010
00000000
,
00010001
10001000
01000100
00010001
,
10001000
01000100
00010001
00000000
01000100
10001000
00100010
00000000
,
00010001
00100010
10001000
00000000
01000100
00000000
00010001
00000000
,
10001000
01000100
00010001
00000000
01000100
10001000
00010001
00000000
;

//---------------dance-single - Blank----------------
#NOTES:
     dance-single:
     Blank:
     Beginner:
     1:
     0.119,0.140,0.022,0.000,0.000:
0000
0000
0000
0000
,
0000
0000
0000
0000
,
1000
0000
1000
0000
,
0001
0000
0001
0000
,
0100
0000
0100
0000
,
0010
0000
0010
0000
,
1000
0000
0000
0000
,
1000
0000
1000
0000
,
0100
0000
0000
0000
,
0001
0000
0001
0000
,
0100
0000
0000
0000
,
1000
0000
1000
0000
,
0010
0000
0010
0000
,
0001
0000
0001
0000
,
1000
0000
0100
0000
,
0010
0000
0001
0000
,
1000
0000
1000
0000
,
0001
0000
0000
0000
,
0001
0000
0001
0000
,
1000
0000
0000
0000
,
0100
0000
0100
0000
,
0010
0000
0010
0000
,
1000
0000
1000
0000
,
0001
0000
0001
0000
,
1000
0000
1000
0000
,
0010
0000
0010
0000
,
0100
0000
1001
0000
,
1000
0000
1000
0000
,
1000
0000
0000
0000
,
0001
0000
0001
0000
,
0001
0000
0000
0000
,
0100
0000
0100
0000
,
0100
0000
0000
0000
,
0010
0000
0010
0000
,
0010
0000
0010
0000
,
0100
0000
0100
0000
,
0001
0000
0001
0000
,
1000
0000
1000
0000
,
0100
0000
0100
0000
,
1000
0000
1000
0000
,
0001
0000
0001
0000
,
0100
0000
0100
0000
,
0010
0000
1001
0000
;

//---------------dance-single - Copied from ----------------
#NOTES:
     dance-single:
     Copied from:
     Challenge:
     8:
     0.542,0.517,0.132,0.011,0.209: // measure 1
0000
0000
0000
0000
,  // measure 2
0000
0000
0000
0000
,  // measure 3
1000
0100
0010
0001
0100
0010
0100
0000
,  // measure 4
0010
0000
1000
0000
0010
0000
0100
0000
0001
0000
0010
0100
0000
0100
1000
0000
,  // measure 5
0001
0000
0100
0000
0010
0000
1000
0000
0010
0000
0100
0001
0000
0001
0010
0000
,  // measure 6
0100
0100
1000
1000
0001
0001
0100
0010
,  // measure 7
1000
0000
0010
0100
0000
0001
0100
0001
0100
0000
0010
1000
0000
0010
0100
0010
,  // measure 8
0100
0000
0001
0000
0000
0100
0010
0100
0010
0000
1000
0000
1000
0000
0100
0000
,  // measure 9
0010
0000
0001
0010
0000
0001
0010
0000
0100
1000
0100
0000
0010
0000
0001
0000
,  // measure 10
0100
0000
0000
0100
0000
0000
0100
0000
0010
0000
0000
0010
0000
0000
0010
0000
,  // measure 11
1000
0001
1000
0001
0000
1000
0001
0000
0100
0000
0100
0000
0010
0000
0010
0000
,  // measure 12
1000
0000
0100
0000
0000
0010
0001
0000
0010
0000
0100
0000
1000
0000
0001
0000
,  // measure 13
0100
0000
0010
0000
1000
0000
0000
0010
0100
0000
0100
0001
0000
0001
0100
0000
,  // measure 14
0000
0100
0010
0000
1000
0000
1000
0000
0001
0000
0001
0000
1000
0000
1000
0000
,  // measure 15
0100
0000
0010
0000
0001
0000
0001
0000
0010
0100
0010
0000
0100
0000
0100
0000
,  // measure 16
0000
1000
0001
1000
0001
0000
1000
0000
1000
0000
0010
0000
0100
0000
0001
0000
,  // measure 17
0100
0000
0010
0000
1000
0000
0010
0000
0100
0000
0001
0010
0000
0100
1000
0000
,  // measure 18
0001
0100
0001
0000
1000
0100
1000
0000
,  // measure 19
0001
0010
0001
0100
0010
1000
0010
0100
,  // measure 20
0001
0001
0011
0000
1000
1000
1010
0000
,  // measure 21
1000
0010
0100
0001
0010
0100
1000
0100
,  // measure 22
0020
0000
0000
1030
0010
0001
0010
1000
,  // measure 23
0010
0010
0100
0100
0010
0010
0100
0100
,  // measure 24
0001
1000
0001
1000
0010
0100
0010
0100
,  // measure 25
0001
0010
0001
0010
0100
1000
0100
1000
,  // measure 26
0100
0010
0100
0010
0100
0000
0000
0000
0100
0010
0100
0010
0100
0000
0000
0000
,  // measure 27
1000
0001
1000
0001
1000
0000
0000
0000
1000
0001
1000
0001
1000
0000
0001
0000
,  // measure 28
1000
0010
0100
0001
0010
0100
1000
0100
,  // measure 29
0010
0001
0100
0010
1000
0100
1001
0001
,  // measure 30
0100
0010
1000
0100
0010
0001
0100
0010
,  // measure 31
1000
0100
0010
0001
0100
0010
1001
0000
,  // measure 32
1000
0010
0100
0001
0010
0100
1000
0100
,  // measure 33
0001
0100
1000
0010
0100
0001
0011
0001
,  // measure 34
0100
0010
1000
0100
0010
0001
0100
0010
,  // measure 35
1000
0100
0010
0001
0100
0010
1010
0000
,  // measure 36
1000
0100
0010
0001
0100
0010
0011
0000
,  // measure 37
0001
0100
0010
1000
0100
0010
1100
0000
,  // measure 38
1000
0001
0100
0010
1000
0100
0011
0000
,  // measure 39
0001
0100
0010
1000
0100
0010
1001
0000
,  // measure 40
1000
0001
1000
0001
0100
0010
0100
0010
,  // measure 41
1000
0010
0100
0001
0010
0100
1001
1000
,  // measure 42
0100
0010
0001
0100
0010
1000
0100
0010
,  // measure 43
0001
0100
0010
1000
0100
0010
1001
0000
;
