#TITLE:PARANOiA;
#SUBTITLE:;
#ARTIST:180;
#TITLETRANSLIT:;
#SUBTITLETRANSLIT:;
#ARTISTTRANSLIT:;
#CREDIT:;
#BANNER:PARANOiA.png;
#BACKGROUND:PARANOiA-bg.png;
#LYRICSPATH:;
#CDTITLE:./CDTITLES/DANCE DANCE REVOLUTION.PNG;
#MUSIC:PARANOiA.mp3;
#OFFSET:-0.039;
#SAMPLESTART:0.020;
#SAMPLELENGTH:15.000;
#SELECTABLE:YES;
#DISPLAYBPM:180.000;
#BPMS:0.000=181.210,8.000=180.000,16.000=177.340,20.000=180.900,60.000=179.100,64.000=177.340,68.000=180.000,72.000=181.820,76.000=180.000,88.000=181.820,94.000=176.470,96.000=169.810,97.000=180.000,98.000=183.670,99.000=180.000,100.000=176.470,101.000=181.560,108.000=180.300,120.000=181.820,124.000=178.220,126.000=174.760,128.000=178.220,134.000=183.670,136.000=180.000,140.000=180.900,144.000=177.340,148.000=180.000,152.000=180.900,160.000=179.280,163.000=180.530,190.000=182.190,195.000=174.190,198.000=179.100,202.000=180.990,213.000=176.470,214.000=181.110,227.000=174.190,230.000=180.900,238.000=179.100,242.000=180.900,246.000=177.340,250.000=180.900,254.000=179.100,258.000=180.900,262.000=180.600,286.000=176.470,290.000=183.670;
#STOPS:160.000=0.335
,162.000=0.335
;
#BGCHANGES:;

//---------------dance-single - ----------------
#NOTES:
     dance-single:
     :
     Easy:
     5:
     0.358,0.514,0.101,0.020,0.000:
0000
0000
0000
0000
,
0000
0000
0000
0000
,
0000
0000
0000
0000
,
0000
0000
0000
0000
,
1000
0000
0000
1000
0000
0000
0000
0000
,
0000
0000
0000
0000
,
0000
0001
0000
0001
0000
0000
0000
0000
,
0000
0000
0000
0000
,
1000
0100
0001
0100
,
1000
0100
0001
0000
,
0001
0100
1000
0100
,
0001
0100
1000
0000
,
1000
0010
0001
0100
,
1000
0100
0001
0000
,
0001
0010
1000
0100
,
0001
0100
1000
0000
,
1000
1000
0100
0000
,
0001
0001
0100
0000
,
1000
0010
0100
0001
,
0010
0100
1000
0000
,
0001
0100
0001
0100
,
1000
0010
1000
0010
,
1000
0010
0100
0001
,
0010
0100
1000
0000
,
1000
0100
1000
0100
,
1000
0100
1000
0100
,
0001
0100
0001
0100
,
0001
0100
0001
0100
,
1000
0010
1000
0010
,
1000
0010
0011
0000
,
0001
0010
0100
1000
,
0010
0010
0100
0000
,
1000
0000
0000
1100
0000
0000
0001
0000
,
0000
0101
0000
0000
0010
0000
0000
0000
,
0100
0000
0000
1010
0000
0000
0100
0000
,
0000
0011
0000
0000
0100
0000
0000
0000
,
1000
0000
0000
0110
0000
0000
0001
0000
,
0000
0110
0000
0000
0100
0000
0000
0000
,
1000
0000
0000
1010
0000
0000
0001
0000
,
0000
0011
0000
0000
0100
0000
0010
0000
,
2000
0000
3100
0010
0002
0000
0103
0010
,
1000
0010
0100
0000
0001
0000
0001
0000
,
0100
0100
0010
0010
,
1000
0000
0100
0100
,
1000
1000
0001
0001
,
0010
0000
0100
0100
,
0010
0010
0100
0100
,
0010
0000
1000
1000
,
0001
0001
1000
0001
,
1000
0000
0001
0010
,
0100
1000
0010
0100
,
0010
0000
1000
0010
,
0100
0001
0010
0100
,
1000
0000
0001
0100
,
0001
0100
0010
1000
,
0010
1000
0010
0100
,
0001
0100
0010
1000
,
0100
0000
0000
0000
1000
1000
0000
0000
,
0100
0000
0010
0000
0001
0000
0100
0010
,
0000
0000
0100
0000
0010
0010
0000
0000
,
0100
0001
0100
0010
,
1000
0000
0000
0000
0010
0010
0000
0000
,
0100
0000
1000
0000
0100
0000
0000
0001
,
0000
0001
0001
0000
0100
0000
0100
0000
,
0010
0010
1000
1000
,
0001
0000
1000
0100
,
1000
0100
0001
0100
,
0001
0100
1000
0100
,
0001
0100
1000
0100
,
0001
0000
0001
0010
,
1000
0010
0001
0010
,
1000
0010
0001
0010
,
0100
1000
0100
0010
,
1001
0000
0000
0000
;

//---------------dance-single - ----------------
#NOTES:
     dance-single:
     :
     Medium:
     7:
     0.523,0.624,0.322,0.091,0.000:
0000
0000
0000
0000
,
0000
0000
0000
0000
,
0000
0000
0000
0000
,
0000
0000
0000
0000
,
1000
0000
0000
1000
0000
0000
1000
0000
,
0000
1000
0000
0000
1000
0000
1000
0000
,
0001
0000
0000
0001
0000
0000
0001
0000
,
0000
0001
0000
0000
0001
0000
0001
0000
,
0100
0000
0010
0000
0100
0010
0100
0000
,
0010
0000
1000
0000
0001
1000
0001
0000
,
1000
1000
1000
0000
0001
0001
0001
0000
,
0100
0010
0100
0000
1010
0000
0101
0000
,
1000
0100
0001
0000
0100
0000
0100
0000
,
0010
1000
0010
0000
0100
0000
0100
0000
,
0001
0010
0100
0000
1000
0100
0010
0000
,
0001
0001
0001
0000
0100
0000
1010
0000
,
1000
0100
0001
0000
0001
0000
0011
0000
,
0001
0010
1000
0000
1000
0000
1010
0000
,
1000
1000
1000
0000
0001
0001
0001
0000
,
0100
0010
0100
0000
0010
0000
0010
0000
,
1000
0000
1000
0000
0100
0010
0001
0000
,
0100
0010
0100
0000
0010
0010
1000
0000
,
0010
0000
0100
0000
0001
0010
0100
0000
,
1000
0100
0001
0100
1000
0000
0000
0000
,
1000
0200
0001
0300
0001
0200
1000
0300
,
1000
0020
0001
0030
0001
0020
1000
0030
,
1000
1000
1000
0000
0001
0001
0001
0000
,
0100
1010
0100
0011
,
1000
0002
0100
0003
0001
2000
0100
3000
,
1000
0100
1000
0000
0101
0000
1100
0000
,
0001
0001
0100
0010
,
1000
0010
0100
0000
0100
0000
0000
0000
,
1000
0000
0000
1100
0000
0000
0001
0000
,
0000
0101
0000
0000
0010
0000
1001
0000
,
0100
0000
0000
1010
0000
0000
0100
0000
,
0000
0011
0000
0000
1010
0000
0101
0000
,
1000
0000
0000
1100
0000
0000
0001
0000
,
0000
0101
0000
0000
0010
0000
1010
0000
,
0001
0000
0000
0110
0000
0000
1000
0000
,
0000
0110
0000
0000
0001
0000
0110
0000
,
2000
0000
3100
0010
0002
0000
0103
0010
,
1000
0010
0100
0000
0001
0000
0101
0000
,
1000
0000
1100
0000
0001
0000
1000
0010
,
0001
0010
1000
0000
0100
0000
0011
0000
,
0100
0000
1010
0000
1000
0000
0001
1000
,
0100
1000
0001
0000
0100
0000
1100
0000
,
0100
0000
0101
0000
0001
0000
0010
1000
,
0010
0001
0100
0000
0010
0000
1010
0000
,
0010
0000
0011
0000
0001
0001
0001
0000
,
2000
0000
0000
0000
3100
0010
0100
0000
,
0010
0100
0010
0000
0001
0000
0001
0000
,
0100
0010
0100
0000
0010
1000
0001
0000
,
1000
0100
0010
0000
0001
0000
0001
0000
,
0100
0000
0010
0000
1000
0010
0100
0000
,
1000
0010
0100
0000
0001
0000
0001
0000
,
0010
0000
0100
0000
0001
0010
0100
0000
,
0001
0010
0100
0000
0010
0000
0010
0000
,
1001
0000
0000
0000
1000
1000
0000
0000
,
0100
0000
0010
0000
0001
0000
0100
0010
,
0000
0000
0010
0000
0001
0001
0000
0000
,
0100
0010
1000
0100
,
0010
0000
0000
0000
0001
0100
0000
0000
,
0010
0000
1000
0000
0100
0000
0010
0100
,
0000
0000
0100
0000
1000
0001
0100
0000
,
0001
1000
0100
0000
1000
0001
0010
0000
,
1001
0000
0000
0000
1000
1000
1000
0000
,
0100
0000
0010
0000
0001
0001
0001
0000
,
0100
0000
0010
0000
1000
1000
1000
0000
,
0010
0000
0100
0000
0001
0001
0001
0000
,
0010
0000
0100
0000
1000
0100
0000
0001
,
0100
0000
1000
0100
0000
0001
0100
1000
,
0000
0001
0100
0000
1000
0100
0001
0000
,
0001
0100
1000
0000
1000
0010
0001
0010
,
1000
0000
0000
0000
;

//---------------dance-single - ----------------
#NOTES:
     dance-single:
     :
     Hard:
     9:
     0.657,0.661,0.121,0.050,0.000:
0000
0000
0000
0000
,
0000
0000
0000
0000
,
0000
0000
0000
0000
,
0000
0000
0000
0000
,
1000
0000
0100
0010
0000
0001
0100
0000
,
0010
1000
0010
0100
0001
0010
0100
0000
,
1000
0100
0000
0011
0000
0001
0100
0000
,
0010
1000
0010
1000
0010
0100
0001
0000
,
1000
1000
0100
0100
0001
0001
0100
0000
,
1000
1000
0010
0010
0001
0001
0010
0000
,
1000
0010
0100
0001
1000
0010
0100
0000
,
0001
0010
0100
1000
0001
0010
0100
1000
,
0100
0010
0100
0000
0100
0010
0100
0000
,
0001
1000
0001
0000
0001
1000
0001
0000
,
1000
0010
0100
0001
1000
0010
0100
0001
,
0010
0100
1000
0001
0010
0100
1000
0000
,
0100
0100
0100
0000
0010
0010
0010
0000
,
0100
0010
0110
0000
0010
1000
1000
0000
,
1000
0100
0010
0001
1000
0100
0010
0000
,
0001
0100
0010
1000
0001
0100
0010
0000
,
1000
0100
0001
0000
0001
0100
1000
0000
,
1000
0010
0001
0010
1000
0000
1001
0000
,
1000
0100
1000
0100
0001
0100
0001
0100
,
2000
0100
3002
0100
1003
0000
1001
0000
,
1000
0100
0001
0000
0001
0100
1000
0000
,
1000
0010
0001
0000
0001
0010
1000
0000
,
1000
0100
0010
0000
0001
0010
0100
0000
,
1000
0010
0100
0001
1000
0010
0100
0000
,
0001
0001
0001
0000
1000
1000
1000
0000
,
0100
0010
0100
0010
0100
0000
0110
0000
,
1000
0100
0001
0100
1000
0100
0001
0100
,
1000
1001
0110
0010
,
1000
0000
0100
0010
0000
0010
0001
0000
,
0001
0100
0000
0100
0010
1000
0100
0010
,
0001
0000
0001
1000
0000
1000
0100
0000
,
0100
1000
0000
1000
0001
0100
0010
1000
,
0010
0000
0010
0100
0000
0001
1000
0000
,
0100
0010
0000
0001
0100
0010
1000
0100
,
0010
0000
0001
0100
0000
0010
1000
0000
,
0100
1000
0000
0001
0100
0010
1000
0100
,
0020
0000
0031
0100
0020
0000
1030
0010
,
0100
0001
0010
0000
0100
0000
1000
0000
,
0001
0100
0010
0000
1000
0010
0100
0001
,
0010
0100
1000
0000
0001
0000
1000
0000
,
0100
1000
0001
0000
0100
0010
1000
0010
,
0100
0001
0010
0000
0100
0000
1000
0000
,
0001
0100
0010
0000
1000
0100
0010
0001
,
0100
0010
1000
0000
0010
0000
0100
0000
,
0001
0010
0100
0000
1000
0100
0001
0100
,
2000
0000
0000
0000
3001
0100
0001
0000
,
1000
0100
1000
0000
0001
0010
0100
1000
,
0010
0100
0001
0000
0100
0010
0100
0000
,
0010
1000
0010
0000
1000
0010
0100
0001
,
0010
0100
1000
0000
0001
0100
1000
0000
,
1000
0010
0001
0000
0001
0010
0100
1000
,
0010
0100
1000
0000
0001
0100
0001
0000
,
0100
0010
0100
0000
0010
1000
0010
1000
,
0010
0000
1001
0000
1000
1000
0000
0001
,
0001
0000
0100
0100
0000
0010
0010
0010
,
0000
1000
1000
0000
0001
0001
0001
0000
,
1000
1000
1000
0000
0010
0100
0010
0100
,
0010
0000
1001
0000
1000
1000
0000
0001
,
0001
0000
0010
0010
0000
0100
0100
0100
,
0000
1000
1000
0000
0001
0100
0001
0000
,
1000
0100
1000
0000
0001
0010
0100
1000
,
0010
0000
1001
0000
1000
0100
1000
0100
,
0001
0100
0001
0100
1000
0100
1000
0100
,
0001
0100
0001
0100
1000
0010
1000
0010
,
0001
0010
0001
0010
1000
0010
0001
0010
,
1000
0000
1001
0000
1000
0100
1000
0100
,
0010
0001
0010
0001
1000
0010
1000
0010
,
0100
0001
0100
0001
1000
0100
0010
0001
,
1000
0100
0010
0001
1000
0010
0100
0001
,
1001
0000
0000
0000
;

//---------------dance-double - ----------------
#NOTES:
     dance-double:
     :
     Easy:
     7:
     0.443,0.481,0.543,0.000,0.000:
00000000
00000000
00000000
00000000
,
00000000
00000000
00000000
00000000
,
00000000
00000000
00000000
00000000
,
00000000
00000000
00000000
00000000
,
00000000
00000000
00000000
00000000
,
00000000
00000000
00000000
00000000
,
00000000
00000000
00000000
00000000
,
00000000
00000000
01000000
00000100
,
00011000
00100000
00010000
00100000
,
00010000
00100000
00010000
00100000
,
00010000
00000010
00001000
00000010
,
00001000
00000010
00001000
00000010
,
00011000
01100000
10000000
01000000
,
10000000
01000000
10000000
01000000
,
00010000
01000000
00010000
01000000
,
00010000
01000000
00010000
01000000
,
11000000
00010000
00001000
00000101
,
00000010
00000100
00000010
00000100
,
00000010
00000100
00000010
00000001
,
00000011
00000000
00001100
00000000
,
00001001
00000010
00000000
00001010
,
00010000
00001000
00010000
00001000
,
00010000
00001000
00010000
00001000
,
00000010
00001000
00000100
00000001
,
00000101
00001000
00010000
10100000
,
00110000
01000000
00010000
01000000
,
00010000
01000000
00010000
01000000
,
00100000
00100000
00100000
10010000
,
00000000
00000000
00000000
01000000
,
00100000
00010000
00100000
10010000
,
00000000
01010000
00011000
00001100
,
00000001
00000100
00000001
00000101
,
00001000
00010000
11000000
00100000
,
01000000
00100000
01000000
01000000
,
11000000
00010000
00001000
00000011
,
00000010
00001000
00000100
00000101
,
00000101
00001000
00010000
11000000
,
00100000
00010000
01000000
11000000
,
11000000
00010000
00001000
00000011
,
00000010
00000001
00000000
00000000
,
00001100
00000000
00000001
00000100
,
00000000
00000100
00000100
00001100
,
00001001
00000000
00011000
01000000
,
00011000
00000100
00011000
01000000
,
00010000
01000000
00010000
00000000
00011000
00000000
00000100
00000000
,
00011000
01000000
00011000
00000100
,
00001000
00000100
00001000
00000000
00000100
00000000
00000010
00000000
,
00001000
00000010
00001000
00000000
,
00000001
00000100
00001000
00000000
00011000
00000000
00000000
00000000
,
00100000
10000000
00100000
00010000
,
00010000
01000000
10000000
00000000
10010000
00000000
00100000
00000000
,
00010000
00001000
00000010
00001001
,
00000001
00000100
00000001
00000000
00000010
00000000
00001000
00000000
,
00000100
00010000
00100000
10000000
,
01000000
10000000
01000000
00000000
00100000
00000000
00010000
00000000
,
00001000
00000010
00000001
00000100
,
00001000
00000100
00001000
00000000
00010000
00000000
00001000
00000000
,
00100000
00010000
00000010
00001000
,
00010000
00010000
00000000
00000000
00000000
00000000
10010000
00000000
,
00000000
00000000
00000001
00000010
,
00000001
00001000
00000000
00000000
00000100
00000000
00000001
00000000
,
00001000
00010000
00011000
01010000
,
00010000
01000000
00000000
00000000
00010000
00000000
10000000
00000000
,
00100000
00010000
00010000
00010000
,
00100000
00010000
00100000
00000000
00010000
00000000
00011000
00000000
,
00000001
00000100
00000100
00000100
,
00000101
00000010
00001000
00011000
,
10000000
01000000
01000000
01000000
,
11000000
00000000
00000000
10010000
,
01000000
00100000
00010000
00001000
,
00011000
00000100
00000010
00001001
,
00000100
00000010
00001000
00010000
,
00011000
01000000
00011000
00000100
,
00001100
01010000
00011000
00000000
;

//---------------dance-double - ----------------
#NOTES:
     dance-double:
     :
     Medium:
     8:
     0.515,0.629,0.493,0.000,0.000:
00000000
00000000
00000000
00000000
,
00000000
00000000
00000000
00000000
,
00000000
00000000
00000000
00000000
,
00000000
00000000
00000000
00000000
,
00000000
00000000
00000000
00000000
,
00000000
00000000
00000000
00000000
,
00000000
00000000
00000000
00000000
,
00000000
00000000
00000000
00000000
01000000
01000000
01000000
00000000
,
00011000
00000000
00100000
00000000
00010000
00010000
00010000
00000000
,
00010000
00000000
01000000
00000000
00010000
00010000
00010000
00000000
,
00010000
00000000
00001000
00000000
00000100
00000100
00000100
00000000
,
00000100
00000000
00001000
00000000
00001000
00001000
00001000
00000000
,
00011000
00000000
10010000
00000000
00100000
00100000
00100000
00000000
,
10010000
00000000
10000000
00000000
01000000
01000000
01000000
00000000
,
00010000
00000000
00000100
00000000
00001000
00001000
00001000
00000000
,
00001001
00000000
00000001
00000000
00000010
00000010
00000010
00000000
,
00000001
00000000
00001000
00000000
00000100
00000100
00000100
00000000
,
00010000
00000000
00010000
00000000
00010000
00010000
00010000
00000000
,
00000010
00000000
00000010
00000000
00000010
00000010
00000010
00000000
,
01000000
00000000
01000000
00000000
01000000
01000000
01000000
00000000
,
10000000
00000000
00010000
00000000
00100000
00100000
00100000
00000000
,
00001000
00000000
00000001
00000000
00000100
00000100
00000100
00000000
,
00000100
00000000
00000010
00000000
00000001
00000001
00000001
00000000
,
00000010
00001000
00000100
00001001
,
00011000
01000000
00011000
00000010
,
00011000
00100000
00011000
00000100
,
00100000
10000000
01000000
00010000
,
00000010
00001000
00000100
00001001
,
00001000
00010000
00100000
10010000
,
00010000
00001000
00000010
00001001
,
00001000
00010000
00100000
10010000
,
10000000
00000000
00000000
01000000
01000000
00000000
00000000
00000000
,
10010000
00000000
00000000
00100000
00100000
00000000
11000000
00000000
,
00000000
10000000
10000000
00000000
01100000
00000000
10010000
00000000
,
00011000
00000000
00000000
00000100
00000100
00000000
00000010
00000000
,
00000000
00000001
00000001
00000000
00001000
00001000
00001000
00000000
,
00010000
00000000
00000000
00001000
00000000
00000000
11000000
00000000
,
10010000
00000000
00000000
00000000
01000000
01000000
00000000
01000000
,
00010000
00000000
00000000
00001000
00000000
00000000
00000101
00000000
,
00001001
00000000
00000000
00000000
00000100
00000100
00000100
00000100
,
00001001
00000000
00000101
00001001
,
00000000
00010000
00001001
00010000
,
00011000
01000000
00011000
00000010
,
00011000
00000100
00011000
00100000
,
00010000
01000000
10000000
00000000
00100000
00000000
00010000
00000000
,
01000000
10000000
00100000
00010000
,
00001000
00000100
00000001
00000000
00000100
00000000
00001000
00000000
,
00000010
00000001
00000100
00001000
,
00010000
01000000
10000000
00000000
00010000
00000000
01000000
00000000
,
10000000
01000000
00010000
01000000
,
00001000
00000100
00000001
00000000
00000001
00000100
00001000
00000000
,
00001000
00000100
00000001
00000000
00000001
00000100
00001000
00000000
,
00010000
01000000
10000000
00000000
10000000
01000000
00010000
00000000
,
00010000
01000000
10000000
00000000
10000000
01000000
00010000
00000000
,
00100000
00010000
00001000
00000000
00000010
00001000
00010000
00000000
,
00100000
00010000
00001000
00000000
00000010
00001000
00010000
00000000
,
01000000
00010000
00001000
00000000
00000100
00001000
00010000
00000000
,
01000000
00010000
00001000
00000000
00000100
00001000
00010000
00000000
,
10000000
00000000
00000000
00010000
00001000
00000000
00000001
00000000
,
00000000
00001000
00010000
00000000
00011000
00000000
01001000
00000000
,
00011000
00000000
00000000
00000100
00000100
00000000
00011000
00000000
,
00000000
01000000
01000000
00000000
01000000
01000000
01000000
00000000
,
10000000
00000000
00000000
01000000
00000000
00000000
00010000
00000000
,
00010000
00000000
00000000
00000000
01000000
01000000
00000000
01000000
,
00001000
00000000
00000000
00000100
00000000
00000000
00000001
00000000
,
00000001
00000000
00000000
00000000
00000001
00001000
00000100
00001000
,
00011000
01001000
00011000
00010100
,
00011000
01001000
00011000
00010100
,
00000100
00000100
00000100
00000100
00000100
00000100
00000100
00000000
,
01000000
01000000
01000000
01000000
01000000
01000000
01000000
00000000
,
00011000
00000010
00011000
00100000
,
00011000
00000001
00011000
10010000
,
00010000
01000000
01000000
10000000
01000000
01000000
00010000
01000000
,
01000000
10000000
01000000
01000000
10010000
00000000
00000000
00000000
;

//---------------dance-double - ----------------
#NOTES:
     dance-double:
     :
     Hard:
     9:
     0.624,0.703,0.523,0.000,0.000:
00000000
00000000
00000000
00000000
,
00000000
00000000
00000000
00000000
,
00000000
00000000
00000000
00000000
,
00000000
00000000
00000000
00000000
,
00000000
00000000
00000000
00000000
,
00000000
00000000
00000000
00000000
,
00000000
00000000
00000000
00000000
,
00000000
00000000
00000000
00000000
00010000
00100000
01000000
10000000
,
00100000
01000000
00010000
01000000
00001000
00010000
00001000
00000000
,
00010000
00000100
00000010
00000001
00000100
00000010
00001000
00000000
,
00000100
00010000
00001000
00100000
00010000
10000000
01000000
00000000
,
00100000
00001000
01000000
00010000
10000000
01000000
00100000
00010000
,
01000000
00001000
00010000
00000100
00000010
00000001
00000100
00000000
,
00000010
00010000
00001000
01000000
00010000
10000000
01000000
00000000
,
00100000
00010000
01000000
00100000
10000000
01000000
00100000
00000000
,
00010000
01000000
00001000
00010000
00000010
00000000
00000000
00000000
,
00000100
00000001
00000010
00000000
00001100
00001100
00001100
00000000
,
00010000
00001000
00100000
00000000
01010000
01010000
01010000
00000000
,
10000000
01000000
00100000
00000000
01010000
01010000
01010000
00000000
,
00001000
00010000
00000100
00000000
00001010
00001010
00001010
00000000
,
00010000
00001000
00100000
00000000
11000000
11000000
11000000
00000000
,
00010000
01000000
00001000
00000000
00010010
00010010
00010010
00000000
,
00001000
00000001
00000010
00000000
00001100
00001100
00001100
00000000
,
00010000
00001000
00100000
00010000
01000000
00000000
00000000
00000000
,
00001000
00010000
00000100
00000000
00001000
00000001
00000100
00000000
,
00000010
00001000
00000100
00010000
00001000
01000000
00100000
00000000
,
10000000
01000000
00100000
00000000
00001000
00010000
00000100
00000000
,
00001000
00000001
00000100
00000000
00000000
00000010
00000000
00000010
,
00001000
00000100
00010000
00000000
00001000
00100000
00010000
00000000
,
10000000
01000000
00100000
00000000
00001000
00010000
00000100
00000000
,
00001000
00000001
00000100
00000000
00000010
00001000
00000100
00000000
,
00010000
00001000
00100000
00010000
10000000
00000000
00000000
00000000
,
00000000
01000000
00100000
00001000
00010000
00000100
00000010
00000001
,
00000100
00000010
00010000
00001000
00000000
00001000
00000000
00000000
,
00000000
00100000
01000000
10000000
00010000
01000000
00001000
00010000
,
00000100
00000010
00000001
00000000
00000000
00001100
00000000
00000000
,
00000000
00010000
00001000
00100000
00010000
10000000
01000000
00100000
,
00001000
00010000
00000100
00000010
00000000
00000010
00000000
00000000
,
00000000
00000001
00001000
00000100
00010000
00001000
00100000
00010000
,
10000000
00100000
01000000
00000000
00010000
00010000
00010000
00000000
,
00011000
00000000
00000000
00000000
00000100
00001000
00000100
00001000
,
00000000
00000000
00000001
00000010
00000001
00000010
00000001
00000010
,
00000100
00001000
00000100
00000000
00010000
00000010
00010000
00000000
,
00001000
01000000
00001000
00000000
00010000
00100000
00010000
00000000
,
10000000
01000000
10000000
00000000
00100000
00010000
00100000
00000000
,
00001000
00010000
00001000
00010000
00000000
00000100
00000100
00000000
,
00001000
00000010
00010000
00000000
00001000
01000000
00010000
00000000
,
10000000
01000000
00100000
00000000
00001000
00010000
00000100
00000000
,
00000010
00000001
00000100
00000000
00000010
00010000
00001000
00000000
,
00100000
00010000
10000000
01000000
00000000
00000000
00000000
00000000
,
10010000
01001000
00011000
00010010
,
00001001
00000110
00010100
00101000
,
10010000
01100000
10010000
00011000
,
00001010
00000000
00000101
00000000
00001000
00000100
00010000
00000000
,
00101000
10010000
01100000
10010000
,
01001000
00110000
00011000
00001100
,
00000101
00000011
00001100
00010010
,
01001000
00000000
10010000
00000000
01000000
00100000
00001000
00000000
,
10010000
00000000
01000000
00100000
00000000
00001000
00010000
00000000
,
00000100
00000010
00000000
00000001
00001000
00001000
00001000
00000000
,
00000100
00000000
00010000
00001000
00000000
00100000
00010000
00000000
,
10000000
01000000
00000000
00100000
00010000
00010000
00010000
00000000
,
01000000
00000000
00001000
00010000
00000000
00000100
00000010
00000001
,
00000100
00000000
00000010
00000000
00001000
00001000
00001000
00000000
,
00000100
00000000
00010000
00001000
00000000
00100000
01000000
10000000
,
00010000
00000000
01000000
00000000
00001000
00001000
00001000
00000000
,
00010000
00000000
00000100
00000000
00000010
00000001
00000100
00000000
,
00000010
00000000
00001000
00000000
00000100
00010000
00001000
00000000
,
00100000
00010000
01000000
00000000
00100000
10000000
01000000
00000000
,
00100000
00001000
00010000
00000100
00000010
00000001
00000100
00000000
,
00000010
00000000
00001000
00000000
00000100
00010000
00001000
00000000
,
00100000
00000000
01000000
00000000
10000000
00010000
01000000
00000000
,
00001000
00010000
00000100
00001000
00000001
00000100
00000010
00001000
,
00000100
00010000
00001000
00100000
01000000
00000000
00000000
00000000
;

//---------------dance-single - ----------------
#NOTES:
     dance-single:
     :
     Beginner:
     2:
     0.168,0.184,0.010,0.000,0.000:
0000
0000
0000
0000
,
0000
0000
0000
0000
,
0000
0000
0000
0000
,
0000
0000
0000
0000
,
0100
0000
0100
0000
,
0100
0000
0100
0000
,
0100
0000
0100
0000
,
0100
0000
0100
0000
,
0010
0000
0010
0000
,
1000
0000
0000
0000
,
0001
0000
0001
0000
,
0100
0000
0000
0000
,
0010
0000
0010
0000
,
1000
0000
1000
0000
,
0100
0000
0100
0000
,
0001
0000
0000
0000
,
1000
0000
1000
0000
,
0100
0000
0100
0000
,
0010
0000
0010
0000
,
0001
0000
0000
0000
,
0001
0000
0001
0000
,
0010
0000
0010
0000
,
0100
0000
0100
0000
,
1000
0000
1000
0000
,
0001
0000
0001
0000
,
1000
0000
0000
0000
,
1000
0000
1000
0000
,
0001
0000
0000
0000
,
0100
0000
0100
0000
,
0010
0000
0000
0000
,
0010
0000
0010
0000
,
0100
0000
0000
0000
,
1000
0000
1000
0000
,
0100
0000
0000
0000
,
0010
0000
0010
0000
,
0001
0000
0000
0000
,
0100
0000
0100
0000
,
0010
0000
0000
0000
,
1000
0000
1000
0000
,
0001
0000
0000
0000
,
1000
0000
1000
1000
,
0000
0000
1000
0000
,
1000
0000
0001
0000
,
0000
0000
0100
0000
,
0100
0000
0010
0000
,
0000
0000
1000
0000
,
1000
0000
0010
0000
,
0000
0000
0100
0000
,
0100
0000
0001
0000
,
0000
0000
1000
0000
,
1000
0000
0100
0000
,
0000
0000
0001
0000
,
0001
0000
0100
0000
,
0000
0000
1000
0000
,
1000
0000
0010
0000
,
0000
0000
0001
0000
,
0001
0000
0010
0000
,
0000
0000
1000
0000
,
1000
0000
0100
0000
,
0100
0000
0010
0000
,
0010
0000
0001
0000
,
0000
0000
0001
0000
,
0001
0000
0100
0000
,
0100
0000
0010
0000
,
0010
0000
1000
0000
,
0000
0000
0100
0000
,
0100
0000
0010
0000
,
0010
0000
0100
0000
,
0100
0000
0010
0000
,
0000
0000
1000
0000
,
1000
0000
0001
0000
,
0001
0000
1000
0000
,
0001
0000
1000
0000
,
1001
0000
0000
0000
;

//---------------dance-single - Copied from ----------------
#NOTES:
     dance-single:
     Copied from:
     Challenge:
     10:
     0.875,0.992,0.272,0.030,0.342: // measure 1
0000
0000
0000
0000
,  // measure 2
0000
0000
0000
0000
,  // measure 3
0000
0000
0000
0000
,  // measure 4
0000
0000
0000
0000
,  // measure 5
1001
1001
1001
1001
,  // measure 6
0000
0100
0010
0100
0000
0100
0010
0100
,  // measure 7
0000
0011
0000
0011
0000
0011
0000
0011
,  // measure 8
0000
0001
0010
0001
0010
0100
1000
0100
,  // measure 9
1000
0000
0100
0000
1000
0000
0100
0010
0100
0010
0100
0000
0010
0000
0001
0000
,  // measure 10
0100
0000
0010
0000
1000
0000
0010
0100
0010
0100
0010
0000
0100
0000
0001
0000
,  // measure 11
0010
0000
0100
0000
1000
0000
0001
1000
0001
1000
0001
0000
1000
0000
0010
0000
,  // measure 12
0100
0000
0001
0000
0010
0000
0100
1000
0100
1000
0100
0000
0010
0000
0001
0000
,  // measure 13
0100
0000
0100
0000
0100
0000
0010
1000
0010
1000
0010
0000
0100
0000
0100
0000
,  // measure 14
0001
0000
0001
0000
0010
0000
0100
1000
0001
1000
0001
0000
1000
0000
0010
0000
,  // measure 15
0100
0000
0001
0000
0010
0000
1000
0001
0010
0001
1000
0000
0010
0000
0100
0000
,  // measure 16
0001
0000
0010
0000
0100
0000
0100
1000
0100
1000
0100
0000
0010
0000
0000
0000
,  // measure 17
0001
0000
0001
0000
0101
0000
0001
0100
0010
1000
0010
0000
0100
0000
0001
0000
,  // measure 18
0010
0000
0100
0000
1000
0000
0100
0010
0100
0010
0001
0000
0010
0000
0100
0000
,  // measure 19
1000
0000
0001
0000
0100
0000
0010
1000
0010
0100
0010
0000
1000
0000
0010
0000
,  // measure 20
0100
0000
0001
0000
1000
0000
0100
0001
0100
0001
0100
0000
1000
0000
0010
0000
,  // measure 21
0100
0000
0001
0000
0010
0000
0100
1000
0001
1000
0001
0000
0100
0000
0001
0000
,  // measure 22
0100
0000
0010
0000
1000
0000
0010
1000
0001
1000
0001
0000
1000
0000
0100
0000
,  // measure 23
0010
0000
0001
0000
0100
0000
0010
1000
0100
1000
0010
0000
1000
0000
0010
0000
,  // measure 24
0100
0001
0010
0001
0100
0000
0010
1000
0001
1000
0001
1000
0001
0000
0000
0000
,  // measure 25
1000
1000
1100
0000
0001
0001
0101
0000
,  // measure 26
0001
0010
0100
1000
0010
0100
0001
1000
,  // measure 27
0100
0010
0100
0010
0100
0010
0100
0010
,  // measure 28
1000
0001
1000
0001
1000
0000
1001
0000
,  // measure 29
0001
0010
0001
0010
0100
1000
0100
1000
,  // measure 30
0100
0010
0001
0100
0010
0010
0010
0000
,  // measure 31
1000
0010
0100
0001
0010
0100
1000
0100
,  // measure 32
0010
0010
0010
0000
1001
0000
0000
0000
,  // measure 33
1000
0100
0100
0001
0100
0100
1000
0100
,  // measure 34
0100
0000
0001
0000
0100
0000
0100
0000
0010
0100
0010
0000
0010
0100
0010
0000
,  // measure 35
1000
0010
0010
0001
0010
0010
1000
0010
,  // measure 36
0010
0000
0001
0000
0010
0000
0010
0000
1000
0001
1000
0000
1000
0001
1000
0000
,  // measure 37
0001
0100
0100
0001
0010
0010
0001
0100
,  // measure 38
0100
0000
0001
0000
0010
0000
0010
0000
0001
0100
0001
0000
0001
0010
0001
0000
,  // measure 39
1000
0010
0010
0100
0001
0001
0100
0010
,  // measure 40
0010
0000
1000
0000
0001
0000
0001
0000
0010
0100
1000
0000
1000
0100
0010
0000
,  // measure 41
2002
0000
3003
0000
0100
0010
0100
0010
0200
0000
0000
0000
0310
0100
0010
0100
,  // measure 42
0001
1000
0001
1000
0100
0010
0100
0010
0100
0000
0100
0000
0010
0000
0010
0000
,  // measure 43
0100
0010
0100
0010
1000
1000
0001
0001
,  // measure 44
1000
0001
1000
0000
0001
1000
0001
0000
1000
0000
1000
0000
0010
0000
0010
0000
,  // measure 45
0100
0100
0001
0001
0010
0100
1000
0001
,  // measure 46
0100
0010
1000
0000
0001
0100
0010
0000
1000
0000
1000
0000
0100
0000
0100
0000
,  // measure 47
0010
0010
0001
0001
0100
0010
1000
0001
,  // measure 48
1000
0100
0010
0000
0001
0010
0100
0000
1000
0000
1000
0000
0010
0000
0010
0000
,  // measure 49
0100
0000
0100
0000
0001
0000
0001
0000
0100
0010
0100
0000
0010
1000
0010
0000
,  // measure 50
0100
0001
0100
0000
1001
0000
0000
0000
1000
0000
0100
0000
1100
0000
0000
0000
,  // measure 51
0001
0100
0101
0000
0001
0010
0001
0010
,  // measure 52
0100
1000
0100
0000
0001
1000
1001
0000
,  // measure 53
0100
0010
0110
0000
1000
0010
1000
0010
,  // measure 54
0100
0001
0100
0000
0001
0010
1100
0000
,  // measure 55
1000
0010
0101
0000
1000
0100
1000
0100
,  // measure 56
0001
0100
0001
0100
1000
0010
1010
0000
,  // measure 57
0001
0010
0011
0000
0001
0100
0010
0100
,  // measure 58
1010
0000
0000
0000
1000
0100
1000
0100
,  // measure 59
0001
0100
0001
0100
1000
0100
0001
0100
,  // measure 60
1000
0100
0001
0100
1000
0010
1000
0010
,  // measure 61
0001
0010
0001
0010
1000
0010
0001
0010
,  // measure 62
1000
0010
0001
0000
1000
0010
1000
0010
,  // measure 63
0100
0001
0100
0001
1000
0001
1000
0001
,  // measure 64
0100
0010
0100
0010
1000
0010
0100
0001
,  // measure 65
1000
0010
0100
0001
0010
0100
1000
0000
,  // measure 66
1100
0000
0000
0000
0101
0000
0000
0000
1000
0000
0100
0000
1000
0000
0100
0010
,  // measure 67
0100
0010
0100
0000
0010
0000
0001
0000
0100
0000
0010
0000
1000
0000
0010
0100
,  // measure 68
0010
0100
0010
0000
0100
0000
0001
0000
0010
0000
0100
0000
1000
0000
0001
1000
,  // measure 69
0001
1000
0001
0000
1000
0000
0010
0000
0100
0000
0001
0000
0010
0000
0100
1000
,  // measure 70
0100
1000
0100
0000
0010
0000
0001
0000
0100
0000
0100
0000
0010
0000
0010
0000
,  // measure 71
1000
1000
0001
0001
1000
1000
0100
0100
,  // measure 72
0010
0010
0001
0001
0100
0010
0100
0010
,  // measure 73
1000
0001
1000
0001
1000
0100
0010
0001
,  // measure 74
1001
0000
0000
0000
;
