#TITLE:MAKE IT BETTER;
#SUBTITLE:;
#ARTIST:mitsu-o!;
#TITLETRANSLIT:;
#SUBTITLETRANSLIT:;
#ARTISTTRANSLIT:;
#CREDIT:;
#BANNER:MAKE IT BETTER.png;
#BACKGROUND:MAKE IT BETTER-bg.png;
#LYRICSPATH:MAKE IT BETTER.lrc;
#CDTITLE:./CDTITLES/DANCE DANCE REVOLUTION.PNG;
#MUSIC:MAKE IT BETTER.mp3;
#OFFSET:-0.061;
#SAMPLESTART:8.070;
#SAMPLELENGTH:15.000;
#SELECTABLE:YES;
#DISPLAYBPM:119.000;
#BPMS:0.000=119.180;
#STOPS:;
#BGCHANGES:;

//---------------dance-single - ----------------
#NOTES:
     dance-single:
     :
     Easy:
     4:
     0.231,0.415,0.000,0.045,0.000:
0000
0000
0000
0000
,
0000
0000
0000
0000
,
0000
0000
0000
0000
,
0000
0000
0000
0000
,
1000
0100
0001
0000
,
0001
0100
1000
0000
,
1000
0010
0001
0010
,
1000
0100
0001
0000
,
0001
0100
0010
0000
,
0010
0100
0001
0000
,
0001
0100
0010
1000
,
0100
1000
0100
0000
,
0010
0001
0100
0000
,
0010
1000
0100
0000
,
1000
0001
0100
0010
,
1000
0010
0100
0000
,
0001
1000
0100
0000
,
1000
0001
0100
0000
,
0001
0100
0010
1000
,
0100
0010
0001
0100
,
0010
0010
1000
0000
,
0100
0100
0001
0000
,
1000
1000
0001
0001
,
0100
0100
0010
0000
,
1000
1000
0001
0000
,
0010
0010
0100
0000
,
1000
1000
0001
0001
,
0200
0010
0320
0100
0230
0010
0320
0100
,
0130
0010
1000
0001
,
0010
0100
1000
0000
,
0001
0100
0001
0100
,
0010
1000
0010
0000
,
1000
0100
1000
0100
,
0010
0001
0010
0000
,
0001
0010
0100
1000
,
0010
0100
1000
0000
,
1000
1000
0100
0000
,
0001
0001
0100
0000
,
1000
1000
0010
0000
,
0001
0001
0010
0000
,
0100
0100
0010
0000
,
0010
0010
0100
0000
,
1000
0100
0010
0000
,
0100
0100
0100
0100
0100
0100
0100
0100
;

//---------------dance-single - ----------------
#NOTES:
     dance-single:
     :
     Medium:
     5:
     0.407,0.366,0.289,0.000,0.006:
0000
0000
0000
0000
,
0000
0000
0000
0000
,
0000
0000
0000
0000
,
0000
0000
0000
0000
,
1000
0100
1000
0000
0001
0100
0001
0000
,
0100
0000
0100
0000
0010
0100
0010
0000
,
1000
1100
0001
0101
,
0001
0010
0100
1000
0100
0000
0000
0000
,
0010
0010
0010
0000
0100
0100
0100
0000
,
0010
0100
0010
0000
1010
0100
0011
0000
,
1000
1000
0100
0000
0001
0001
0100
0000
,
1000
0100
0010
0001
1000
0100
0010
0001
,
1000
0010
0100
0000
0001
0100
0010
0000
,
1000
1000
0100
0000
0011
0000
1100
0000
,
0001
0000
0100
0000
1010
0100
0011
0000
,
0001
0010
0100
1000
0010
0000
0000
0000
,
0100
0100
0010
0000
0100
0100
0010
0000
,
1000
0100
0010
0000
0011
0100
1010
0000
,
1000
0000
1000
0000
0100
0000
0001
0000
0100
0000
0010
0000
0000
1000
0000
0000
,
0010
0100
0001
0100
0010
1000
0010
0000
,
0100
0011
0000
0000
0001
0010
0100
0000
,
1000
1000
0001
0001
1000
0000
0001
0000
,
0100
0000
1010
0000
0100
0001
0100
0000
,
0010
0010
0100
0100
0010
0000
0100
0000
,
0010
0000
1100
0000
0001
0001
0001
0000
,
1000
0100
0010
0000
0001
0010
0010
0000
,
0001
0000
0101
0000
0001
0100
0010
0000
,
1000
0001
1000
0001
1000
0001
1000
0001
,
1000
0000
1100
0000
0001
0001
0100
0000
,
0010
0010
1000
0000
0100
0011
1010
0000
,
1000
0000
0100
0000
0010
0010
0010
0000
,
0100
0010
0100
0010
0100
0000
0100
0000
,
0001
0001
1000
0000
0001
0001
1000
0000
,
0010
0000
0101
0000
0010
0010
0100
0000
,
0010
1000
0001
0000
0001
0001
0100
0000
,
0010
1000
0010
0100
0001
0000
0100
0000
,
0010
0010
0100
0000
0010
0000
1100
0000
,
0001
0001
0001
0000
1000
0100
0011
0000
,
0001
0000
0101
0000
0001
0100
1010
0000
,
1000
1000
1000
0000
0001
0001
0001
0001
,
0100
0000
1010
0000
0100
0100
0011
0000
,
0001
0000
0001
0000
0100
0010
0100
0010
,
0100
0000
1010
0000
0010
0010
0010
0000
,
0100
0000
0010
0100
0010
0100
0010
1001
;

//---------------dance-single - ----------------
#NOTES:
     dance-single:
     :
     Hard:
     7:
     0.474,0.415,0.223,0.000,0.000:
0000
0000
0000
0000
,
0000
0000
0000
0000
,
0000
0000
0000
0000
,
0000
0000
0000
0000
,
1000
0100
0010
0001
1000
0100
0010
0000
,
0001
0010
0100
1000
0100
0010
0001
0000
,
1000
0000
1000
0100
0010
0001
0100
0010
,
1000
0010
0100
0001
0010
0100
1000
0000
,
1000
0001
0100
0001
1000
0100
1000
0000
,
0001
0010
0001
1000
0010
1000
0001
0000
,
1000
1000
0100
0000
0001
0001
0100
0000
,
1000
0010
0100
0001
0010
0100
1000
0100
,
0010
0001
0100
0010
1000
0100
0010
0000
,
0100
1000
0010
0100
0001
0010
0100
0000
,
1000
0001
0100
0000
1000
0001
0100
0000
,
0001
0010
0100
1000
0010
0100
1000
0000
,
0001
0100
0010
1000
0100
0010
0001
0000
,
0100
0010
1000
0100
0010
0001
0100
0000
,
0001
1000
0100
0000
0001
1000
0100
0000
,
1000
0100
1000
0100
0001
0100
0001
0100
,
1000
0100
1100
0000
0001
0100
0101
0000
,
0001
0010
0100
1000
0001
0010
0100
1000
,
0010
1000
1010
0000
0010
0001
0011
0000
,
0001
0001
1000
1000
0100
0100
0010
0010
,
0001
0100
1010
0000
1000
0100
0011
0000
,
0001
0010
0100
1000
0010
0100
1000
0100
,
0001
0100
0110
0000
1000
0100
0110
0000
,
0001
0001
0001
0001
0001
0001
0001
0001
,
1000
0100
0010
0001
1000
0100
0010
0000
,
0001
0010
0100
1000
0001
0010
0100
0000
,
1000
0100
1100
0000
0001
0100
0101
0000
,
1000
0010
0100
0001
0010
0100
1000
0000
,
0001
0010
0001
0010
1000
0010
1000
0000
,
1000
0010
1000
0010
0001
0010
0001
0000
,
1000
0100
0011
0000
0001
0010
1100
0000
,
1000
0001
1000
0001
0100
0010
0100
0010
,
1000
0010
1010
0000
1000
0100
1100
0000
,
0001
0100
0010
1000
0100
0010
0001
0100
,
0010
0001
0101
0000
0100
0001
0011
0000
,
0001
0100
0010
1000
0100
0010
0001
0100
,
0010
1000
1100
0000
0010
1000
1100
0000
,
1000
0100
0010
0001
0100
0010
1000
0100
,
0010
0001
0011
0000
0010
0001
0011
0000
,
0100
0100
0100
0100
0100
0100
0100
0100
;

//---------------dance-double - ----------------
#NOTES:
     dance-double:
     :
     Easy:
     5:
     0.289,0.316,0.579,0.000,0.000:
00000000
00000000
00000000
00000000
,
00000000
00000000
00000000
00000000
,
00000000
00000000
00000000
00000000
,
00000000
00000000
00000000
00000000
,
00000000
00000000
00000000
00000000
,
00000000
00000000
00000000
00000000
,
00000000
00000000
00000000
00000000
,
00100000
00100000
00100000
00000000
,
00101000
00100000
00100000
00110000
,
00100000
00000000
00100000
00000000
00100000
10000000
01000000
00000000
,
00000000
10010000
00011000
00001001
,
00000010
00000100
00011000
00000000
,
00010010
00000010
00000010
00001010
,
00000010
00000010
00000100
00000010
,
00000000
00000011
00001001
00000101
,
00001000
00000001
00011000
00000000
,
00101000
00100000
00100000
00110000
,
00100000
00000000
00100000
00000000
00100000
10000000
01000000
00000000
,
00000000
10010000
00011000
00001001
,
00000010
00000000
00000100
00000000
00001000
00000000
00001000
00001000
,
00000000
00011000
00000000
00101000
,
00000000
10000000
00010000
10000000
,
00000000
00011000
00000000
00010010
,
00001000
00000100
00000001
00000010
,
00000100
00011000
00000000
00101000
,
00000000
00010000
10000000
00010000
,
00000000
10010000
01010000
00011000
,
00000000
00000000
00000000
00000000
,
00010010
00000010
00001010
00000010
,
00000101
00000001
00000100
00000010
,
00000000
00000011
00001001
00000101
,
00001000
00000001
00011000
00000000
,
00101000
00100000
00110000
00100000
,
11000000
00000000
10000000
00000000
00100000
10000000
01000000
00000000
,
00000000
10010000
00011000
00001001
,
00000001
00000000
00000001
00000001
00000001
00000001
00000100
00000000
,
00000000
00011000
00101000
00010010
,
00000000
00001000
00000001
00001000
,
00000000
00011000
00010010
00101000
,
00010000
01000000
10000000
00100000
,
01000000
00011000
00101000
00010010
,
00000000
00001000
00000001
00001000
,
00000000
00001001
00000101
00001100
,
00001000
00001000
00001000
00001000
00001000
00000000
00011000
00000000
;

//---------------dance-double - ----------------
#NOTES:
     dance-double:
     :
     Medium:
     7:
     0.329,0.391,0.289,0.000,0.000:
00000000
00000000
00000000
00000000
,
00000000
00000000
00000000
00000000
,
00000000
00000000
00000000
00000000
,
00000000
00000000
00000000
00000000
,
00000000
00000000
00000000
00000000
,
00000000
00000000
00000000
00000000
,
00000000
00000000
00000000
00000000
,
00100000
00000000
00100000
00100000
00100000
00000000
00000000
00000000
,
00001000
00100000
00100000
00000000
00010000
00100000
00100000
00000000
,
00100000
00000000
00100000
00000000
10000000
00100000
01000000
00000000
,
00000000
10010000
00011000
00001001
,
00000010
00000000
00000100
00000100
00001000
00000000
00011000
00000000
,
00010000
00000010
00000010
00000000
00001000
00000010
00000010
00000000
,
00000010
00000010
00000100
00000010
,
00000000
00001001
00011000
10010000
,
01000000
00000000
00010000
00001000
00011000
00000000
00000000
00000000
,
00001000
00100000
00100000
00000000
00010000
00100000
00100000
00000000
,
00100000
00000000
00100000
00000000
10000000
00100000
01000000
00000000
,
00000000
10010000
00011000
00001001
,
00000100
00000000
00001000
00001000
00001000
00000100
00001000
00000100
,
00000000
00000000
00011000
00000000
00010000
00001000
00010000
00000010
,
00000000
00001000
00000001
00001000
,
00000000
00000000
00011000
00000000
00001000
00010000
00001000
00100000
,
00010000
00000000
00100000
00000000
10000000
00000000
01000000
01000000
,
01000000
00000000
00011000
00000000
00010000
00001000
00010000
00000010
,
00000000
00001000
00000001
00001000
,
00000000
00000000
00011000
00000000
00001000
00010000
00001000
00100000
,
00000000
00000000
00000000
00000000
,
00010000
00000010
00000010
00000000
00001000
00000010
00000010
00000000
,
00000100
00000001
00000001
00000000
00000100
00000000
00000010
00000000
,
00000000
00001001
00011000
10010000
,
00100000
00010000
00010000
00001000
00011000
00000000
00000000
00000000
,
00001000
00100000
00100000
00000000
00010000
00100000
00100000
00000000
,
01000000
10000000
10000000
00000000
10000000
00100000
01000000
00000000
,
00000000
10010000
00011000
00001001
,
00000100
00000000
00001000
00001000
00001000
00000100
00001000
00000100
,
00000000
00000000
00011000
00000000
00010000
00000010
00001000
00100000
,
00000000
00000000
00010000
00000000
10000000
00010000
10000000
00000000
,
01000000
00000000
00011000
00000000
00001000
00100000
00010000
00000010
,
00001000
00001000
00000100
00000100
00000001
00000001
00000010
00001000
,
00000100
00000000
00011000
00000000
00010000
00000010
00001000
00100000
,
00000000
00000000
00010000
00000000
10000000
00010000
10000000
00000000
,
01000000
00000000
00011000
00000000
00001000
00100000
00010000
00000010
,
00001000
00001000
00000100
00000100
00000001
00000010
00001000
00000100
;

//---------------dance-double - ----------------
#NOTES:
     dance-double:
     :
     Hard:
     7:
     0.388,0.414,0.267,0.000,0.206:
00000000
00000000
00000000
00000000
,
00000000
00000000
00000000
00000000
,
00000000
00000000
00000000
00000000
,
00000000
00000000
00000000
00000000
,
00000000
00000000
00000000
00000000
,
00000000
00000000
00000000
00000000
,
00000000
00000000
00000000
00000000
,
00000001
00000010
00000100
00010000
00001000
00000000
00000000
00000000
,
00100000
00000000
00010000
00000000
01000000
00010000
00000000
00000000
10000000
00000000
00100000
00000000
01000000
00100000
00000000
00000000
,
10000000
01000000
00100000
00001000
00010000
00000000
00000000
00000000
,
00001010
00000000
00000101
00000000
00001000
00000100
00000010
00000000
,
00000000
00010000
00001000
01000000
00100000
10000000
01000000
00000000
,
00100000
00000000
00010000
00000000
01000000
00010000
00000000
00000000
00100000
00000000
00001000
00000000
00010000
00001000
00000000
00000000
,
00100000
00010000
01000000
00001000
00010000
00000000
00000000
00000000
,
00001100
00000000
00000011
00000000
00001000
00000100
00010000
00000000
,
00000000
00001000
00100000
00010000
10000000
10000000
10000000
00000000
,
00100000
00000000
01000000
00000000
00001000
00010000
00000000
00000000
00000100
00000000
00000010
00000000
00000001
00000100
00000000
00000000
,
00000010
00001000
00000100
00010000
00001000
00000000
00000000
00000000
,
00110000
00000000
11000000
00000000
00100000
00010000
01000000
00000000
,
00000000
00000000
00001000
00000000
00010000
00000000
00001000
00000000
00010000
00000100
00001000
00000100
00010000
00000100
00000000
00000000
,
00000000
00000000
00001001
00000000
00000100
00000010
00010000
00000000
,
00001000
00001000
00100000
00100000
01000000
01000000
10000000
00000000
,
00000000
00000000
01010000
00000000
00100000
00001000
00010000
00000000
,
00000100
00001000
00000000
00000100
00000000
00000010
00000000
00000001
00000000
00000000
00001000
00000000
00000100
00000000
00010000
00000000
,
00000000
00000000
00101000
00000000
00010000
10000000
01000000
00000000
,
00100000
00100000
00001000
00001000
00010000
00010000
00000100
00000000
,
00000000
00000000
00001001
00000000
00000100
00000010
00010000
00000000
,
00001000
00100000
01000000
10000000
00010000
01000000
00001000
00010000
,
00000100
00000000
00000010
00000000
00000001
00000100
00000010
00000000
,
00010000
00010000
00001000
00100000
00010000
10000000
01000000
00000000
,
00000000
00000000
00000000
00000000
00000000
00000000
00100000
00000000
00000000
00000000
00100000
00000000
00000000
00100000
00000000
00000000
,
00001000
00000000
01000000
00000000
00010000
00100000
00010000
00000000
,
00100000
00001000
00010000
00000000
00000100
00001000
00000100
00000000
,
00000010
00000000
00000010
00000000
00000001
00000100
00000010
00000000
,
00000000
00001100
00011000
00110000
,
10000000
01000000
00100000
00010000
01000000
00001000
00010000
00000000
,
00000100
00000000
00000100
00000000
00000100
00000000
00000000
00000000
00000010
00000001
00000010
00000001
00000010
00000001
00000000
00000000
,
00000000
00001100
00000000
00010010
00000000
01001000
00000000
00110000
,
00000000
00000000
00000000
00000000
10100000
00000000
00000000
00000000
00010000
00100000
00010000
00100000
00010000
00100000
00000000
00000000
,
00001000
00010000
00000000
00000100
00000000
00000010
00000000
00000001
00000000
00000000
00001000
00000000
00000100
00000000
00010000
00000000
,
00000000
00000000
00000000
00000000
00101000
00000000
00000000
00000000
00010000
01000000
00010000
01000000
00010000
01000000
00000000
00000000
,
00000000
10100000
00000000
01001000
00000000
00010010
00000000
00000101
,
00000000
00000000
00000000
00000000
00001010
00000000
00000000
00000000
00000100
00010000
00000100
00010000
00000100
00010000
00000000
00000000
,
00000000
00001000
00000000
00100000
00000000
00010000
00000000
01000000
00000000
00100000
00000000
10000000
00000000
00010000
00000000
00000000
;

//---------------dance-single - ----------------
#NOTES:
     dance-single:
     :
     Beginner:
     1:
     0.097,0.097,0.000,0.000,0.000:
0000
0000
0000
0000
,
0000
0000
0000
0000
,
0000
0000
0000
0000
,
0000
0000
0000
0000
,
1000
0000
1000
0000
,
1000
0000
0000
0000
,
0001
0000
0001
0000
,
0001
0000
0000
0000
,
0100
0000
0100
0000
,
0100
0000
0000
0000
,
0010
0000
0010
0000
,
0010
0000
0000
0000
,
1000
0000
1000
0000
,
1000
0000
0000
0000
,
0010
0000
0010
0000
,
0010
0000
0000
0000
,
0100
0000
0100
0000
,
0100
0000
0000
0000
,
0001
0000
0001
0000
,
0001
0000
0000
0000
,
1000
0000
1000
0000
,
0001
0000
0000
0000
,
0001
0000
0001
0000
,
1000
0000
0000
0000
,
0100
0000
0100
0000
,
0010
0000
0000
0000
,
0010
0000
0010
0000
,
0100
0000
0000
0000
,
1000
0000
1000
0000
,
1000
0000
0000
0000
,
0100
0000
0100
0000
,
0100
0000
0000
0000
,
0010
0000
0010
0000
,
0010
0000
0000
0000
,
0001
0000
0001
0000
,
0001
0000
0000
0000
,
0100
0000
0010
0000
,
0100
0000
0000
0000
,
0010
0000
0100
0000
,
0010
0000
0000
0000
,
1000
0000
0001
0000
,
1000
0000
0000
0000
,
0001
0000
1000
0000
,
0001
0000
0100
0000
;

//---------------dance-single - ----------------
#NOTES:
     dance-single:
     :
     Challenge:
     9:
     0.531,0.560,0.467,0.000,0.484: // measure 1
0000
0000
0000
0000
,  // measure 2
0000
0000
0000
0000
,  // measure 3
0000
0000
0000
0000
,  // measure 4
0000
0000
0000
0000
,  // measure 5
1000
0000
0000
0000
1100
0000
0000
0001
0000
0000
0000
0000
0110
0000
0000
0000
,  // measure 6
0001
0000
0000
0000
0101
0000
0000
1000
0000
1000
0000
0000
0110
0000
0000
0000
,  // measure 7
0001
0000
0000
0000
0110
0000
0000
0100
0000
0000
0000
0000
1001
0000
0000
0000
,  // measure 8
1000
0000
0000
0000
1010
0000
0000
0001
0000
0001
0000
0000
0110
0000
0010
0000
,  // measure 9
1000
0000
0000
0000
1001
0000
0000
0100
0000
0000
0000
0000
0011
0000
0000
0000
,  // measure 10
0100
0000
0000
0000
1010
0000
0000
0001
0000
0001
0000
0000
0011
0000
0000
0000
,  // measure 11
0100
0000
0000
0000
1100
0000
0000
0001
0000
0000
0000
0000
0110
0000
0000
0000
,  // measure 12
0001
0000
0010
0000
0100
1000
0000
1000
0100
0000
0100
0000
0010
0000
0010
0000
,  // measure 13
1000
0000
0000
0000
1001
0000
0000
0100
0000
0000
0000
0000
0011
0000
0000
0000
,  // measure 14
0001
0000
0000
0000
0110
0000
0000
1000
0000
1000
0000
0000
0110
0000
0000
0000
,  // measure 15
1000
0000
0000
0000
1100
0000
0000
0100
0000
0000
0000
0000
0011
0000
0000
0000
,  // measure 16
0001
0000
0000
0000
0101
0000
0000
1000
0000
1000
0000
0000
0110
0000
0000
0000
,  // measure 17
0010
0000
0000
0000
1001
0000
0000
0100
0000
0000
0000
0000
0011
0000
0000
0000
,  // measure 18
0001
0000
0000
0000
0110
0000
0000
1000
0000
1000
0000
0000
0110
0000
0001
0000
,  // measure 19
0100
0000
0000
0000
1010
0000
0000
0100
0000
0000
0000
0000
1001
0000
0000
0000
,  // measure 20
1000
0100
0000
1000
0000
0100
0000
0001
0000
0100
0001
0100
0001
0100
0000
0000
,  // measure 21
1000
0100
0000
0000
0011
0000
0000
0000
0001
0100
0001
0100
0001
0100
0000
0000
,  // measure 22
0010
0010
1000
1000
0010
0010
0001
0001
,  // measure 23
0010
0000
0000
0000
0110
0000
0000
0000
0100
1000
0100
1000
0100
0001
0000
0000
,  // measure 24
1000
0100
0000
1000
0000
0000
0001
0000
0100
0001
0000
0100
0000
0010
1000
0000
,  // measure 25
0010
0000
0100
0000
1001
0000
0000
0000
1000
0010
1000
0010
0001
0010
0001
0000
,  // measure 26
0010
0010
0110
0100
0100
0100
0110
1000
,  // measure 27
0100
0000
0100
0000
0101
0000
0000
0000
0001
0100
0001
0100
1000
0100
1000
0000
,  // measure 28
0100
0000
0100
0000
0100
0000
0100
0000
0100
0010
0100
0000
0100
0010
0100
0010
,  // measure 29
0100
0000
0100
0000
0010
0100
0000
0100
0000
0000
0010
0000
0100
0000
0100
0000
,  // measure 30
0001
0000
1000
0000
0100
0010
0000
0001
0000
0000
0010
0000
1000
0000
0100
0000
,  // measure 31
0010
0000
0100
0000
1000
0001
0000
0100
0000
0000
1000
0000
0010
0000
0100
0000
,  // measure 32
0001
0000
0010
0000
1000
0010
0000
0001
0000
0000
1000
0000
0010
0000
0100
0000
,  // measure 33
0001
0000
0100
0000
1000
0100
0000
0010
0000
0000
0010
0000
0100
0000
0001
0000
,  // measure 34
0100
0000
0010
0000
1000
0100
0000
0010
0000
0000
0100
0000
0010
0000
1000
0000
,  // measure 35
0010
0000
0100
0000
0001
1000
0000
0100
0000
0000
0001
0000
0100
0000
0010
0000
,  // measure 36
1000
0010
0000
0001
0000
0010
0000
1000
0000
0010
0001
0010
0001
0010
0000
0000
,  // measure 37
1000
0000
1100
0000
0100
0000
0000
0000
0010
0001
0010
0001
0010
0001
0010
0000
,  // measure 38
0100
0100
1001
0010
0010
0010
1001
1000
,  // measure 39
0001
0000
0001
0000
0110
0000
0000
0000
0001
1000
0001
1000
0001
1000
0000
0000
,  // measure 40
1000
0100
1000
0000
0001
0000
0001
0000
0100
0001
0100
0000
0010
0000
0010
0000
,  // measure 41
1000
0000
0100
0000
0011
0000
0000
0000
0001
0100
0010
0100
0001
0100
0000
0000
,  // measure 42
0010
0010
1100
0010
0010
0010
0101
0001
,  // measure 43
0100
0000
0100
0000
1001
0000
0000
0000
1000
0100
0001
0100
1000
0100
0000
0000
,  // measure 44
1000
0001
0000
0100
0000
0000
0010
0000
1000
0000
0010
0000
0100
0000
0000
0000
;
