#TITLE:HAVE YOU NEVER BEEN MELLOW;
#SUBTITLE:;
#ARTIST:THE OLIVIA PROJECT;
#TITLETRANSLIT:;
#SUBTITLETRANSLIT:;
#ARTISTTRANSLIT:;
#CREDIT:;
#BANNER:HAVE YOU NEVER BEEN MELLOW.png;
#BACKGROUND:HAVE YOU NEVER BEEN MELLOW-bg.png;
#LYRICSPATH:HAVE YOU NEVER BEEN MELLOW.lrc;
#CDTITLE:./CDTITLES/DANCEMANIA 10.PNG;
#MUSIC:HAVE YOU NEVER BEEN MELLOW.mp3;
#OFFSET:-7.682;
#SAMPLESTART:49.550;
#SAMPLELENGTH:12.000;
#SELECTABLE:YES;
#DISPLAYBPM:126.000;
#BPMS:0.000=126.050;
#STOPS:;
#BGCHANGES:;

//---------------dance-single - ----------------
#NOTES:
     dance-single:
     :
     Beginner:
     1:
     0.103,0.135,0.012,0.000,0.000:
0000
0000
0000
0000
,
0000
0000
0000
0000
,
0000
0000
0000
0000
,
0000
0000
0000
0000
,
1000
0000
1000
0000
,
0100
0000
0100
0000
,
0010
0000
0010
0000
,
0001
0000
0001
0000
,
0100
0000
0100
0000
,
0010
0000
0010
0000
,
1000
0000
1000
0000
,
0001
0000
0000
0000
,
1000
0000
1000
0000
,
0010
0000
0010
0000
,
0100
0000
0100
0000
,
0001
0000
0001
0000
,
1000
0000
1000
0000
,
0100
0000
0100
0000
,
0010
0000
0010
0000
,
0001
0000
0001
0000
,
1000
0000
0000
0000
,
0000
0000
0000
0000
,
1000
0000
1000
0000
,
0100
0000
0000
0000
,
0001
0000
0001
0000
,
0100
0000
0000
0000
,
1000
0000
1000
0000
,
0010
0000
0010
0000
,
0001
0000
0001
0000
,
0010
0000
0000
0000
,
1000
0000
1000
0000
,
0100
0000
0000
0000
,
0010
0000
0010
0000
,
0001
0000
0000
0000
,
0001
0000
0001
0000
,
0100
0000
0100
0000
,
0010
0000
0010
0000
,
1000
0000
1000
0000
,
1001
0000
0000
0000
;

//---------------dance-single - ----------------
#NOTES:
     dance-single:
     :
     Easy:
     2:
     0.140,0.211,0.000,0.000,0.000:
0000
0000
0000
0000
,
0000
0000
0000
0000
,
0000
0000
0000
0000
,
0000
0000
0000
0000
,
1000
0000
0100
0000
,
0010
0000
0001
0000
,
0100
0000
0010
0000
,
1000
0000
0001
0000
,
1000
1000
0100
0000
,
0001
0001
0100
0000
,
0010
0000
0010
0000
,
0010
0000
0010
0000
,
1000
0000
0100
0000
,
0010
0000
0001
0000
,
0100
0010
0100
0000
,
0010
0100
0010
0000
,
1000
0000
1000
0000
,
0001
0000
0001
0000
,
1000
0001
1000
0000
,
0001
1000
0001
0000
,
1000
0000
0100
0000
,
0001
0000
0010
0000
,
1000
0000
1000
0000
,
0001
0000
0000
0000
,
0001
0000
0001
0000
,
1000
0000
0000
0000
,
0100
0000
0100
0000
,
0010
0000
0010
0000
,
0100
0010
0100
0000
,
0010
0100
0010
0000
,
1000
0000
1000
0000
,
0001
0000
0000
0000
,
0010
0000
0010
0000
,
0100
0000
0000
0000
,
1000
0100
0010
0000
,
0001
0010
0100
0000
,
1000
0010
0100
0001
,
1000
0010
0100
0001
,
1000
0100
0000
0001
,
0000
0100
0000
1000
;

//---------------dance-single - ----------------
#NOTES:
     dance-single:
     :
     Medium:
     4:
     0.299,0.394,0.071,0.059,0.000:
0000
0000
0000
0000
,
0000
0000
0000
0000
,
0000
0000
0000
0000
,
0000
0000
0000
0000
,
1000
0000
0100
0000
0010
0001
0010
0000
,
0100
0000
1000
0000
0010
0100
0001
0000
,
1000
0000
0100
0000
0001
0100
1000
0000
,
0001
0000
1000
0000
0001
0010
1000
0000
,
2000
0100
3100
0000
0002
0100
0103
0000
,
2000
0010
3010
0000
0002
0010
0013
0000
,
0100
1010
0100
0011
,
1001
0110
1010
0101
,
1000
0000
0100
0000
0010
0001
0010
0000
,
0100
0000
1000
0000
0001
0100
1000
0000
,
0001
0000
0100
0000
0010
1000
0010
0000
,
1000
0000
0100
0000
0010
0001
0010
0000
,
0100
0000
0100
0000
0010
0100
0010
0000
,
0100
0000
0100
0000
0010
0100
0010
0000
,
1000
0000
1000
0000
0001
1000
0001
0000
,
1000
0000
1000
0000
0001
1000
0001
0000
,
2000
0000
0000
3000
,
1000
1000
0001
0001
1000
1000
0001
0001
,
1000
0100
0010
0001
,
0100
0100
0010
0000
,
1000
0000
0010
0100
0010
0000
0100
0000
,
0001
0001
1000
0000
,
0100
0010
0001
0100
,
1000
0100
0001
0010
,
1000
0100
0010
0001
,
0100
0010
0100
0000
0010
0100
0010
0000
,
1000
0000
0010
0100
0010
0000
0100
0000
,
0001
0001
1000
1000
,
0010
0000
0100
0000
0001
0100
0001
0000
,
0100
0010
0100
0000
0010
0000
0000
0000
,
1000
1000
1000
0000
0001
0001
0001
0000
,
0100
0100
0010
0010
,
1000
1000
0001
0001
,
1000
0100
0010
0001
,
0100
0000
0010
0100
0010
0100
0010
0000
,
0100
0100
0000
0000
;

//---------------dance-single - ----------------
#NOTES:
     dance-single:
     :
     Hard:
     6:
     0.432,0.397,0.118,0.154,0.000:
1000
0100
1000
0000
0001
0100
0001
0000
,
1000
0010
1000
0000
0001
0010
0001
0000
,
0100
0010
0100
0000
0010
0100
0010
0000
,
2000
3200
0320
0031
,
0100
0100
0100
0000
0010
0010
0010
0000
,
0100
0100
0100
0000
0010
0010
0010
0000
,
1000
1000
1000
0000
0001
0001
0001
0000
,
1000
1000
1000
0000
0001
0001
0001
0000
,
1000
0100
0001
0000
0100
0001
0010
0000
,
0001
0010
1000
0000
0010
1000
0100
0000
,
1000
0001
0100
0000
0001
1000
0100
0000
,
1000
0100
0001
0100
1000
0100
0001
0000
,
1000
0000
1100
0000
0001
0001
0001
0000
,
0001
0000
0101
0000
1000
1000
1000
0000
,
0010
0000
0010
0000
0100
0100
0100
0000
,
0010
0000
0010
0000
0100
0100
0100
0000
,
0001
1000
0100
0000
1000
0001
0100
0000
,
0001
1000
0010
0000
1000
0001
0010
0000
,
1000
0100
0001
0000
0001
0010
1000
0000
,
1000
0100
0001
0000
0001
0010
1000
0000
,
1000
0100
0010
0001
1000
0100
0010
0001
,
0100
0010
1000
0001
0100
0010
1000
0001
,
0100
0000
0010
1000
0010
0100
0001
0000
,
2100
3001
0102
1003
,
0001
0000
0010
0100
1000
0010
0100
0000
,
2010
3001
0012
1003
,
1000
1000
1000
0000
0001
0001
0001
0000
,
0100
0100
0100
0000
0010
0010
0010
0000
,
1000
0100
0001
0000
0001
0010
1000
0000
,
1000
0100
0010
0001
0100
0010
1000
0000
,
0001
0000
0010
0100
1000
0010
0100
0000
,
2010
3001
0012
1003
,
0001
0000
0100
0010
1000
0100
0001
0000
,
2100
3001
0102
1003
,
0001
0001
0100
0000
1000
1000
0100
0000
,
0001
0010
0100
1000
0010
0100
0001
0000
,
1000
1000
1000
1000
0001
0001
0001
0001
,
0100
0010
0100
0010
0100
0010
0100
0010
,
0100
0000
0001
1000
0001
1000
0001
0000
,
0200
0000
0000
0300
0200
0000
0000
0000
0300
0000
0000
0000
0000
0000
0000
0000
;

//---------------dance-double - ----------------
#NOTES:
     dance-double:
     :
     Easy:
     3:
     0.160,0.188,0.000,0.000,0.000:
00000000
00000000
00000000
00000000
,
00000000
00000000
00000000
00000000
,
00000000
00000000
00000000
00000000
,
00000000
00000000
00000000
00000000
,
00000000
00010000
00000000
00010000
,
00000000
00001000
00000000
00001000
,
00000000
00001000
00000000
00000010
,
00000000
00010000
00000000
00100000
,
00000000
00010000
00000000
00001000
,
00000000
00000010
00000000
00000100
,
00000000
00000001
00000000
00000000
,
00000010
00001000
00010000
00100000
,
00000000
01000000
00000000
01000000
,
00000000
10000000
00000000
10000000
,
00000000
00010000
00000000
00001000
,
00000000
00000100
00000000
00000100
,
00000000
00000001
00000000
00000001
,
00000000
00001000
00000000
00010000
,
00000000
01000000
00000000
00100000
,
00000000
01000000
00000000
00100000
,
10000000
00100000
00010000
00001000
,
00000100
00000001
00000010
00001000
,
00000000
00001000
00000000
00000010
,
00000100
00000001
00000010
00000100
,
00000000
00000001
00000000
00000100
,
00000010
00001000
00000010
00000100
,
00000000
00000001
00000100
00001000
,
00000000
00001000
00000010
00000001
,
00000000
00000000
00000001
00000100
,
00001000
00010000
00100000
10000000
,
00000000
00010000
00000000
00100000
,
01000000
10000000
00100000
01000000
,
00000000
10000000
00000000
01000000
,
00100000
00010000
00100000
01000000
,
00000000
00010000
01000000
10000000
,
00000000
10000000
00100000
00010000
,
00100000
10000000
01000000
00010000
,
00001000
00000010
00000001
00000100
,
00000000
00000001
00000000
00001000
,
00000000
00010000
00000000
10000000
;

//---------------dance-double - ----------------
#NOTES:
     dance-double:
     :
     Medium:
     4:
     0.260,0.305,0.106,0.000,0.000:
00000000
00000000
00000000
00000000
,
00000000
00000000
00000000
00000000
,
00000000
00000000
00000000
00000000
,
00000000
00000000
00000000
00000000
,
00011000
00000010
00000001
00000100
,
00001000
00010000
00100000
10000000
,
01000000
00010000
00001000
00000010
,
00000001
00000100
00001000
00010000
,
00100000
10000000
01000000
00010000
,
00001000
00000010
00000001
00000100
,
00001000
00010000
00100000
10000000
,
10000000
00010000
00010000
00000000
00010000
00001000
00001000
00000000
,
00011000
00000100
00000001
00001000
,
00010000
10000000
01000000
00010000
,
00001000
00000100
00000001
00001000
,
00010000
10000000
01000000
00010000
,
00001000
00010000
00100000
00000000
10000000
00000000
00010000
00000000
,
00001000
00000001
00000010
00001000
,
10000000
00100000
10000000
00010000
,
00001000
00000001
00000010
00001000
,
00000010
00000000
00000001
00000000
00000100
00001000
00010000
00000000
,
00010000
01000000
00001000
00000000
00001000
00000010
00010000
00000000
,
00011000
00000100
00001000
00000001
,
00000010
00000000
00000100
00000000
00001000
00000010
00000100
00000000
,
00000000
00000001
00000000
00000010
,
00000100
00000000
00000010
00000000
00001000
00000100
00000010
00000000
,
00001010
00011000
10000000
01000000
,
00000000
00010000
00100000
10000000
,
01000000
00010000
00001000
00000010
,
00000001
00000100
00001000
00010000
,
00011000
01000000
00010000
10000000
,
00100000
00000000
01000000
00000000
10000000
00100000
01000000
00000000
,
00000000
10000000
00000000
00100000
,
01000000
00000000
00100000
00000000
00010000
01000000
00100000
00000000
,
00110000
00011000
00000000
00000100
,
00000000
00000001
00000000
00001000
,
00000100
00000001
00000100
00000000
00001000
00000000
00000100
00000000
,
00000001
00000000
00000010
00000000
00001000
00000000
00010000
00001000
,
00011000
01000000
00000000
10000000
,
00000000
00100000
00000000
00010000
;

//---------------dance-double - ----------------
#NOTES:
     dance-double:
     :
     Hard:
     6:
     0.263,0.323,0.284,0.000,0.000:
00000000
00000000
00000000
00000000
,
00000000
00000000
00000000
00000000
,
00000000
00000000
00000000
00000000
,
00000000
00000000
00000000
00000000
,
00010000
00000000
00010000
00000000
00100000
00001000
00000000
00000000
,
00010000
00000000
00010000
00000000
00000010
00001000
00000000
00000000
,
00000001
00000000
00000001
00000000
00000010
00000100
00000000
00000000
,
00010000
00000000
00010000
00000000
00001000
01000000
00000000
00000000
,
00100000
00000000
00100000
00000000
10000000
01000000
00000000
00000000
,
00100000
00000000
00100000
00000000
00001000
00010000
00000000
00000000
,
00000010
00000000
00000000
00000100
00000000
00000000
00000000
00000000
,
00000001
00001000
00000100
00010000
,
00101000
00000000
00000000
00000000
10000000
00100000
10000000
00000000
,
01000000
00100000
01000000
00000000
10000000
00010000
10000000
00000000
,
01000000
00000000
00000000
00000000
00001000
00010000
00001000
00000000
,
00000110
00001001
00011000
10010000
,
01100000
00000000
00000000
00000000
10000000
00100000
10000000
00000000
,
00010000
01000000
00001000
00010000
,
00000100
00000010
00000100
00000000
00001000
00000010
00001000
00000000
,
00000100
00001000
00000100
00000000
00010000
00001000
00010000
00000000
,
00000000
10010000
00000000
00011000
,
00000000
00000000
00001001
00000000
00000000
00010100
00000000
00101000
,
00000000
11000000
00000000
00000000
,
00000000
00100000
00000000
00001000
00010000
00000100
00000010
00000000
,
00000000
00000000
00001001
00000000
00000100
00010000
00001000
00000000
,
00000000
00100000
00000000
01000000
00000000
10000000
00100000
01000000
,
00010000
00011000
00000000
00000010
,
00000000
00001000
00000000
00000100
00000000
00010000
00010000
00000000
,
00000000
00101000
00000000
10010000
,
00000000
01001000
00000000
00010010
,
00000000
00001001
00000000
00000000
,
00000000
00000010
00000000
00010000
00001000
01000000
00100000
00000000
,
00000000
00000000
10010000
00000000
00100000
00001000
01000000
00000000
,
00000000
00010000
00000000
00100000
00000000
00001000
00010000
00000100
,
00000010
00001001
00000000
00011000
,
00000000
00100000
00010000
01000000
,
00001000
00000000
00010000
00000000
00000100
00000100
00000100
00000000
,
00000010
00000000
00000001
00000000
00001000
00001000
00001000
00000000
,
00011000
00000000
00000000
00000000
,
10010000
00000000
00000000
00000000
;

//---------------dance-couple - ----------------
#NOTES:
     dance-couple:
     :
     Easy:
     1:
     0.216,0.258,0.567,0.000,0.000:
00000000
00000000
00000000
00000000
,
00000000
00000000
00000000
00000000
,
00000000
00000000
00000000
00000000
,
00000000
00000000
00000000
00000000
,
00000000
00000000
00000000
00100010
,
00000000
00000000
00000000
00010001
,
00000000
00000000
00000000
01000100
,
00000000
00000000
00000000
00010001
,
00000000
00000000
00000000
00100010
,
00000000
00000000
00000000
10001000
,
00000000
00000000
00000000
01000100
,
00000000
00000000
00000000
10001000
,
00000000
00100010
00000000
00100010
,
00000000
00010001
00000000
00010001
,
00000000
01000100
00000000
01000100
,
00000000
00100010
00000000
00100010
,
00000000
10001000
00000000
10001000
,
00000000
01000100
00000000
01000100
,
00000000
00010001
00000000
10001000
,
00000000
00010001
00000000
10001000
,
00000000
00000000
00000000
00000000
,
00000000
00000000
00000000
00000000
,
00000000
00011000
00000000
00101000
,
01000000
00101000
01000000
00101000
,
00000000
00011000
00000000
00010100
,
00000010
00010100
00000010
00010100
,
00000000
00010000
00000000
10000000
,
00000000
00011000
00000000
10000001
,
00100000
00011000
01000000
10000001
,
00000010
00001000
00000100
00000001
,
00000000
00011000
00000000
00101000
,
01000000
00101000
01000000
00101000
,
00000000
00011000
00000000
00010100
,
00000010
00010100
00000010
00010100
,
00000000
00010000
00000000
10000000
,
00000000
00011000
00000000
10000001
,
00100000
00011000
01000000
10000001
,
00000010
00001000
00000100
00000001
,
00010000
00000001
10000000
00001000
,
00100000
00000010
01000000
00000100
;

//---------------dance-couple - ----------------
#NOTES:
     dance-couple:
     :
     Medium:
     2:
     0.378,0.423,1.000,0.000,0.000:
00000000
00000000
00000000
00000000
,
00000000
00000000
00000000
00000000
,
00000000
00000000
00000000
00000000
,
00000000
00000000
00000000
00000000
,
00100010
00010001
01000100
10001000
,
00100010
00010001
01000100
10001000
,
01000100
00010001
00100010
10001000
,
01000100
00010001
00100010
10001000
,
00100010
00010001
01000100
10001000
,
01000100
00010001
00100010
10001000
,
00000010
00000100
00000001
00001000
,
00100000
01000000
00010000
10000000
,
00010001
01000100
10001000
00100010
,
10001000
01000100
10001000
00100010
,
00010001
01000100
00010001
00100010
,
10001000
01000100
00010001
00100010
,
10001000
01000100
00010001
01000100
,
10001000
01000100
10001000
01000100
,
00010001
01000100
00010001
01000100
,
00010001
00100010
10001000
01000100
,
00001000
00000100
00000001
00000010
,
10000000
01000000
00010000
00100000
,
00000000
00010001
00000000
00100010
,
01000100
10001000
00100010
01000100
,
00000000
10001000
00000000
01000100
,
00100010
00010001
00100010
01000100
,
00000000
00010001
01000100
10001000
,
00000000
00000000
00000100
00001000
,
00000010
00000001
01000100
10001000
,
00100000
00010000
01000000
10000000
,
00000000
00010001
00000000
00100010
,
01000100
10001000
00100010
01000100
,
00000000
10001000
00000000
01000100
,
00100010
00010001
00100010
01000100
,
00000000
00010001
01000100
10001000
,
00000010
00000001
00000100
00001000
,
00100010
00011000
01000100
10000001
,
00100000
10000000
01000000
00010000
,
00000001
00010000
00000010
10000000
,
00001000
00100000
00000100
01000000
;

//---------------dance-couple - ----------------
#NOTES:
     dance-couple:
     :
     Hard:
     5:
     0.584,0.752,1.000,0.000,0.000:
00000000
00000000
00000000
00000000
,
00000000
00000000
00000000
00000000
,
00000000
00000000
00000000
00000000
,
00000000
00000000
00000000
00000000
,
10011001
00000000
00100010
00000000
00010001
01000100
10001000
00000000
,
00100010
00000000
00010001
00000000
01000100
10001000
00100010
00000000
,
00010001
00000000
01000100
00000000
10001000
00100010
00010001
00000000
,
01000100
00000000
10001000
00000000
00100010
00010001
01000100
00000000
,
10001000
00000000
00100010
00000000
00010001
01000100
10001000
00000000
,
00100010
00000000
00010001
00000000
01000100
10001000
00100010
00000000
,
00010001
00000000
01000100
00000000
10001000
00100010
00010001
00000000
,
00100010
00100000
01000100
00000100
10001000
10000000
00010001
00000001
,
10011001
00000000
00010001
00000000
01000100
00010001
01000100
00000000
,
10001000
00000000
00100010
00000000
00010001
00100010
00010001
00000000
,
01000100
00000000
10001000
00000000
00100010
10001000
00100010
00000000
,
00010001
00000000
01000100
00000000
10001000
01000100
10001000
00000000
,
01000100
00100010
01000100
00000000
00010001
01000100
00010001
00000000
,
00100010
00000000
10001000
00000000
01000100
10001000
01000100
00000000
,
00010001
00000000
00100010
00000000
10001000
00100010
10001000
00000000
,
01000100
00000000
00010001
00000000
00100010
00010001
00100010
00000000
,
01000100
00000000
00100010
00000000
10001000
00010001
00100010
01000100
,
00100000
00010000
01000000
10000000
00000010
00000001
00000100
00001000
,
10011001
00010001
00000100
00101000
,
11000100
00000000
00011000
00000000
00100100
00000001
01000100
00000000
,
00000000
10001000
01000000
00010100
,
01000011
00000000
00011000
00000000
01000010
10000100
01000010
00000000
,
00000110
01100000
00010001
10001000
,
01000100
00010001
10001000
00010001
,
01000100
10001000
01000100
00010001
,
00100010
10000000
01001000
00000100
00100010
00010000
01000001
00000100
,
10011001
00000000
10001000
00000000
01000100
00001000
00010010
00000000
,
00000101
00000000
00001000
00000000
00100010
00100000
01000100
00000000
,
00000000
00000000
10000001
00011000
00100100
00010000
01001000
00000000
,
10100000
00000000
00010000
00000000
00100010
01000010
00100100
00000000
,
00001001
01100000
00000000
00010001
,
00000000
01000100
00000000
10001000
,
00100010
01000100
00010001
00000000
01000100
00100010
10001000
00000000
,
00100010
00010001
01000100
10001000
00100010
00010001
01000100
10001000
,
10011001
01000100
00000000
10000001
,
00000000
00100010
00000000
00011000
;

//---------------dance-couple - ----------------
#NOTES:
     dance-couple:
     :
     Challenge:
     4:
     0.497,0.752,1.000,0.000,0.000:
00000000
00000000
00000000
00000000
,
00000000
00000000
00000000
00000000
,
00000000
00000000
00000000
00000000
,
00000000
00000000
00000000
00000000
,
00001001
00000000
10000010
00000000
00000001
00000100
10001000
00000000
,
00000010
00000000
10000001
00000000
00000100
00001000
10000010
00000000
,
00000001
00000000
10000100
00000000
00001000
00000010
10000001
00000000
,
00000100
00000000
10001000
00000000
00000010
00000001
10000100
00000000
,
10010000
00000000
00100001
00000000
00010000
01000000
10000001
00000000
,
00100000
00000000
00010001
00000000
01000000
10000000
00100001
00000000
,
00010000
00000000
01000001
00000000
10000000
00100000
00010001
00000000
,
01000000
00000000
10000001
00000000
00100000
00010000
01000001
00000000
,
00001001
00000000
10000001
00000000
00000100
00000001
10000100
00000000
,
00001000
00000000
10000010
00000000
00000001
00000010
10000001
00000000
,
00000100
00000000
10001000
00000000
00000010
00001000
10000010
00000000
,
00000001
00000000
10000100
00000000
00001000
00000100
10001000
00000000
,
10010000
00000000
00010001
00000000
01000000
00010000
01000001
00000000
,
10000000
00000000
00100001
00000000
00010000
00100000
00010001
00000000
,
01000000
00000000
10000001
00000000
00100000
10000000
00100001
00000000
,
00010000
00000000
01000001
00000000
10000000
01000000
10000001
00000000
,
01000100
00000000
00100010
00000000
10001000
00010001
00100010
01000100
,
00100010
00010001
01000100
10001000
00100010
00010001
01000100
10001000
,
10011001
01000100
10011001
01000100
,
00010000
01000000
00010000
00000000
00000001
00000100
00000001
00000000
,
10001000
01000100
00010001
01000100
,
10001000
01000100
00010001
01000100
,
00100000
10000000
00010001
01000000
00100000
01000000
00010001
10000000
,
01000000
10000000
00010001
01000000
00100000
10000000
01000001
00000000
,
00000010
00001000
10000001
00000100
00000010
00000100
10000001
00001000
,
00000100
00001000
10000001
00000100
00000010
00001000
10000100
00000000
,
10010000
00000000
10000001
00000000
01000000
10000000
00100001
00000000
,
01010000
10000001
00100000
01000001
,
00001001
00000000
10001000
00000000
00000100
00001000
10000010
00000000
,
00000101
10001000
00000010
10000100
,
00010000
00000000
10000000
00000000
10000000
01000000
10000000
00000000
,
00001000
00000000
00000001
00000000
00000001
00000100
00000001
00000000
,
00100010
01000100
00011000
00000000
01000100
00100010
10000001
00000000
,
00100010
00011000
01000100
10000001
00100010
00011000
01000100
10000001
,
10011001
01000100
00000000
01000000
,
00000000
00000100
00000000
00011000
;

//---------------dance-solo - ----------------
#NOTES:
     dance-solo:
     :
     Easy:
     2:
     0.117,0.163,0.000,0.000,0.000:
000000
000000
000000
000000
,
000000
000000
000000
000000
,
000000
000000
000000
000000
,
000000
000000
000000
000000
,
000100
000000
000000
000000
,
010000
000000
000000
000000
,
001000
000000
000000
000000
,
000100
000000
000000
000000
,
000001
000000
000000
000000
,
100000
000000
000000
000000
,
001000
000000
000000
000000
,
010000
000000
000000
000000
,
000001
000000
000001
000000
,
100000
000000
100000
000000
,
001000
000000
001000
000000
,
000100
000000
000100
000000
,
000001
000000
000001
000000
,
010000
000000
010000
000000
,
000010
000000
100000
000000
,
000001
000000
010000
000000
,
000100
000000
000000
000000
,
000000
000000
000000
000000
,
100000
000000
001000
000000
,
000100
000001
000100
000001
,
010000
000000
001000
000000
,
000100
000001
000100
000001
,
010000
000000
001000
000000
,
000100
000000
000001
000000
,
001000
000010
100000
000100
,
000000
000000
000000
000000
,
001000
000000
000001
000000
,
100000
000100
100000
000100
,
001000
000000
000010
000000
,
100000
000100
100000
000100
,
001000
000000
000010
000000
,
100000
000000
001000
000000
,
000100
000001
010000
000010
,
000000
000000
000000
000000
,
100000
000000
000001
000000
,
001000
000000
000100
000000
;

//---------------dance-solo - ----------------
#NOTES:
     dance-solo:
     :
     Medium:
     4:
     0.198,0.210,0.000,0.000,0.000:
000000
000000
000000
000000
,
000000
000000
000000
000000
,
000000
000000
000000
000000
,
000000
000000
000000
000000
,
000100
000010
100000
001000
,
000100
000001
010000
000010
,
100000
000100
001000
000001
,
000100
001000
010000
000001
,
001000
000100
100000
001000
,
000100
000001
100000
000010
,
000000
010000
000000
000001
,
000100
000100
001000
001000
,
000000
100000
000001
001000
,
000000
000010
100000
000001
,
010000
000010
100000
000001
,
000000
001000
000100
100000
,
000000
001000
000100
000001
,
000000
010000
000100
100000
,
001000
001000
000100
000100
,
000001
001000
000100
100000
,
000010
000000
000000
000000
,
000100
000001
001000
000010
,
000000
000010
000000
100000
,
001000
010000
000001
000100
,
000000
000010
000000
010000
,
000100
100000
001000
010000
,
000000
000001
100000
000100
,
000000
001000
000001
000100
,
001000
001000
010000
010000
,
000001
001000
000100
100000
,
000000
001000
000000
000100
,
000001
010000
001000
100000
,
000000
000001
000000
001000
,
000100
100000
000010
010000
,
000000
000001
001000
000100
,
000000
000001
001000
000100
,
000001
010000
000100
100000
,
000010
000000
001000
001000
,
000100
000000
100000
000000
,
001000
000000
000100
000000
;

//---------------dance-solo - ----------------
#NOTES:
     dance-solo:
     :
     Hard:
     6:
     0.312,0.350,0.154,0.000,0.000:
000000
000000
000000
000000
,
000000
000000
000000
000000
,
000000
000000
000000
000000
,
000000
000000
000000
000000
,
100001
000000
000100
000000
001000
010000
000001
000000
,
001000
000000
010000
000000
100000
000010
010000
000000
,
001000
000000
000100
000000
100000
010000
000100
000000
,
001000
000000
000001
000000
000100
001000
010000
000000
,
000001
000000
001000
000000
000010
000001
000010
000000
,
100000
000000
001000
000000
000100
100000
000100
000000
,
000001
000000
001000
000000
100000
001000
000100
000000
,
000001
000001
100000
000000
000100
000100
001000
000000
,
100001
000000
001000
000000
000010
000001
000010
000000
,
010000
000000
000100
000000
100000
001000
100000
000000
,
000100
000000
000001
000000
001000
000010
001000
000000
,
000001
000000
100000
000000
001000
010000
001000
000000
,
000100
000001
000100
000000
000010
100000
000010
000000
,
001000
000000
010000
000000
001000
000010
100000
000000
,
001000
000000
000100
000000
000001
000010
000001
000000
,
010000
000000
000100
000000
100000
001000
100000
000000
,
000001
000000
001000
000000
000010
100000
001000
000000
,
000100
000001
010000
000010
100000
000100
001000
000000
,
100001
000100
000000
001000
,
110000
000001
001000
000100
,
000000
100000
000000
001000
,
000101
000000
010000
000000
000100
100000
000100
000000
,
100001
000110
010000
000100
,
100000
000001
001000
000100
,
100000
000010
000100
001000
,
010000
000001
001000
000000
000100
100000
000010
000000
,
011000
000000
000001
000000
001000
000100
100000
000000
,
101000
000000
000100
000000
000001
000010
001000
000000
,
010000
000001
100000
000000
000100
001000
010000
000000
,
100010
000000
001000
000000
000100
000001
000100
000000
,
101000
001001
100000
001000
,
000100
000001
010000
000010
,
100000
000100
001000
000000
000001
000100
001000
000000
,
010000
000001
001000
000100
100000
001000
000100
000000
,
100001
000000
001000
000000
,
000010
000000
000100
000000
;

//---------------dance-single - ----------------
#NOTES:
     dance-single:
     :
     Challenge:
     8:
     0.502,0.540,0.189,0.059,0.177: // measure 1
1000
0000
0000
0000
1100
0000
0000
0001
0000
0000
0001
0000
0000
0000
0001
0000
,  // measure 2
1100
0000
0000
0000
0010
0000
0000
0100
0000
0000
0100
0000
0000
0000
0010
0000
,  // measure 3
0101
0000
0000
0000
0010
0000
0000
1000
0000
0000
0100
0000
0000
0001
0000
0000
,  // measure 4
1000
0000
0100
0000
1000
0000
0100
0000
0001
0100
0001
0100
0001
0100
0001
0100
,  // measure 5
1000
0000
0000
0000
1001
0000
0000
0100
0010
0000
0100
0000
0010
0000
0000
0000
,  // measure 6
1000
0000
0000
0000
0110
0000
0000
0001
1000
0000
0001
0000
1000
0000
0000
0000
,  // measure 7
0100
0000
0000
0000
1010
0000
0000
0100
0010
0000
0100
0000
0010
0000
0000
0000
,  // measure 8
0010
0000
0000
0000
0101
0000
0000
0010
0100
0000
0010
0000
0100
0000
0000
0000
,  // measure 9
1000
0100
1000
0100
0001
0100
0001
0000
,  // measure 10
0001
0100
0001
0100
1000
0100
1000
0000
,  // measure 11
1000
0100
0010
0001
0100
0010
1000
0001
,  // measure 12
1000
0000
0010
0100
0010
0000
0100
0001
1000
0000
0100
0000
0010
0000
0001
0000
,  // measure 13
0100
0000
0000
0000
1001
0000
0000
1000
0100
0000
0010
0000
0001
0000
0000
0000
,  // measure 14
0100
0000
0000
0000
1001
0000
0000
0001
0010
0000
0100
0000
1000
0000
0000
0000
,  // measure 15
0001
0000
0000
0000
0110
0000
0000
1000
0010
0000
0100
0000
0001
0000
0000
0000
,  // measure 16
0100
0000
0000
0000
0011
0000
0000
0001
0010
0000
0100
0000
1000
0000
0000
0000
,  // measure 17
0001
0010
0001
0010
1000
0010
1000
0010
,  // measure 18
0001
0010
0001
0010
1000
0010
1000
0010
,  // measure 19
1000
0000
1000
0000
1000
0100
0010
0001
,  // measure 20
0100
0000
0100
0000
0010
1000
0010
0100
,  // measure 21
0001
0001
0001
0001
,  // measure 22
1000
0000
0100
0000
0010
0000
0001
0000
1000
0100
1000
0100
0010
0001
0010
0001
,  // measure 23
0010
0000
1000
0100
0010
0001
0100
0000
,  // measure 24
2010
3100
0012
0103
,  // measure 25
1000
0000
1000
0100
0001
0100
1000
0000
,  // measure 26
2000
0100
0001
0100
3001
0000
0000
0000
,  // measure 27
0001
0100
0001
0100
1000
0100
1000
0000
,  // measure 28
1000
0100
1000
0100
0001
0100
0001
0000
,  // measure 29
1000
0010
0001
0010
1000
0100
0001
0100
,  // measure 30
1000
0000
0100
0000
0010
0000
0001
0000
0100
0010
0100
0000
0010
0100
0010
0000
,  // measure 31
1000
0000
0010
0100
0001
0100
0010
0000
,  // measure 32
1100
0000
0101
0000
0010
0010
1001
0000
,  // measure 33
1000
0100
1000
0100
0001
0100
0001
0100
,  // measure 34
1000
0010
1000
0010
0001
0010
0001
0010
,  // measure 35
1000
0000
1000
0100
0010
0001
0100
0010
,  // measure 36
1000
0001
0100
0010
1000
0010
0100
0001
,  // measure 37
1000
0100
0010
0001
0100
0010
1000
0001
,  // measure 38
0010
0000
0100
0010
0100
0000
0010
0100
1000
0001
1000
0001
0100
0010
0100
0010
,  // measure 39
1000
0000
0100
0010
0001
0100
0010
0000
,  // measure 40
0200
0000
0000
0300
0200
0000
0000
0000
0000
0000
0000
0300
0000
0000
0000
0000
;
