#VERSION:0.83;
#TITLE:Zenith;
#SUBTITLE:;
#ARTIST:Sanxion7;
#TITLETRANSLIT:;
#SUBTITLETRANSLIT:;
#ARTISTTRANSLIT:;
#GENRE:Classical Techno;
#ORIGIN:;
#TAGS:;
#CREDIT:AsheKitteh (convert), SMX team;
#BANNER:ZenithBNR.png;
#BACKGROUND:ZenithBG.png;
#PREVIEWVID:;
#JACKET:ZenithCVR.png;
#CDIMAGE:;
#DISCIMAGE:;
#LYRICSPATH:;
#CDTITLE:;
#MUSIC:Zenith.ogg;
#OFFSET:0.006000;
#SAMPLESTART:25.719999;
#SAMPLELENGTH:12.000000;
#SELECTABLE:YES;
#DISPLAYBPM:75.000000:150.000000;
#BPMS:0.000000=75.000000
,32.000000=150.000000
,132.000000=75.000000
,134.000000=150.000000
,138.000000=75.000000
,140.000000=150.000000
;
#STOPS:;
#DELAYS:;
#WARPS:;
#TIMESIGNATURES:0.000000=4=4
;
#TICKCOUNTS:0.000000=4
;
#COMBOS:0.000000=1
;
#SPEEDS:0.000000=1.000000=0.000000=0
;
#SCROLLS:0.000000=1.000000
;
#FAKES:;
#LABELS:0.000000=Song Start
;
#BGCHANGES:;
#KEYSOUNDS:;
#ATTACKS:
;

//---------------dance-single - ----------------
#NOTEDATA:;
#CHARTNAME:;
#CHARTHASH:2147483647;
#STEPSTYPE:dance-single;
#BANNER:;
#DESCRIPTION:;
#CHARTSTYLE:;
#DIFFICULTY:Hard;
#METER:12;
#METERF:12.000000;
#LASTSECONDHINT:94.393997;
#RADARVALUES:0.388086,0.440670,0.103687,0.124425,0.000000,262.000000,252.000000,10.000000,12.000000,0.000000,0.000000,0.000000,0.000000,0.000000,0.388086,0.440670,0.103687,0.124425,0.000000,262.000000,252.000000,10.000000,12.000000,0.000000,0.000000,0.000000,0.000000,0.000000;
#CREDIT:;
#DISPLAYBPM:75.000000:150.000000;
#NOTES:
0000
0000
0000
0000
,
0000
0000
0000
0000
,
0002
0000
0000
0000
,
2003
0000
0000
0000
,
3020
0000
0230
0000
,
0302
0000
2003
0000
,
3100
0010
0001
0100
,
0001
0001
1000
1000
0010
0100
0010
0010
,
1000
0010
0100
0001
,
0010
0100
1000
0001
,
0100
0000
0001
1000
0100
0000
0010
0000
,
0100
1000
0010
0100
,
0001
0100
0010
0100
0001
1000
0100
0010
,
0001
1000
0100
1000
,
0100
1000
0010
0000
0100
0000
0001
0000
,
0010
0001
0100
0000
0010
0000
1000
0000
,
0001
1000
0100
0010
0001
0100
0010
0000
,
0100
0010
1000
0001
1000
0100
1000
0000
,
0001
0010
0001
0000
0100
0001
0100
0000
,
0010
1000
0010
0000
1000
0001
0100
0100
,
0001
0010
0100
1000
0001
0010
0100
0000
,
1000
0010
0100
0001
1000
0010
0100
0000
,
0001
0100
0001
0000
0010
0001
0010
0000
,
0001
0010
0100
1000
0010
0100
0010
0000
,
1001
0000
0000
0101
0000
0000
0110
0000
,
0000
1100
0000
0000
1000
0100
0010
0000
,
0011
0000
0000
0101
0000
0000
1100
0000
,
0000
1010
0000
0000
1001
0000
0101
0000
,
0010
0001
0100
0010
1000
0100
0001
0100
,
1000
0010
0100
0001
0010
0001
0100
1000
,
0100
0001
0010
0001
0100
0010
1000
0001
,
0010
0100
1000
0010
0100
0001
0010
0001
,
0200
0310
0020
1030
,
1000
1000
1000
1000
0001
0000
0100
0000
,
0001
0000
0010
0000
0001
0001
0001
0001
,
0100
0010
1000
0100
,
1000
0000
0001
0010
0100
0000
1000
0000
,
0010
0100
0001
0000
0010
0001
0100
0000
,
0010
1000
0100
0001
0100
1000
0010
0100
,
0001
0010
0001
0100
1000
0100
0001
0000
,
0010
0100
1000
0000
0001
0100
0001
0000
,
0010
0001
0100
0010
1000
0001
0100
0001
,
1000
0100
1000
0001
0010
0100
1000
0010
,
0100
0001
0010
0001
0100
0010
1000
0100
,
1000
0001
0010
0001
0100
0010
1000
0001
,
0010
0100
1000
0100
0001
0100
1000
0010
,
0200
0000
0000
0000
,
0020
0000
0030
0000
,
0002
0000
0003
0000
,
0020
0000
0000
0000
,
0330
0000
0000
0000
;

//---------------dance-single - ----------------
#NOTEDATA:;
#CHARTNAME:;
#CHARTHASH:2147483647;
#STEPSTYPE:dance-single;
#BANNER:;
#DESCRIPTION:;
#CHARTSTYLE:;
#DIFFICULTY:Challenge;
#METER:16;
#METERF:16.000000;
#LASTSECONDHINT:94.539993;
#RADARVALUES:0.721366,0.907262,0.331799,0.207374,0.720625,487.000000,451.000000,32.000000,20.000000,23.000000,4.000000,0.000000,0.000000,0.000000,0.721366,0.907262,0.331799,0.207374,0.720625,487.000000,451.000000,32.000000,20.000000,23.000000,4.000000,0.000000,0.000000,0.000000;
#CREDIT:;
#OFFSET:-0.140000;
#BPMS:0.000000=75.000000
,32.000000=150.000000
,132.000000=75.000000
,134.000000=150.000000
,138.000000=75.000000
,140.000000=150.000000
;
#STOPS:;
#DELAYS:;
#WARPS:;
#TIMESIGNATURES:0.000000=4=4
;
#TICKCOUNTS:0.000000=4
;
#COMBOS:0.000000=1
;
#SPEEDS:0.000000=1.000000=0.000000=0
;
#SCROLLS:0.000000=1.000000
;
#FAKES:;
#LABELS:0.000000=Song Start
;
#DISPLAYBPM:100.000000;
#NOTES:
// measure 0
0000
0000
0000
0000
,  // measure 1
0000
0000
0000
0000
,  // measure 2
2001
0000
0000
0000
0010
0000
0000
0000
0100
0000
0000
0000
3010
0000
0100
0001
,  // measure 3
0020
0000
0100
0000
1000
0000
0031
0100
,  // measure 4
1001
0000
0001
0000
0010
0010
0001
0010
0010
0000
0100
0000
1000
0000
0010
0100
,  // measure 5
0110
0000
1000
0000
0010
0010
1000
0100
0100
0000
1000
0000
0010
0000
1000
0000
,  // measure 6
1010
0000
0010
0000
0101
0000
0010
0001
0011
0000
0100
0000
1100
0000
0010
0000
,  // measure 7
0110
1000
1100
0001
1001
0110
1010
0101
,  // measure 8
0001
0000
1000
0000
0001
0000
0100
0010
0100
0000
0010
0000
1000
0000
0100
0000
,  // measure 9
1000
0001
0100
0001
0010
0001
0100
0010
,  // measure 10
1000
0000
0100
0000
1000
0010
0000
0100
0010
0000
1000
0010
0000
0100
0010
0000
,  // measure 11
1000
0000
0001
0000
0010
0100
0000
0010
0001
0000
0010
0100
0000
0010
0001
0000
,  // measure 12
1000
0010
0100
0000
0010
0000
1000
0000
0001
0000
0010
0000
0100
0000
1000
0000
,  // measure 13
0001
1000
0001
0100
0001
1000
0100
1000
,  // measure 14
0001
0000
0100
0000
0001
1000
0000
0100
1000
0000
0001
1000
0000
0100
1000
0000
,  // measure 15
0010
0000
0100
0000
0001
0010
0000
0001
0100
0000
0001
0010
0000
0001
1000
0000
,  // measure 16
1001
0010
0001
0100
0010
0100
0001
0010
,  // measure 17
0100
1000
0010
0100
0001
0010
0001
0100
,  // measure 18
1000
0100
0001
1000
0100
1000
0001
0010
,  // measure 19
0001
0100
0010
0100
0001
0010
0001
1000
,  // measure 20
1100
0000
0000
0000
0000
0000
0010
0001
0010
0000
0000
0000
0000
0000
0001
0100
,  // measure 21
0001
0000
0000
0000
0000
0000
0100
0010
0100
0000
0010
0000
1000
0000
0001
0000
,  // measure 22
1000
0100
1000
0001
1000
0100
1000
0010
0100
0001
0010
0100
1000
0010
0100
0001
,  // measure 23
0010
0001
0100
0010
1000
0001
0010
0001
1000
0001
0100
0001
0010
0001
0100
0001
,  // measure 24
1011
0000
0001
0111
0000
0100
1001
0000
,  // measure 25
1000
0000
1100
0000
0000
0000
0001
0000
1000
0100
0010
0001
0100
0010
1000
0000
,  // measure 26
1011
0000
0010
0110
0000
1000
1001
0000
,  // measure 27
0010
0000
0111
0000
0000
0000
0001
0000
0010
0001
0100
0010
1000
0001
0010
0100
,  // measure 28
1000
0100
1000
0100
1000
0100
1000
0100
0010
0001
0010
0001
0010
0001
0010
0001
,  // measure 29
0100
0001
0100
0001
0100
0001
0100
0001
0100
0010
0100
0010
0100
0010
0100
0010
,  // measure 30
1000
0010
0100
0001
0010
0100
1000
0010
0100
0001
0010
0001
0100
0010
1000
0100
,  // measure 31
0001
0100
1000
0010
0100
0001
0100
0001
0100
1000
0100
0001
0010
0001
0100
0010
,  // measure 32
1000
0001
0010
0100
1000
0010
0100
0001
0010
0001
0100
0010
1000
0100
0010
0100
,  // measure 33
1000
0000
0000
1000
0010
0000
0000
0010
0100
0000
0000
0100
0001
0000
0000
0001
0010
0000
0100
0000
1000
0000
0100
0000
0010
0000
0100
0000
0010
0000
0100
0000
,  // measure 34
1000
0000
0010
0000
0100
0000
0001
0000
0010
0000
0001
0000
0100
0000
0001
0000
0010
0000
0000
0010
0001
0000
0000
0001
0100
0000
0000
0100
0010
0000
0000
0010
,  // measure 35
0100
0001
0010
0001
0100
0010
1000
0100
0010
0001
0100
0010
1000
0001
0010
0100
,  // measure 36
2001
00M0
0M00
3001
01M0
1000
01M0
0002
,  // measure 37
0M00
0023
0M00
203M
0000
3M02
0000
02M3
,  // measure 38
0000
000M
1300
00M2
0000
1M03
0010
0M02
,  // measure 39
0000
1M03
0100
M001
0100
0020
0M00
0130
,  // measure 40
0010
1M00
0001
M020
0000
203M
0000
3M20
,  // measure 41
0000
M032
0M00
2003
00M0
3001
0100
1000
,  // measure 42
0100
0001
0010
0001
0100
0001
1000
0010
1000
0100
1000
0001
1000
0010
1000
0001
,  // measure 43
0100
0001
0100
0001
0010
0001
0100
0010
0100
0001
0100
0010
1000
0001
0010
0100
,  // measure 44
1100
0011
0101
1100
0101
1001
1010
0011
,  // measure 45
1000
0001
0010
0100
0000
0010
0100
0001
0010
0001
0100
0010
0000
0001
0010
0100
,  // measure 46
2000
0000
0001
0010
,  // measure 47
0200
0000
0300
0000
,  // measure 48
0002
0000
0003
0000
,  // measure 49
0020
0000
0000
0000
,  // measure 50
3030
0000
0000
0000
;
