#TITLE:Holography;
#SUBTITLE:;
#ARTIST:Garlagan;
#TITLETRANSLIT:;
#SUBTITLETRANSLIT:;
#ARTISTTRANSLIT:;
#GENRE:Electronic;
#CREDIT:AsheKitteh;
#BANNER:HolographyBNR.png;
#BACKGROUND:;
#LYRICSPATH:;
#CDTITLE:;
#MUSIC:Holography.ogg;
#OFFSET:0.003314;
#SAMPLESTART:61.828999;
#SAMPLELENGTH:15.000000;
#SELECTABLE:YES;
#DISPLAYBPM:128.000000;
#BPMS:0.000000=128.000015
,212.750000=256.000275
,214.500000=127.999893
,227.000000=256.000366
,227.250000=256.000488
;
#STOPS:0.000000=2.000000,
157.000000=0.250000,
157.500000=0.500000,
160.250000=0.250000,
160.750000=0.250000,
163.250000=0.250000,
163.750000=0.250000,
166.250000=0.250000,
166.750000=0.250000,
169.250000=0.250000,
175.750000=0.250000,
199.000000=0.250000,
199.500000=0.500000,
202.500000=0.250000,
203.000000=0.250000,
205.500000=0.250000,
209.000000=0.250000,
209.500000=0.250000,
216.750000=0.250000,
217.250000=0.250000,
219.750000=0.250000,
223.000000=0.250000,
223.500000=0.250000
;
#BGCHANGES:0.000=HolographyBG.mp4=1.000=0=0=1=====,
99999=-nosongbg-=1.000=0=0=0 // don't automatically add -songbackground-
;
#KEYSOUNDS:;
#ATTACKS:;

//---------------dance-single - ----------------
#NOTES:
     dance-single:
     :
     Hard:
     9:
     0.295968,0.349242,0.025369,0.321337,0.118387,245.000000,242.000000,3.000000,38.000000,16.000000,0.000000,0.295968,0.349242,0.025369,0.321337,0.118387,245.000000,242.000000,3.000000,38.000000,16.000000,0.000000:
0000
0000
0000
0000
,
0000
0000
0000
0000
,
1000
0100
0010
0001
,
0010
0000
0001
0000
0010
0100
0010
0000
,
1001
1000
0010
0100
,
0001
0000
0010
0000
0001
1000
0001
0000
,
0100
0010
0100
0010
,
1000
0000
0001
0000
0010
0010
0000
0000
,
1000
0000
0001
0100
0001
0000
1000
0100
,
1000
0000
0001
0010
0110
0000
1001
0000
,
1000
0000
0010
0100
0010
0000
1000
0001
,
1000
0000
0010
0100
1000
0000
0200
0000
,
0301
0000
0001
1000
0100
0000
0010
0001
,
0100
0000
0010
1000
0010
0000
0100
0000
,
0001
0000
0010
0100
1000
0000
0010
0100
,
0001
0010
0100
2000
,
3001
0010
0100
0010
,
0100
1000
0002
0000
,
1003
0000
0100
0010
0100
0000
0010
0000
,
0001
1000
0002
0000
,
0103
0000
0010
0000
1000
0001
1000
0000
,
0100
0010
0002
0000
,
1003
0000
0010
0000
0100
0010
0100
0000
,
0001
1000
0100
0020
,
M002
0M00
M000
0M00
,
M000
0M00
M000
0033
,
1000
0000
0100
0000
0010
0001
0010
0000
,
0100
0000
0010
0000
0002
0000
0200
0303
,
0001
0100
0010
1000
,
0100
0000
0010
0000
0002
0000
0000
0003
,
0100
0000
0010
0000
1000
0001
1000
0000
,
0100
0000
0010
0000
0002
0000
0200
0303
,
0010
0000
0100
0000
0001
1000
0001
0000
,
1000
0020
2030
3200
,
0310
0000
0001
0000
1000
0001
1000
0000
,
0010
0100
0002
0023
,
0130
0000
1000
0000
0001
1000
0010
0000
,
0100
0002
2003
3200
,
0310
0000
0001
0000
1000
0010
1000
0000
,
0001
0000
0000
0000
2000
0000
0001
0000
3000
0100
0000
0000
0000
0010
0000
0000
,
0000
0200
0000
0301
0000
0100
0000
0000
0000
0010
0000
0000
0000
2000
0000
3001
,
0000
0100
0000
0010
0000
0100
0000
0000
0000
0002
0000
1003
0000
0001
0000
0000
,
0000
0100
0000
0000
0000
0020
0000
1000
0030
0000
0001
0000
0000
0000
0010
0000
,
0000
0000
0100
0000
1000
0000
0100
0000
0000
0000
1000
0000
0000
0000
0002
0003
,
0000
2000
3001
0010
,
0100
1000
0100
0000
0010
0000
0001
0000
,
2000
0000
0000
0000
0020
0000
0000
3030
0100
0000
0000
0000
0001
0000
0000
0000
,
0010
0100
0010
0000
0001
0000
2000
0000
,
3002
0000
0000
0000
0023
0000
0000
0030
0100
0000
0000
0000
1000
0000
0000
0000
,
0001
1000
0001
0000
1000
0000
0001
1000
,
0000
0001
0000
0010
0000
0100
1000
0001
,
0000
0100
0000
0010
0000
0000
1000
0000
,
0100
0000
0001
0100
1000
0000
0001
0000
,
2000
0000
0000
0002
0000
0000
0000
0000
0000
3003
0000
1000
0000
0000
0000
0100
,
0000
0000
0000
0020
0000
0031
0000
0000
0000
0000
0000
0100
0000
0000
0000
0010
,
0000
0000
1000
0000
0100
0000
0020
0031
,
1000
0100
2000
0002
,
0M00
00M0
0M00
00M0
,
0M00
00M0
0M00
00M0
,
3M03
0000
0000
0000
;

//---------------dance-single - ----------------
#NOTES:
     dance-single:
     :
     Challenge:
     14:
     0.611265,0.680727,0.321337,0.583480,0.790658,506.000000,468.000000,38.000000,69.000000,24.000000,1.000000,0.611265,0.680727,0.321337,0.583480,0.790658,506.000000,468.000000,38.000000,69.000000,24.000000,1.000000:
// measure 0
0000
0000
0000
0000
,  // measure 1
0000
0000
0000
0000
,  // measure 2
1000
0000
0000
0100
0000
0010
0001
0000
0100
0000
0000
0010
0000
1000
0001
0000
,  // measure 3
0100
0000
0000
0010
0000
1000
0010
0000
0110
0000
0110
0000
2002
0000
3003
0000
,  // measure 4
1000
0000
0000
0010
0000
0100
0001
0000
1000
0000
0000
0001
0000
0100
0001
0000
,  // measure 5
0100
0000
0000
0010
0000
1000
0001
0000
0110
0000
0000
0000
1001
0000
0000
0000
,  // measure 6
1000
0000
0000
0010
0000
0100
0010
0000
1000
0000
0000
0001
0000
0010
1000
0000
,  // measure 7
0010
0000
0000
0001
0000
0100
0010
0000
0110
0000
0110
0000
2002
0000
0000
3003
,  // measure 8
1000
0100
0010
0001
0010
0000
0100
0000
1000
0010
0100
0001
0100
0000
0001
0000
,  // measure 9
1000
0010
1000
0100
1000
0010
1000
0000
0011
0000
1001
0000
2200
0000
0000
3300
,  // measure 10
0010
0100
1000
0100
0010
0000
0001
0000
0010
0001
0010
0100
0010
0000
1001
0000
,  // measure 11
1000
0100
0010
0001
0010
0000
0001
0000
2100
0000
0000
0000
3001
0100
0010
1000
,  // measure 12
0100
0000
0000
1000
0000
0010
0100
0000
1001
0000
0000
0100
0000
0010
1000
0000
,  // measure 13
0011
0000
0000
0001
0000
0100
0010
0000
1000
0000
0001
0000
1000
0000
0001
0000
,  // measure 14
0110
0000
0000
1000
0000
0100
0010
0000
0001
0000
0000
0100
0000
0010
1000
0000
,  // measure 15
1010
0000
0000
0100
0000
0001
0010
0000
0210
0000
0000
0000
1300
0100
0010
0001
,  // measure 16
0010
0000
0001
0000
0100
0000
0010
0000
0100
0000
0001
0010
0000
0000
0000
0000
,  // measure 17
0001
0010
0100
0010
0200
0000
1300
0000
,  // measure 18
1000
0100
0010
0000
0001
0000
0100
0000
0010
0000
1000
0001
0000
0000
0000
0000
,  // measure 19
0001
0000
0100
0000
0001
0000
0010
0100
2000
0000
0000
0000
3001
0000
0000
0000
,  // measure 20
0110
0000
1000
0000
0100
0000
0010
0000
0100
0000
1000
0001
0000
0000
0100
0000
,  // measure 21
0001
0100
0010
1000
2001
0000
3100
0000
,  // measure 22
1000
0000
0100
0000
0010
0100
0010
0100
0010
0000
0001
0100
0000
0000
0001
0000
,  // measure 23
1000
0000
0100
0000
0010
0000
0001
0000
0022
0000
0000
0003
2000
0000
3030
0000
,  // measure 24
2M02
00M0
0M00
00M0
0M00
00M0
0M00
00M0
,  // measure 25
0M00
00M0
0M00
00M0
0M00
00M0
0M00
3003
,  // measure 26
1000
0100
0010
0001
0100
0010
1000
0000
0001
0000
0010
0100
0000
0000
0000
0000
,  // measure 27
1000
0000
0100
0000
0001
0100
1000
0001
2100
0000
0000
0000
3001
0000
0000
0000
,  // measure 28
1000
0010
0100
0001
0000
0001
0100
0010
1000
0100
0010
0001
0000
0000
0000
0000
,  // measure 29
0001
0010
0100
1000
0100
0010
0001
0000
0021
0000
0000
0000
1030
0000
0000
0000
,  // measure 30
1000
0001
0010
0100
0010
0001
1000
0100
0010
0100
1000
0001
0000
0000
0000
0000
,  // measure 31
1000
0100
0010
1000
0001
0100
0010
1000
2200
0000
0000
0000
0011
0000
0000
3300
,  // measure 32
1000
0000
0100
0000
0001
0100
0001
0100
1000
0000
0001
0100
0000
0000
0000
0000
,  // measure 33
0001
0000
0010
0100
2000
0000
0000
0000
3002
0000
0100
0003
0020
0000
0000
0000
,  // measure 34
1030
0000
0001
0000
0100
0010
0100
0010
1000
0000
0100
0010
0000
0000
0001
0000
,  // measure 35
1000
0001
0100
0010
2100
0000
0010
3000
,  // measure 36
1000
0000
0001
0000
0100
0001
0100
0001
0100
0000
0010
1000
0000
0000
0001
0000
,  // measure 37
2000
0100
3002
0100
1003
0100
2002
3003
,  // measure 38
0100
0000
0010
0000
1000
0001
1000
0001
1000
0000
0001
0010
0000
0000
1000
0000
,  // measure 39
0010
0000
0000
0000
0202
0300
2000
3003
0000
1000
0100
0010
0001
0010
0001
0010
,  // measure 40
0000
0002
0000
2000
3003
0001
0010
0100
1000
0100
1000
0100
0000
2200
0300
0002
,  // measure 41
3003
1000
0010
0100
0001
0010
0001
0100
0010
0200
0000
0002
0303
1000
0010
0100
,  // measure 42
0001
0100
0010
1000
0000
0002
0000
2000
0000
3003
0100
0000
0010
0000
0001
0010
,  // measure 43
0001
0010
0001
0000
1000
0100
0000
0000
0001
0000
0100
0000
0010
0000
2000
0000
,  // measure 44
0000
0000
0000
0000
0002
0000
0000
3003
0100
0010
1000
0100
1000
0100
0010
0001
,  // measure 45
0010
0000
0001
0100
0000
0000
0000
0000
0001
0000
0100
0000
1000
0000
0100
0000
,  // measure 46
0012
0000
0000
0000
2000
0000
0000
3003
1000
0100
0010
0100
0010
0001
0010
0001
,  // measure 47
0010
0000
0001
1000
0000
0000
0001
1000
0100
0000
0010
0000
2002
0000
0000
3000
,  // measure 48
0200
0000
0000
0303
2020
0000
0000
3030
0001
0000
0100
0000
0010
1000
0010
0100
,  // measure 49
0001
0000
0100
0010
0000
0000
1000
0000
0100
0000
0010
0000
0202
0303
2020
0000
,  // measure 50
3030
0000
0100
0010
0100
0000
1000
0000
0001
0000
2200
0300
0002
3003
0100
0010
,  // measure 51
1000
0100
1000
0100
0010
0000
0002
0000
0000
0003
0000
0000
1000
0100
0010
0001
,  // measure 52
0010
0001
1000
0000
0002
0000
2000
3003
0001
0100
0010
1000
0010
1000
0001
2100
,  // measure 53
0000
0000
0000
0002
0000
0000
0000
0000
0000
3003
0000
1000
0000
0100
0000
0010
,  // measure 54
0001
0010
0000
0022
0003
2000
3030
0001
0010
0100
1000
0100
0010
0001
0000
2000
,  // measure 55
0000
0000
3000
0000
0001
0000
0100
0000
0010
1000
0010
1000
0002
0000
2000
0003
,  // measure 56
3010
0100
0001
1000
0001
1000
0100
0000
0020
0000
0000
0000
0002
0000
0000
0M00
,  // measure 57
M000
0M00
M000
0M00
M000
0M00
M000
0M00
0033
0000
0000
0000
0000
0000
0000
0000
;
