#TITLE:WHERE IS MY HUSBAND!;
#SUBTITLE:;
#ARTIST:RAYE;
#TITLETRANSLIT:;
#SUBTITLETRANSLIT:;
#ARTISTTRANSLIT:;
#GENRE:;
#CREDIT:Evergreen;
#MUSIC:WHERE IS MY HUSBAND - Edit.ogg;
#BANNER:WHERE IS MY HUSBAND.png;
#BACKGROUND:;
#CDTITLE:;
#SAMPLESTART:0.000;
#SAMPLELENGTH:0.000;
#SELECTABLE:YES;
#OFFSET:-0.028;
#BPMS:0.000=116.000000;
#STOPS:;
#BGCHANGES:;
#FGCHANGES:;

//--------------- dance-single - XO HS JU ----------------
#NOTES:
     dance-single:
     XO HS JU:
     Hard:
     10:
     0,0,0,0,0:
0000
0000
0000
0000
,
0000
0000
0000
0000
,
0000
0000
0000
0000
,
0000
0000
0000
1000
,
2002
0000
0000
0000
3003
0000
0000
0000
0001
0000
0010
0100
0000
1000
0010
0000
,
2010
0000
0002
0000
3003
0000
0000
0000
0001
1000
0000
0100
0000
0010
0001
0010
,
0012
0000
1000
0000
0003
1000
0010
0000
0200
0000
0000
0000
0302
0000
0000
0000
,
1003
0100
0010
0001
1000
0010
0100
0001
0000
0000
1000
0100
1000
0001
0100
0001
,
0010
0000
0100
0000
0000
1000
0000
0000
0001
0000
0100
0000
0010
0000
1000
0000
,
0001
0010
0100
1000
0010
0100
0001
1000
0001
0100
1000
0000
0200
0000
0301
1000
,
0100
0010
0001
0010
0000
0010
0001
0100
0020
0000
1030
0000
0001
0100
0010
1000
,
0001
0010
0001
0010
0100
1000
0100
1000
0010
0100
0001
1000
0000
1001
0000
0001
,
0010
0100
1000
0010
0200
0000
0001
0010
0000
0000
1000
0310
0200
0000
0301
0000
,
1000
0000
0100
0010
0001
0100
0010
0000
1000
0010
1000
0010
0100
0001
0100
0010
,
0000
1000
0100
0001
0000
0100
1000
0001
0200
0000
0320
0000
1030
0000
0100
0010
,
0002
0000
2003
0000
3020
0000
0100
0001
0000
0000
0130
1000
0010
0100
0001
1000
,
0100
0010
0100
1000
0020
0000
0130
0001
1000
0100
0010
0001
2000
0000
3002
0000
,
0013
0000
0100
0000
1000
0000
0010
1000
0000
0010
1000
0000
1010
0000
0010
0000
,
0100
0000
0001
0000
0010
0000
0001
0010
0000
0001
0010
0000
0011
0000
0001
0000
,
0010
0000
1000
0001
0100
0000
1000
0001
0010
0000
0100
1000
0001
0000
0100
0010
,
0200
0000
0001
0010
0000
0000
1000
0010
0000
0000
0001
0310
0200
0000
2300
0000
,
3100
0000
0010
0000
0001
0000
0100
0001
0000
0100
0001
0000
0101
0000
0100
0000
,
0010
0000
1000
0000
0100
0000
1000
0100
0000
1000
0100
0000
1100
0000
1000
0000
,
0001
0000
0100
0010
0000
1000
0100
0000
0001
0100
0000
1000
0010
0000
0001
0010
,
0000
1000
0001
0000
0010
0200
0000
1300
0010
0000
0100
0001
0010
0000
0100
0000
,
1001
0000
0001
0000
0100
0001
0010
0100
0000
1000
0010
0100
0001
1000
0001
0000
,
1000
0000
0001
0000
0010
0001
0100
0010
0000
1000
0100
1000
0100
1000
0010
0000
,
0100
0000
0001
0000
0100
0001
0010
0100
0000
1000
0010
0000
1000
0001
0000
0000
,
0020
0000
0100
1000
0000
0000
0100
0031
0010
0000
0100
0000
0100
1000
0000
0001
,
0010
0100
1000
0000
0100
1000
0010
0000
0100
0001
0000
0010
0000
1000
0010
0000
,
0001
0000
1000
0000
0010
1000
0100
0000
0010
0001
0000
0100
0000
1000
0100
0001
,
0010
0000
0100
0000
1000
0010
0100
0000
0001
0000
0010
0100
2000
0000
0000
0000
,
3001
0100
0010
1000
0001
0010
0100
1000
0000
0000
0001
0100
0001
1000
0100
1000
,
0010
0000
0100
0000
0000
0001
0000
0000
1000
0000
0100
0000
0010
0001
0010
0000
,
0011
0000
0000
0001
1000
0010
0100
0000
0110
0000
0000
0000
0101
0000
0001
0000
,
1001
0000
1000
0000
0100
0010
0100
0000
1000
0000
0010
0100
0010
0000
1000
0000
,
0001
0000
0100
0010
1000
0100
0002
0000
0203
0000
1300
0010
0002
0000
0013
1000
,
0001
0010
0100
1000
0020
0000
0100
0001
0000
0000
0100
1030
0010
0100
0010
0100
,
0001
0000
0001
0000
1000
0100
0000
0010
0000
0001
0100
0001
1000
0000
0001
0000
,
1000
0000
1000
0000
0001
0100
0000
0010
0000
1000
0100
1000
0001
0010
0100
1000
,
0001
0000
0000
0000
0000
0000
0000
0000
0000
0000
0000
0000
1000
0100
0001
0100
,
0020
0000
0031
1000
0001
0100
1000
0100
0020
0000
0130
0001
0010
0100
1000
0100
,
0002
0000
0103
1000
0010
0100
0001
1000
0100
0010
0100
0010
0001
0010
0001
0100
,
2000
0000
3100
0010
1000
0010
1000
0010
0100
0001
0010
0100
1000
0010
0100
0000
,
0000
0000
0001
0010
0100
1000
0010
0100
0001
1000
0100
0001
0100
1000
0010
0100
,
2000
0000
3000
0100
0001
0000
0010
0000
0100
1000
0010
0100
0010
0100
0001
1000
,
0000
0001
0010
0100
1000
0100
1000
0100
1000
0010
1000
0010
0100
0000
0001
0000
,
1000
0000
0100
0010
0000
0001
0100
0000
1000
0100
0000
0001
0010
0000
1000
0010
,
0000
0001
1000
0000
0010
0200
0000
0301
0010
0000
0100
1000
0010
0000
0100
0001
,
0020
0000
0100
1000
0000
0000
0100
0001
0000
0000
0100
1030
0010
0000
0100
0001
,
0200
0000
0010
1000
0000
0000
0010
0001
0000
0000
0010
1300
0001
0010
1000
0010
,
0200
0000
1300
0001
1000
0010
0001
0010
0200
0000
0310
1000
0100
0010
0001
0010
,
2000
0000
3010
0001
0100
0010
1000
0001
0010
0100
0010
0100
1000
0100
1000
0010
,
0002
0000
0013
0000
1010
0000
1000
0100
0010
0000
0011
0000
0001
0100
0010
0000
,
1010
0000
1000
0100
0010
0000
0011
0000
0001
0100
0010
0000
1001
0000
0001
0000
,
0100
0010
0100
0010
0100
0000
0001
0010
0001
0010
0100
1000
0100
1000
0010
0100
,
0010
0000
0100
0001
1000
0000
0100
1000
0001
0000
0100
0001
1000
0000
0100
0010
,
0001
0100
0010
1000
0001
0000
0000
0000
1001
0000
0000
0000
0000
0000
0000
0000
;

//--------------- dance-single - bXF HS SS- DS- BU- ----------------
#NOTES:
     dance-single:
     bXF HS SS- DS- BU-:
     Challenge:
     11:
     0,0,0,0,0:
0000
0000
0000
0000
,
0000
0000
0000
0000
,
0000
0000
0000
0000
,
0000
0000
0000
0000
0000
0000
0000
0000
0000
0000
0000
0000
1000
0001
0000
1000
,
0101
2000
0000
0000
0000
0000
0000
0000
3010
0000
0100
0001
0000
1000
0100
0000
,
1010
0000
0002
0000
0000
0000
0000
0000
0013
0000
0100
1000
0000
0010
0100
0001
,
1100
0000
0002
0000
0000
0103
0010
0000
2000
0000
0000
0000
3002
0000
0000
0000
,
1013
0001
0100
0100
1000
0100
0100
0001
0000
0000
0100
0100
1000
0010
0010
0001
,
1000
0000
0200
0000
0000
1000
0000
0000
0320
0000
0130
0000
1000
0000
0010
0000
,
1100
0010
0010
0001
1000
0100
0010
0001
1000
0001
0200
0000
2300
0000
3100
0001
,
1000
0100
0100
0001
0000
0100
0010
1000
0001
0000
2000
0000
3010
0100
0001
1000
,
0011
0100
0100
1000
0001
0010
0100
0010
0001
0100
0010
0001
M000
0001
0100
0001
,
1000
0100
0100
0001
2010
0100
0010
0001
0100
0010
0100
0001
3010
0100
1000
0001
,
1010
0000
0100
0100
0001
1000
0010
M000
0010
0001
0100
0100
1000
0010
0010
0001
,
0000
1000
0010
0100
000M
0100
0010
0100
0002
0000
0103
0000
1000
0000
0001
1000
,
0101
0010
0010
1000
0002
0000
0000
0013
0100
1000
0010
0010
0001
0010
0100
0100
,
0010
0100
0001
1000
0102
0010
0100
1000
0010
0100
0010
1000
0103
0010
0001
1000
,
0011
0000
0100
0001
1000
0000
0100
0010
0001
1000
0001
0000
1010
0000
0001
0000
,
1100
0000
0010
0100
0001
0000
1000
0000
0100
0010
0001
1000
0010
0000
0100
0000
,
0011
0000
0100
0001
1000
0000
0001
0010
1000
0000
0001
0100
1000
0000
0001
0000
,
1000
0010
0100
0001
1000
0000
0010
0100
0000
0001
1000
0000
0100
M000
0100
0001
,
1010
0100
0100
0001
1000
0000
0010
0000
0001
0010
0100
0010
1000
0000
0100
1000
,
0011
0100
0100
1000
0001
0000
0010
0000
1000
0010
0100
0010
0001
0000
0100
0001
,
1010
0000
0001
1000
0000
0010
0100
0000
0001
0010
0000
0100
1000
0000
0010
0100
,
0000
0001
0010
0100
2000
0001
0000
3001
0010
000M
0010
1000
0001
0000
1000
0000
,
0011
0000
1100
0010
0010
0001
1000
0100
0000
0100
1000
0100
0100
0001
2000
0000
,
3101
0000
1010
0100
0100
0001
1000
0010
0000
0010
1000
0010
0010
0001
2000
0000
,
3101
0000
1100
0010
0010
0001
1000
0100
0000
0100
1000
0100
0001
0100
0000
1000
,
0020
0000
0130
0000
0002
0000
1003
0000
0002
0000
0013
0000
0100
1000
0000
0001
,
1010
0000
0101
0010
0010
1000
0001
0000
0100
0000
1000
0100
0000
0001
1000
0000
,
0101
0000
1010
0100
0100
0001
1000
0000
0100
0001
0000
0100
0000
0000
1000
0001
,
1100
0000
0101
0010
0010
1000
0001
0100
0000
0100
0010
1000
0001
0000
1000
0001
,
1010
0100
0100
0001
0100
0100
1000
0001
1000
0010
0010
0001
0010
0010
1000
0001
,
1000
0010
0200
0000
0000
0001
0000
0000
0320
0000
1030
0000
0001
1000
0001
0000
,
1010
0000
0001
0100
0010
0010
0001
0000
1010
0000
0001
0100
0011
0000
1100
0000
,
0101
0000
0010
0100
1000
0001
0100
0000
0001
0000
0100
0001
1000
0100
0010
0001
,
1100
0001
0010
0010
1000
0010
0002
0000
0023
0000
0130
0001
1000
0100
0100
0001
,
1000
0010
0100
0001
2010
0100
0010
0001
0100
0010
0100
0001
3010
0100
1000
0001
,
1010
0000
0101
0000
1010
0101
0000
1100
0000
0010
0100
0010
0001
0000
0010
1000
,
0011
0000
1100
0000
0011
1100
0000
0101
0000
0000
0010
0100
1000
0010
0100
0001
,
0100
0010
1000
0001
1000
0001
1000
0001
1000
0001
1000
0001
1000
0100
0010
0010
,
0002
0000
0013
1000
0001
0100
0100
0010
2000
0000
3010
0100
1000
0010
0100
0100
,
0002
0000
0103
0010
0001
0100
0100
1000
0010
0100
1000
0100
0001
0010
0100
1000
,
0010
M000
0010
0001
1000
0100
0100
0001
1000
0010
0100
0100
0010
0010
0100
0001
,
1000
0000
0001
0100
0100
1000
0001
0010
0100
0010
0001
1000
0010
0100
0010
0001
,
2000
0000
3000
0100
0011
1000
0100
0010
0001
1000
0100
0010
0100
0010
0100
0100
,
0001
1000
0100
1000
0010
0100
0010
0100
0010
0010
0001
1000
0100
1000
0001
0100
,
0010
1000
0001
0010
0100
1000
0100
0100
0001
0100
0100
1000
0010
0010
0100
1000
,
0000
0010
0100
0000
0001
1000
0000
0001
0010
000M
0010
1000
0001
0000
1000
0000
,
0011
0100
0010
0100
0100
1000
0010
0100
0010
1000
0101
0010
0101
1100
0010
0010
,
0101
0010
0100
0010
0010
1000
0100
0010
0100
1000
0011
0100
0011
0100
0100
0010
,
1000
0010
0001
1000
0001
0010
0010
0100
1000
0100
0010
1000
0001
0100
0100
0010
,
1000
0010
0001
1000
0010
0100
0001
0010
0010
1000
0100
1000
0010
0100
1000
0100
,
0002
0000
0023
0000
0131
0010
0100
1000
0100
0100
0011
1000
0100
1000
0010
0010
,
0101
1000
0010
0100
0100
1000
0011
0100
0001
0010
0010
1000
0101
1000
0100
0100
,
0012
1000
0010
0100
0010
0000
2103
0010
0100
0001
0010
0100
3010
0001
0100
0100
,
1000
0000
0000
0001
1000
0000
0001
0010
0100
0000
0000
1000
0001
0000
1000
0010
,
0100
0001
0010
0100
1000
0010
0100
0000
0000
0000
0000
0000
1001
0000
0000
0000
0000
0000
0000
0000
0000
0000
0000
0000
;
