#TITLE:Turn The Lights Off;
#SUBTITLE:;
#ARTIST:KATO & JON;
#TITLETRANSLIT:;
#SUBTITLETRANSLIT:;
#ARTISTTRANSLIT:;
#GENRE:;
#CREDIT:Evergreen;
#MUSIC:Turn The Lights Off - Edit.ogg;
#BANNER:Turn The Lights Off.png;
#BACKGROUND:;
#CDTITLE:;
#SAMPLESTART:0.000;
#SAMPLELENGTH:0.000;
#SELECTABLE:YES;
#OFFSET:-0.020;
#BPMS:0.000=132.000000;
#STOPS:;
#BGCHANGES:;
#FGCHANGES:;

//--------------- dance-single - XO DS ----------------
#NOTES:
     dance-single:
     XO DS:
     Medium:
     6:
     0,0,0,0,0:
0000
0000
0000
0000
,
0000
0000
0000
0000
,
0000
0000
0000
0000
,
0000
0000
0000
0000
,
0000
0000
0000
0000
0000
0000
0000
1000
,
0020
0000
0000
0000
0000
0130
0001
1000
,
0200
0000
0310
0010
0001
1000
0000
0010
,
0100
0000
0000
0000
0100
0000
0000
0001
0000
0000
0001
0000
1000
0000
0000
0000
,
2002
0000
0000
0000
0000
0000
0000
0000
0000
0000
0000
3003
0000
0000
0000
0000
,
0001
0010
0100
0000
0010
0100
1000
0000
,
0100
1000
0001
0000
1000
0001
0200
0000
,
1300
0000
0100
0000
0010
0100
0010
0000
,
0100
0000
0001
0000
0010
0100
0010
0100
,
1000
0010
0100
0000
0010
0100
0001
0000
,
0100
0001
1000
0000
0001
1000
0200
0000
,
0301
0000
0100
0000
0010
0100
0010
0000
,
0100
0000
1000
0000
0010
0100
0010
0100
,
0001
0010
0100
0000
1000
0010
0100
0000
,
0001
0010
0100
0000
1000
0001
0200
0000
,
1300
0000
0100
0000
0001
0100
0001
0000
,
0100
0000
0001
0000
0010
0100
1000
0001
,
1000
0010
0100
0000
0001
0010
0100
0000
,
1000
0010
0100
0000
0001
1000
0200
0000
,
0301
0000
0100
0000
1000
0100
1000
0000
,
0010
0100
0001
0000
0010
0100
1000
0001
,
0020
0000
0000
0000
0030
0100
1000
0001
,
0200
0310
1000
0001
,
0010
0020
0000
0000
,
0030
0000
0000
0000
0000
0000
0000
0100
,
0020
0000
0000
0000
0030
0100
1000
0001
,
0200
0000
0310
1000
0010
0100
0000
0001
,
1000
0000
0000
0000
,
0000
0000
0000
0000
0000
0001
0100
0001
,
0020
0000
0000
0000
0030
0100
0001
1000
,
0200
0310
0001
1000
,
0010
0020
0000
0000
,
0030
0000
0000
0000
0000
0000
0000
0100
,
0020
0000
0000
0000
0030
0100
0001
1000
,
0200
0000
0310
0001
0010
0100
0000
1000
,
0001
0100
0001
0000
1000
0100
1000
0001
,
2002
0000
0000
0000
3003
1000
0100
1000
,
0020
0000
0001
0000
0100
0000
1030
0200
,
0010
0000
0301
0100
1000
0010
0100
0001
,
1000
0000
0001
0010
0100
1000
0001
0100
,
0020
0000
2030
0000
3001
0100
0001
1000
,
0200
0000
0001
0000
0010
0000
1300
0010
,
0200
0000
1000
0000
0010
0000
0301
1000
,
0001
0000
0010
0010
0100
0000
1000
1000
,
0002
0000
0103
0010
1000
0100
0010
0001
,
0020
0000
1000
0000
0100
0000
0031
0200
,
0010
0000
1300
0100
0001
0010
0100
1000
,
0001
0000
1000
0010
0100
0001
1000
0100
,
0020
0000
0032
0000
1003
0100
1000
0001
,
0200
0000
1000
0000
0010
0000
0301
0010
,
0200
0000
0001
0000
0010
0000
1300
0001
,
2002
0000
0000
0000
,
3003
0000
0000
0000
;

//--------------- dance-single - XO DS JA JU- ----------------
#NOTES:
     dance-single:
     XO DS JA JU-:
     Hard:
     9:
     0,0,0,0,0:
0000
0000
0000
0000
,
0000
0000
0000
0000
,
0000
0000
0000
0000
,
0000
0000
0000
0000
,
0000
0000
0000
0000
0000
0000
0000
0001
,
0020
0000
0000
0000
0000
0130
1000
0020
,
0000
0130
0001
0010
0100
1000
0001
1000
,
0010
0000
0000
0000
0010
0000
0000
0100
0000
0000
0001
0000
1000
0000
0001
0000
,
2002
0000
0000
3003
,
2000
0010
3001
1000
0002
0010
1003
0010
,
0200
0000
0310
1000
0001
0000
0010
0000
0100
0000
0100
0000
1000
0000
0010
0000
,
0100
0000
0001
0100
0001
0100
0001
0000
0010
0000
0100
0000
1000
0000
0010
0000
,
0100
0000
0001
0010
0001
0010
0001
0000
1000
0000
0010
0000
0100
0000
0001
1000
,
0002
0010
1003
0001
2000
0010
3001
0010
,
0200
0000
0310
0001
1000
0000
0010
0000
0100
0000
0100
0000
0001
0000
0010
0000
,
0100
0000
1000
0100
1000
0100
1000
0000
0010
0000
0100
0000
0001
0000
0010
0000
,
0100
0000
1000
0010
1000
0010
1000
0000
0001
0000
0010
0000
0100
0000
1000
0000
,
0002
0100
1003
0001
2000
0100
3001
0200
,
0310
0000
1000
0001
0010
0000
0100
0000
1000
0000
1000
0000
0001
0000
1000
0000
,
0010
0000
0100
0001
1000
0100
1000
0000
0001
0000
0100
0000
1000
0000
0100
0000
,
0001
0000
0010
0100
1000
0001
1000
0000
0100
0000
0001
0000
0100
0000
1000
0001
,
2000
0100
3001
1000
0002
0100
1003
0200
,
0310
0000
0001
1000
0010
0000
0100
0000
0001
0000
0001
0000
1000
0000
0001
0000
,
0010
0000
0100
1000
0001
0100
0001
0000
1000
0000
0100
0000
0001
0000
0100
0000
,
1000
0000
0010
0100
0001
1000
0001
0000
0100
0000
1000
0000
0100
0000
0001
0000
,
0020
0000
0000
0000
0000
0000
0000
0000
0000
0030
0200
0000
2300
0000
3002
0000
,
0203
0000
0310
1000
0001
0010
0100
1000
,
0002
2003
3000
0000
,
0000
0000
0000
0000
0000
0000
0000
0001
,
0020
0000
0000
0000
0000
0130
2000
3002
,
0000
0003
0100
0010
1000
0001
0000
1000
,
0200
0300
0000
0000
,
0000
0000
0000
0000
0000
0010
0001
1000
,
0010
0000
0100
0000
0001
0000
0000
0010
0000
0100
0000
0000
1000
0000
0000
0010
,
0000
0100
0000
0000
0001
0000
0000
0010
0000
0100
0000
0000
1000
0000
0001
1000
,
0000
0000
0001
0000
0100
0000
0000
0010
0000
1000
0000
0000
0100
0000
0000
0010
,
0000
0001
0000
0000
0100
0000
0000
0010
0000
1000
0000
0000
0100
0000
1000
0010
,
0000
0100
0000
0000
0001
0000
0010
0100
0000
1000
0000
0000
0010
0000
0100
0001
,
0000
1000
0000
0000
0100
0000
0010
0001
0000
1000
0000
0010
0100
0000
0010
0100
,
0000
0001
0000
0000
0010
0000
0100
1000
0000
0010
0000
0100
0001
1000
0000
0001
,
2000
0000
0000
0000
0000
3002
0023
0230
,
1300
0000
0010
0000
0100
0010
0100
0000
1000
0000
0100
0000
0001
0000
1000
0000
,
0001
0000
0010
0000
0100
0010
0100
0000
0001
0000
0100
0000
1000
0000
0010
0000
,
0110
0000
0000
0000
0011
0000
0001
0010
0001
0010
0100
0000
1000
0000
0010
0000
,
1010
0000
0000
0000
0101
0000
0001
0100
0001
0000
0010
0000
0100
0000
0100
1000
,
0001
0000
0100
0000
0010
0100
0010
0000
0001
0000
0010
0000
1000
0000
0001
0000
,
1000
0000
0100
0000
0010
0100
0010
0000
1000
0000
0010
0000
0001
0000
0100
0000
,
0110
0000
0000
0000
1100
0000
1000
0100
1000
0100
1000
0000
0010
0000
0100
0000
,
0001
0000
0001
0000
1000
0000
0001
1000
0001
0000
0010
0000
0100
1000
0001
0100
,
0010
0000
1000
0000
0100
0010
0100
0000
0001
0000
0100
0000
1000
0000
0001
0000
,
1000
0000
0010
0000
0100
0010
0100
0000
1000
0000
0100
0000
0001
0000
0010
0000
,
0110
0000
0000
0000
1010
0000
1000
0010
0100
0001
0010
0000
0001
0000
0010
0000
,
0011
0000
0000
0000
1100
0000
1000
0100
0010
0001
1000
0000
0001
0000
0001
0100
,
0010
0000
1000
0100
0010
0001
1000
0000
0001
0000
0010
0000
0100
0000
1000
0000
,
0001
0000
0100
0010
1000
0001
0010
0000
0100
0000
1000
0000
0001
0000
1000
0000
,
2002
0000
0000
0000
,
3003
0000
0000
0000
;
