#TITLE:Soft Spot;
#SUBTITLE:;
#ARTIST:JMSN;
#TITLETRANSLIT:;
#SUBTITLETRANSLIT:;
#ARTISTTRANSLIT:;
#GENRE:;
#CREDIT:Evergreen;
#MUSIC:Soft Spot - Edit.ogg;
#BANNER:Soft Spot.png;
#BACKGROUND:;
#CDTITLE:;
#SAMPLESTART:0.000;
#SAMPLELENGTH:0.000;
#SELECTABLE:YES;
#OFFSET:-0.022;
#BPMS:0.000=134.000000;
#STOPS:;
#BGCHANGES:;
#FGCHANGES:;

//--------------- dance-single - JA ----------------
#NOTES:
     dance-single:
     JA:
     Medium:
     5:
     0,0,0,0,0:
0000
0000
0000
0000
,
0000
0000
0000
0000
,
0000
0000
0000
0000
,
0000
0000
0000
0000
,
0000
0000
0000
0000
,
0000
0000
0000
0000
,
0000
0000
0000
0000
,
0000
0000
0000
0000
,
2000
0000
0000
0000
,
3000
0000
0002
0000
0000
0000
0000
0000
0000
0000
0000
0000
0000
0000
0000
0000
0000
0000
0000
0000
0000
0000
0000
0000
0000
0000
0000
0000
0000
0000
0000
0000
0000
0000
0000
0000
0000
0000
0000
0000
0000
0000
0000
0000
0000
0000
0000
0000
,
0003
2000
0000
0000
0000
0000
0000
0000
0000
0000
0000
0000
0000
0000
0000
0000
0000
0000
0000
0000
0000
0000
0000
0000
0000
0000
0000
0000
0000
0000
0000
0000
,
3000
0002
0000
0000
0000
0000
0000
0000
0000
0000
0000
0000
0000
0000
0000
0000
0000
0000
0000
0000
0000
0000
0000
0000
,
2003
0000
0000
0000
0000
0000
0000
0000
0000
0000
0000
0000
0000
0000
0000
0000
0000
0000
0000
0000
0000
0000
0000
0000
0000
0000
0000
0000
0000
0000
0000
0000
0000
0000
0000
0000
0000
0000
0000
0000
0000
0000
0000
0000
0000
0000
0000
0000
,
3000
0000
0002
0000
0000
0000
0000
0000
0000
0000
0000
0000
0000
0000
0000
0000
0000
0000
0000
0000
0000
0000
0000
0000
0000
0000
0000
0000
0000
0000
0000
0000
0000
0000
0000
0000
0000
0000
0000
0000
0000
0000
0000
0000
0000
0000
0000
0000
0000
0000
0000
0000
0000
0000
0000
0000
0000
0000
0000
0000
0000
0000
0000
0000
0000
0000
0000
0000
0000
0000
0000
0000
0000
0000
0000
0000
0000
0000
0000
0000
0000
0000
0000
0000
0000
0000
0000
0000
0000
0000
0000
0000
0000
0000
0000
0000
,
0003
2000
0000
0000
0000
0000
0000
0000
0000
0000
0000
0000
0000
0000
0000
0000
0000
0000
0000
0000
0000
0000
0000
0000
0000
0000
0000
0000
0000
0000
0000
0000
0000
0000
0000
0000
0000
0000
0000
0000
0000
0000
0000
0000
0000
0000
0000
0000
0000
0000
0000
0000
0000
0000
0000
0000
0000
0000
0000
0000
0000
0000
0000
0000
,
3001
0000
0000
0000
0000
1000
0001
0000
,
1000
0000
0010
0000
0100
0001
1000
0000
,
1000
0001
0100
0000
0100
0001
0010
0000
,
0010
0100
1000
0001
,
1000
0010
0100
0001
,
1000
0000
0100
0000
0010
0001
1000
0000
,
1000
0001
0010
0000
0010
0001
0100
0000
,
0100
0010
1000
0001
,
1000
0000
0100
0000
0010
0001
0100
0000
,
0010
1000
0010
1000
,
0100
0010
0001
1000
,
0001
0100
0001
0100
,
0010
1000
0001
0010
,
0100
1000
0100
0000
1000
0100
1000
0010
,
0000
0100
0000
0001
0000
1000
0000
0000
,
0001
0100
0001
0000
0100
0001
0100
0001
,
0000
0010
0000
0100
0000
1000
0001
0000
,
1000
0100
0010
0000
0001
0100
0010
1000
,
0000
0001
0000
0010
0000
0100
1000
0000
,
0001
0010
0001
0000
1000
0010
1000
0000
,
0001
0010
0100
0000
1000
0010
0100
0000
,
0001
0000
0100
0001
0000
0000
1000
0001
,
0000
0000
0010
0001
0010
0100
1000
0001
,
1000
0000
1000
0000
0010
0100
0001
1000
,
0000
0000
0001
0010
0000
0010
0100
1000
,
0001
0000
0001
0000
1000
0010
1000
0000
,
1000
0000
0001
0000
1000
0010
0100
0000
,
0001
0000
0001
0000
0010
0100
1000
0000
,
1000
0000
0010
0000
0100
0001
0010
0100
,
2000
0000
0000
0000
3010
0000
0100
0002
,
0000
0000
0000
0000
0013
0100
0010
0001
,
2000
0000
0000
0000
3100
0000
1000
0020
,
0000
0000
0000
0000
0130
0001
0100
0001
,
2000
0000
0000
0000
3100
0000
0010
0002
,
0000
0000
0000
0000
0103
0010
0100
0001
,
2000
0000
0000
0000
3010
0000
1000
0200
,
0000
0000
0000
0000
0310
0001
0010
0000
,
0002
0000
0000
0000
0013
0000
0100
2000
,
0000
0000
0000
0000
3010
0100
0010
1000
,
0002
0000
0000
0000
0103
0000
0001
0020
,
0000
0000
0000
0000
0130
1000
0100
1000
,
0002
0000
0000
0000
0103
0000
0010
2000
,
0000
0000
0000
0000
3100
0010
0100
1000
,
0002
0000
0000
0000
0013
0000
0001
0200
,
0000
0000
0000
0000
0000
0000
0000
0300
,
0001
0000
0010
0000
0100
1000
0001
0000
,
0001
1000
0100
0000
0100
1000
0010
0000
,
0010
0000
0100
0000
0001
1000
0001
0000
,
0001
1000
0010
0000
0100
0001
0100
0000
,
0001
0000
0100
0000
0010
1000
0001
0000
,
0001
1000
0010
0000
0010
1000
0100
0000
,
0100
0000
0010
0000
0001
1000
0001
0000
,
0001
1000
0100
0000
0010
0001
1000
0010
,
1000
0000
0100
1000
0000
0000
0001
1000
,
0000
0000
0010
1000
0010
0100
0001
1000
,
0001
0000
0001
0000
0010
0100
1000
0001
,
0000
0000
1000
0010
0000
0010
0100
0001
,
1000
0010
1000
0000
0001
0010
0001
0000
,
0010
0100
1000
0000
0010
0100
0001
1000
,
0001
0000
0001
0000
0010
0100
1000
0000
,
1000
0000
0000
0000
;

//--------------- dance-single - XO RH- ----------------
#NOTES:
     dance-single:
     XO RH-:
     Hard:
     8:
     0,0,0,0,0:
0000
0000
0000
0000
,
0000
0000
0000
0000
,
0000
0000
0000
0000
,
0000
0000
0000
0000
,
0000
0000
0000
0000
,
0000
0000
0000
0000
,
0000
0000
0000
0000
,
0000
0000
0000
0000
,
2000
0000
0000
0000
,
3000
0000
0002
0000
0000
0000
0000
0000
0000
0000
0000
0000
0000
0000
0000
0000
0000
0000
0000
0000
0000
0000
0000
0000
0000
0000
0000
0000
0000
0000
0000
0000
0000
0000
0000
0000
0000
0000
0000
0000
0000
0000
0000
0000
0000
0000
0000
0000
,
0003
2000
0000
0000
0000
0000
0000
0000
0000
0000
0000
0000
0000
0000
0000
0000
0000
0000
0000
0000
0000
0000
0000
0000
0000
0000
0000
0000
0000
0000
0000
0000
,
3000
0002
0000
0000
0000
0000
0000
0000
0000
0000
0000
0000
0000
0000
0000
0000
0000
0000
0000
0000
0000
0000
0000
0000
,
2003
0000
0000
0000
0000
0000
0000
0000
0000
0000
0000
0000
0000
0000
0000
0000
0000
0000
0000
0000
0000
0000
0000
0000
0000
0000
0000
0000
0000
0000
0000
0000
0000
0000
0000
0000
0000
0000
0000
0000
0000
0000
0000
0000
0000
0000
0000
0000
,
3000
0000
0002
0000
0000
0000
0000
0000
0000
0000
0000
0000
0000
0000
0000
0000
0000
0000
0000
0000
0000
0000
0000
0000
0000
0000
0000
0000
0000
0000
0000
0000
0000
0000
0000
0000
0000
0000
0000
0000
0000
0000
0000
0000
0000
0000
0000
0000
0000
0000
0000
0000
0000
0000
0000
0000
0000
0000
0000
0000
0000
0000
0000
0000
0000
0000
0000
0000
0000
0000
0000
0000
0000
0000
0000
0000
0000
0000
0000
0000
0000
0000
0000
0000
0000
0000
0000
0000
0000
0000
0000
0000
0000
0000
0000
0000
,
0003
2000
0000
0000
0000
0000
0000
0000
0000
0000
0000
0000
0000
0000
0000
0000
0000
0000
0000
0000
0000
0000
0000
0000
0000
0000
0000
0000
0000
0000
0000
0000
0000
0000
0000
0000
0000
0000
0000
0000
0000
0000
0000
0000
0000
0000
0000
0000
0000
0000
0000
0000
0000
0000
0000
0000
0000
0000
0000
0000
0000
0000
0000
0000
,
3000
0000
0000
0000
0000
0000
0000
0000
0000
0000
0001
0000
0010
0000
0100
1000
,
0010
0100
0010
1000
0100
0010
0001
2000
,
0000
3010
0100
0002
0000
0013
0100
1000
,
0001
0100
0001
0020
0000
0130
1000
0010
,
0100
0000
0001
0000
0010
0000
0100
1000
0100
0000
1000
0000
0010
1000
0001
0000
,
0010
0100
0010
0001
0100
0010
1000
0002
,
0000
0013
0100
2000
0000
3010
0100
0001
,
1000
0100
1000
0020
0000
0130
0001
0010
,
0100
0000
1000
0000
0010
0000
0100
0001
0100
0000
0001
0000
0010
0001
1000
0000
,
0010
0100
0001
2000
0000
3100
0010
2000
,
0000
0000
3010
0000
0100
0000
2000
0000
0000
0000
3010
0000
0100
0001
1000
0000
,
0001
0100
0010
0002
0000
0013
0100
0002
,
0000
0000
1003
0000
0010
0000
0100
0001
1000
0001
0010
0000
0100
1000
0010
0000
,
0100
0001
0010
0100
1000
0010
0100
1000
,
0100
0000
0010
0000
0100
0000
1000
0000
0100
0001
1000
0000
0100
0000
0010
0000
,
0001
1000
0010
0100
0001
0010
0100
0001
,
0100
0000
0010
0000
0100
0000
0001
0000
0100
1000
0001
0000
0100
0010
1000
0000
,
0001
0010
0100
1000
0010
0100
0001
0010
,
0100
0000
0010
0000
1000
0000
0010
0000
0001
1000
0001
0000
0100
0000
0010
0000
,
1000
0100
0010
0001
0100
0010
0001
0010
,
0001
0000
0010
0000
1000
0000
0010
0000
1000
0000
0001
0000
0010
0100
1000
0000
,
0100
0010
0001
0020
0030
0100
1000
0002
,
0003
0100
0001
1000
0010
1000
0010
1000
,
0200
0300
0010
0000
0002
0000
0003
0000
0000
0000
0000
0000
1000
0000
0010
0000
,
0100
0001
0010
0000
0100
0010
0100
0000
,
2000
3000
0000
0000
0002
0003
0100
0000
0000
0000
0010
0000
2000
3000
0001
0000
,
2000
3000
0100
0000
0010
0000
0001
0000
1000
0010
0100
0000
0001
0000
0010
0000
,
0200
0300
1000
0000
0020
0030
0100
0000
0001
0000
0010
0000
0100
0000
1000
0000
,
0001
0000
0100
0000
0010
0000
1000
0000
0001
0010
0001
0000
1000
0010
0100
0000
,
0002
0013
0000
0001
0010
0100
1000
0020
,
0000
1030
0000
0010
0100
0001
0010
0100
,
2000
3100
0000
1000
0100
0010
0001
0200
,
0000
0301
0100
0010
1000
0100
0010
0001
,
2000
3010
0000
1000
0010
0100
0001
0020
,
0000
0031
0000
0010
0100
1000
0010
0100
,
0002
0103
0000
0001
0100
0010
1000
0200
,
0000
1300
0100
0010
0001
0100
0010
1000
,
0002
0013
0000
0100
1000
0010
0100
2000
,
0000
3100
0001
0010
0100
1000
0010
0100
,
0001
0020
0000
0031
0010
0100
0001
0100
,
1000
0010
0100
0001
0100
0001
0010
0100
,
2000
3010
0000
0100
0001
0010
0100
0002
,
0000
0103
1000
0010
0100
0001
0010
0100
,
1000
0020
0000
1030
0010
0100
0002
2000
,
0000
0000
0000
0000
0000
0000
0003
3001
,
0100
0010
0100
0001
0010
0100
1000
0002
,
0000
0103
0010
2000
0000
3100
0010
0001
,
1000
0010
0100
0001
0010
0100
0001
0100
,
1000
0000
0010
0000
0100
0000
0001
0000
0010
0000
0001
0000
0100
0001
1000
0000
,
0100
0010
0100
1000
0010
0100
0001
2000
,
0000
3100
0010
0002
0000
0103
0010
1000
,
0001
0010
0100
1000
0010
0100
1000
0100
,
0001
0000
0100
0000
0001
0000
0010
0000
0100
0000
1000
0000
0100
1000
0001
0000
,
0100
0010
1000
0200
0300
0010
0001
2000
,
3000
0010
1000
0001
0100
0001
0100
0001
,
0020
0030
0100
0000
2000
0000
3000
0000
0000
0000
0000
0000
0001
0000
0100
0000
,
0010
1000
0100
0000
0010
0100
0010
0001
,
1000
0010
0001
0010
1000
0000
0100
0001
,
0000
0000
0100
0000
1000
0000
0001
0000
1000
0001
1000
0000
0001
0000
0010
0000
,
0200
0300
1000
0000
0020
0030
0100
0000
0001
0000
1000
0000
0001
0000
0000
0000
,
1000
0000
0000
0000
;
