#TITLE:Man I Need;
#SUBTITLE:;
#ARTIST:Olivia Dean;
#TITLETRANSLIT:;
#SUBTITLETRANSLIT:;
#ARTISTTRANSLIT:;
#GENRE:;
#CREDIT:Evergreen;
#MUSIC:Man I Need - Edit.ogg;
#BANNER:Man I Need.png;
#BACKGROUND:;
#CDTITLE:;
#SAMPLESTART:0.000;
#SAMPLELENGTH:0.000;
#SELECTABLE:YES;
#OFFSET:-0.022;
#BPMS:0.000=119.000000;
#STOPS:;
#BGCHANGES:;
#FGCHANGES:;

//--------------- dance-single - JA DS- ----------------
#NOTES:
     dance-single:
     JA DS-:
     Medium:
     4:
     0,0,0,0,0:
0000
0000
0000
0000
,
0000
0000
0000
0000
,
0000
0000
0000
0000
,
0000
0000
0000
0000
,
1000
0000
0000
0000
0000
0001
0000
0000
1000
0001
0000
0000
,
0010
0100
0010
0001
,
1000
0000
0000
0000
0000
0001
0000
0000
1000
0001
0000
0000
,
0100
0000
0000
0010
0000
0000
0100
0000
0001
1000
0000
0000
,
0001
0000
0000
0000
0000
1000
0000
0000
0001
1000
0000
0000
,
0010
0100
0010
1000
,
0001
0000
0000
0000
0000
1000
0000
0000
0001
1000
0000
0000
,
0100
0000
0000
0010
0000
0000
0100
0000
1000
0001
0000
0000
,
1000
0000
0000
0010
0000
0100
0001
0000
0000
1000
0000
0000
,
0100
0000
0000
0010
0000
0000
0100
0000
1000
0001
0000
1000
,
0001
0000
0000
0010
0000
0100
1000
0000
0000
0001
0000
0000
,
0100
0000
0000
0010
0000
0000
0100
0000
0001
1000
0000
0000
,
0001
0000
0000
0100
0000
0010
1000
0000
0000
0001
0000
0000
,
0010
0000
0000
0100
0000
0000
0010
0000
0001
1000
0000
0001
,
1000
0000
0000
0100
0000
0010
0001
0000
0000
1000
0000
0000
,
0010
0000
0000
0100
0000
0000
0010
0000
0100
0001
0000
0000
,
0020
0000
0000
0130
0000
1000
0020
0000
0000
0130
0000
0001
,
0020
0000
0000
0130
0000
1000
0001
0000
1000
0020
0000
0000
,
0230
0000
0300
0002
0000
0010
0000
0000
1003
0000
0000
0000
,
0200
0000
0300
2000
0000
0010
0000
0000
3001
2000
0000
0000
,
3020
0000
0000
0130
0000
0001
0020
0000
0000
0130
0000
1000
,
0020
0000
0000
0130
0000
0001
1000
0000
0001
0020
0000
0000
,
0230
0000
0300
2000
0000
0010
0000
0000
3001
0000
0000
0000
,
2000
3000
0002
0003
0020
0030
0200
0300
2000
3000
0002
0003
,
1000
0000
0000
0010
0000
0100
0001
0000
0000
0010
0000
0100
,
1000
0000
1000
0001
0000
0000
0001
0000
0001
1000
0000
0000
,
0001
0000
0100
0010
0000
0000
1000
0000
0100
0010
0000
0000
,
0001
0000
0100
0001
0000
0000
0010
0000
0100
1000
0000
0000
,
0001
0000
0000
0010
0000
0100
1000
0000
0000
0010
0000
0100
,
0001
0000
0001
1000
0000
0000
1000
0000
1000
0001
0000
0000
,
1000
0000
0100
0010
0000
0000
0001
0000
0100
0010
0000
0000
,
1000
0100
0010
0001
0100
0010
,
1000
0000
0001
0100
0000
0001
0020
0000
0000
0130
0000
0000
,
1000
0000
0010
0000
0100
0000
0001
0000
1000
0002
0000
0000
,
1003
0000
0000
0001
0000
0001
0000
0010
0000
0010
0000
0000
,
0100
0000
1000
0010
0000
0000
0100
0000
0001
1000
0000
0000
,
0001
0000
0000
1000
0000
1000
0000
0010
0000
0010
0000
0000
,
0100
0000
0001
0010
0000
0000
0100
0000
1000
0010
0000
1000
,
0001
0000
0000
1000
0000
1000
0000
0100
0000
0100
0000
0000
,
0010
0000
0001
0100
0000
0000
0010
0000
1000
0001
0000
0000
,
1000
0000
0000
0001
0000
0001
0000
0100
0000
0100
0000
0000
,
0010
0000
1000
0000
0100
0000
0010
0000
0001
0100
0000
0010
,
1000
0001
0000
0020
,
0130
1000
0000
0010
,
0100
0001
0010
0100
,
0010
0001
1000
0010
;

//--------------- dance-single - JA- JU- ----------------
#NOTES:
     dance-single:
     JA- JU-:
     Hard:
     8:
     0,0,0,0,0:
0000
0000
0000
0000
,
0000
0000
0000
0000
,
0000
0000
0000
0000
,
0000
0000
0000
1000
,
0001
0000
0000
0100
0000
0001
0000
0000
0010
0100
0000
1000
,
0001
0000
0001
1000
0000
0010
0100
0001
1000
0002
0000
0000
,
1003
0000
0000
0100
0000
1000
0000
0000
0010
0100
0000
0001
,
1000
0000
1000
0001
0000
0010
0100
1000
0010
0200
0000
0000
,
0301
0000
0000
0010
0000
0001
0000
0000
0100
0010
0000
1000
,
0001
0000
0001
1000
0000
0100
0010
0001
1000
0002
0000
0000
,
1003
0000
0000
0001
0000
1000
0000
0000
0100
0010
0000
0001
,
1000
0000
1000
0001
0000
0010
0100
1000
0001
2000
0000
0000
,
3001
0000
0000
0100
0000
0010
1000
0000
0001
0010
0000
0100
,
1000
0000
0010
0100
0000
0001
1000
0100
1000
0020
0000
0130
,
0001
0000
0000
0010
0000
0100
1000
0000
0001
0100
0000
0010
,
1000
0000
0000
0000
0100
0000
0010
0000
0000
0000
0001
0000
1000
0000
0010
0000
1000
0000
0002
0000
0000
0003
0000
0000
,
1000
0000
0000
0100
0000
0010
0001
0000
1000
0010
0000
0100
,
0001
0000
0010
0100
0000
1000
0001
0100
0001
0020
0000
0130
,
1000
0000
0000
0010
0000
0100
0001
0000
1000
0100
0000
0010
,
0001
0000
0100
0010
0000
1000
0100
0010
0001
2000
0000
0000
,
3020
0000
0030
0000
0100
0001
0020
0000
0030
0000
0100
1000
,
0020
0000
0030
0100
0001
1000
0100
0000
0010
0002
0000
0000
,
1003
0000
0010
0100
0000
0101
0000
0000
0011
0000
0000
0000
,
0001
0000
0010
0100
0000
1100
0000
0000
1010
0000
0000
0000
,
0020
0000
0030
0000
0100
0001
0020
0000
0030
0000
0100
1000
,
0020
0030
0100
0001
1000
0100
0000
0000
1000
0010
0000
0000
,
0100
0000
0001
1000
0000
0110
0000
0000
1001
0000
0000
1000
,
0020
0030
0200
0300
0002
0003
0020
0000
0230
0000
2300
3000
,
1001
0000
0001
0100
0010
1000
0001
0000
0001
0010
0000
0010
,
0200
0000
0000
2300
0000
0000
3010
0100
0001
2000
0000
0000
,
3100
0000
0100
1000
0010
0100
0001
0000
0010
0100
0000
0100
,
2000
0000
0000
3010
0000
0000
0100
0001
1000
0002
0000
0000
,
1003
0000
0001
0010
0100
1000
0001
0000
0001
0100
0000
0100
,
0020
0000
0000
2030
0000
0000
3100
0010
0001
2000
0000
0000
,
3010
0000
0010
1000
0100
0010
0001
0000
0100
0010
0000
0010
,
2000
0000
3200
0000
0320
0000
0032
0000
1003
0010
0100
0001
,
1000
0000
0001
0010
0000
0001
1000
0010
0100
0001
0000
0000
,
1000
0000
0001
0010
0000
0100
1000
0010
0100
0002
0000
0000
,
2003
0000
0000
3001
0010
0001
0000
1000
0010
1000
0010
0100
,
0001
0010
0001
0000
0010
0100
2000
3000
2000
3010
0200
0301
,
1000
0000
0000
0001
0010
0001
0000
1000
0010
1000
0010
0100
,
0001
0010
0001
0000
0010
0100
2000
3010
0100
0010
2000
0000
,
3001
0000
0000
1000
0100
1000
0000
0001
0100
0001
0100
0010
,
1000
0100
1000
0000
0100
0010
0002
0003
0002
0103
0020
1030
,
0001
0000
0000
1000
0100
1000
0000
0001
0100
0001
0100
0010
,
1000
0100
1000
0000
0100
0010
0002
0003
1000
0002
0000
0000
,
1003
0000
0010
0100
0000
0000
0001
0000
0010
0200
0000
0000
,
2300
0000
0000
0000
0000
0000
3010
0000
0000
0000
0100
0000
0001
0000
0010
0000
0100
0000
2000
0000
0000
0000
0000
0000
,
3002
0000
0000
0000
0000
0000
2003
0000
0000
0000
0000
0000
3020
0000
0000
0000
0000
0000
0230
0000
0000
0000
0000
0000
,
0302
0000
0000
0000
0000
0000
0013
0000
0100
0000
1000
0000
0001
0000
0000
0000
1000
0000
0002
0000
0000
0000
0000
0000
,
0003
0000
0000
0000
;
