#TITLE:Man I Need;
#SUBTITLE:Full;
#ARTIST:Olivia Dean;
#TITLETRANSLIT:;
#SUBTITLETRANSLIT:;
#ARTISTTRANSLIT:;
#GENRE:;
#CREDIT:Evergreen;
#MUSIC:Man I Need.ogg;
#BANNER:Man I Need.png;
#BACKGROUND:;
#CDTITLE:full-cd.png;
#SAMPLESTART:76.797;
#SAMPLELENGTH:16.134;
#SELECTABLE:YES;
#OFFSET:-0.157;
#BPMS:0.000=119.000000;
#STOPS:;
#BGCHANGES:;
#FGCHANGES:;

//--------------- dance-single - STR @ 89bpm ----------------
#NOTES:
     dance-single:
     STR @ 89bpm:
     Challenge:
     10:
     0,0,0,0,0:
0000
0000
0000
0000
,
0000
0000
0000
0000
,
0000
0000
0000
0000
,
0000
0000
0000
0000
,
1000
0100
0010
0001
1000
0010
0100
0010
1000
0001
0010
0001
,
0100
0010
1000
0100
0010
0001
0100
0010
1000
0002
0000
1003
,
0001
0100
0010
1000
0001
0010
0100
0010
0001
1000
0010
1000
,
0001
0010
0100
1000
0010
0100
0001
0010
0001
2000
0000
3001
,
1000
0010
0100
0001
1000
0100
0010
0100
1000
0001
0100
0001
,
0010
0100
1000
0010
0100
0001
0010
0100
1000
0002
0000
1003
,
0001
0010
0100
1000
0001
0100
0010
0100
0001
1000
0100
1000
,
0001
0100
0010
1000
0100
0010
0001
0100
0001
0020
0000
0130
,
1000
0010
0100
0001
1000
0001
0010
0100
1000
0010
0100
0001
,
0010
0001
1000
0010
1000
0001
0010
0100
1000
0020
0000
0130
,
0001
0010
0100
1000
0001
1000
0010
0100
0001
0010
0100
1000
,
0010
0100
0001
0010
0001
1000
0010
1000
0001
0020
0000
0130
,
0010
0100
1000
0001
1000
0010
0100
0001
0010
0100
1000
0010
,
1000
0001
0010
0001
1000
0010
0100
0001
1000
0200
0000
0310
,
0001
0100
0010
1000
0001
0010
0100
1000
0010
0100
0001
1000
,
0001
0000
0010
0200
0000
0000
2300
0000
0000
3020
0000
0000
,
0130
0001
0100
0001
0010
0100
1000
0100
1000
0010
0100
0001
,
0010
0001
0100
0010
1000
0001
0010
0100
1000
0010
0100
0010
,
1000
0001
0010
0100
1000
0001
0100
0001
0010
0100
1000
0001
,
1000
0010
0100
0001
1000
0100
1000
0010
0100
0001
1000
0100
,
0010
0001
0010
0001
0100
0010
1000
0010
1000
0100
0010
0001
,
0100
0001
0010
0100
1000
0001
0100
0010
1000
0100
0010
0100
,
1000
0001
0100
0010
1000
0001
0010
0001
0100
0010
1000
0001
,
1000
0100
0010
0001
1000
0010
0100
0001
1000
0002
0000
0000
,
1003
0100
0010
0001
0100
0001
1000
0100
0010
0100
1000
0010
,
0100
0001
1000
0001
0010
0100
0010
0100
1000
0010
0100
0001
,
1000
0100
0010
0001
0100
0001
0010
0100
1000
0010
0100
0001
,
1000
0100
1000
0001
0100
0001
0010
0100
1000
0002
0000
1003
,
0001
0100
0010
1000
0100
1000
0001
0100
0010
0100
0001
0010
,
0100
1000
0001
1000
0010
0100
0010
0100
0001
0010
0100
1000
,
0001
0100
0010
1000
0100
1000
0010
0100
0001
0010
0100
1000
,
0001
0100
0001
1000
0100
1000
0010
0100
0001
2000
0000
3001
,
1000
0100
1000
0001
0100
0001
1000
0100
0010
0001
1000
0001
,
2000
0000
0000
0001
0000
0000
0000
0000
0000
3001
0000
0010
,
0200
0000
0000
1300
0010
1000
0000
0001
0010
0100
1000
0010
,
0100
0001
1000
0100
0010
0001
0010
0100
1000
0020
0000
0130
,
0001
1000
0010
0100
0001
0100
0001
1000
0100
1000
0010
0100
,
0001
0010
0100
1000
0010
1000
0001
0100
0001
0020
0000
0130
,
1000
0010
0100
0001
0010
0001
0100
0010
1000
0010
1000
0100
,
0010
0001
1000
0010
0100
0001
0100
0010
1000
0200
0000
0310
,
0001
1000
0010
0100
0001
0100
0001
1000
0100
1000
0010
0100
,
0001
0010
0200
0300
1000
0010
0100
0000
0001
2000
0000
0000
,
3001
0100
0010
1000
0001
0010
0100
0010
0001
1000
0010
1000
,
0100
0010
0001
0100
0010
1000
0100
0010
0001
2000
0000
3001
,
1000
0100
0010
0001
1000
0010
0100
0010
1000
0001
0010
0001
,
1000
0010
0100
0001
0010
0100
1000
0010
1000
0002
0000
1003
,
0001
0010
0100
1000
0001
0100
0010
0100
0001
1000
0100
1000
,
0010
0100
0001
0010
0100
1000
0010
0100
0001
0020
0000
0130
,
2000
0000
3000
0000
0000
0002
0000
0003
1000
0001
0100
0001
,
1000
0100
0010
0001
0100
0010
1000
0001
1000
0002
0000
0013
,
0100
1000
0100
1000
0010
0100
0001
0100
0001
0010
0100
1000
,
0010
1000
0100
0010
0001
1000
0010
0100
0001
0010
0100
0010
,
0001
1000
0010
0100
0001
1000
0100
1000
0010
0100
0001
1000
,
0001
0010
0100
1000
0001
0100
0001
0010
0100
1000
0001
0100
,
0010
1000
0010
1000
0100
0010
0001
0010
0001
0100
0010
1000
,
0100
1000
0010
0100
0001
1000
0100
0010
0001
0100
0010
0100
,
0001
1000
0100
0010
0001
1000
0010
1000
0100
0010
0001
1000
,
0001
0000
0100
0000
0010
0000
1000
0000
0001
0000
0010
0000
0200
0000
0000
0000
2300
0000
0000
0000
0000
3002
0000
0000
,
1003
0010
0100
0001
0010
0001
1000
0010
0100
0010
1000
0100
,
0010
0001
1000
0001
0100
0010
0100
0010
1000
0100
0010
0001
,
1000
0010
0100
0001
0010
0001
0100
0010
1000
0100
0010
0001
,
1000
0010
1000
0001
0010
0001
0100
0010
1000
0002
0000
1003
,
0001
0010
0100
1000
0010
1000
0001
0010
0100
0010
0001
0100
,
0010
1000
0001
1000
0100
0010
0100
0010
0001
0100
0010
1000
,
0001
0010
0100
1000
0010
1000
0100
0010
0001
0100
0010
1000
,
0001
0010
0001
1000
0010
1000
0100
0010
0001
2000
0000
3001
,
1000
0010
1000
0001
0010
0001
1000
0010
0100
0001
1000
0100
,
1000
0010
1000
0001
0010
0001
1000
0010
0100
0002
0000
1003
,
0001
0010
0001
1000
0010
1000
0001
0010
0100
1000
0001
1000
,
0002
0000
0000
1000
0000
0000
0000
0000
0000
1003
0000
0010
,
0200
0000
0000
0301
0010
0001
0000
1000
0010
0100
0001
0010
,
0100
1000
0001
0100
0010
1000
0010
0100
0001
0020
0000
0130
,
1000
0001
0010
0100
1000
0100
1000
0001
0100
0001
0010
0100
,
1000
0010
0100
0001
0010
0001
1000
0100
1000
0020
0000
0130
,
0001
0010
0100
1000
0010
1000
0100
0010
0001
0010
0001
0100
,
0010
1000
0001
0010
0100
1000
0100
0010
0001
0200
0000
0310
,
1000
0001
0010
0100
1000
0100
1000
0001
0100
0001
0010
0100
,
1000
0010
0200
0300
0001
0010
0100
0000
1000
0002
0000
0000
,
1003
0100
1000
0001
0100
0010
1000
0100
1000
0001
0010
0100
,
1000
0001
1000
0010
0100
0001
1000
0100
0010
0002
0000
1003
,
0001
0100
0001
1000
0100
0010
0001
0100
0001
1000
0010
0100
,
0001
1000
0001
0010
0100
1000
0001
0100
0010
2000
0000
3001
,
1000
0000
0001
1000
0010
0100
0001
0010
0001
1000
0100
0010
,
0001
1000
0001
0100
0010
1000
0001
0010
0100
2000
0000
3001
,
1000
0010
1000
0001
0010
0100
1000
0010
1000
0001
0100
0010
,
1000
0000
0000
0001
0010
0100
1000
0000
0010
0200
0000
0000
,
0300
0000
0000
0000
0000
0000
0000
0000
0000
0000
0000
0000
0000
0000
0000
0000
0000
0000
0000
0000
0000
0000
0000
0000
0000
0000
0000
0000
0000
0000
0000
0000
0000
0000
0000
0000
0000
0000
0000
0000
0000
0000
0000
0000
0000
0000
0000
0000
0000
0000
0000
0000
0000
0000
0000
0000
0000
0000
0000
0000
0000
0000
0000
0000
0000
0000
0000
0000
0000
0000
0000
0000
0000
0000
0000
0000
0000
0000
0000
0000
0000
0000
0000
0000
0000
0000
0000
0000
0000
0000
0000
0000
0000
0000
0000
0000
;
