#TITLE:I'm Gone, I'm Going;
#SUBTITLE:;
#ARTIST:Lesley Roy;
#TITLETRANSLIT:;
#SUBTITLETRANSLIT:;
#ARTISTTRANSLIT:;
#GENRE:;
#CREDIT:Evergreen;
#MUSIC:I’m Going, I’m Gone - Edit.ogg;
#BANNER:I'm Gone, I'm Going.png;
#BACKGROUND:;
#CDTITLE:;
#SAMPLESTART:49.580;
#SAMPLELENGTH:12.387;
#SELECTABLE:YES;
#OFFSET:-0.032;
#BPMS:0.000=155.000000;
#STOPS:;
#BGCHANGES:;
#FGCHANGES:;

//--------------- dance-single - ----------------
#NOTES:
     dance-single:
     :
     Beginner:
     4:
     0,0,0,0,0:
0000
0000
0000
0000
,
1000
0000
1000
0000
,
0001
0000
0001
0000
,
0010
0010
0100
0000
,
1000
1000
0001
0100
,
0001
0000
0001
0000
,
1000
0000
1000
0000
,
0010
0010
0100
0000
,
0001
0001
0010
0100
,
1000
0010
1000
0000
,
0001
0010
0001
0000
,
1000
0100
1000
0000
,
0001
0100
0010
0000
,
1000
0001
1000
0000
,
0001
0100
0001
0000
,
0020
0000
0230
0000
,
0320
0000
0230
0000
,
1300
0100
1000
0000
,
0001
0100
0001
0000
,
1000
0010
1000
0000
,
0001
0010
0100
0000
,
1000
0001
1000
0000
,
0001
0010
0001
0000
,
0200
0000
0320
0000
,
0230
0000
0320
1030
,
0001
0000
0001
0000
,
1000
0000
1000
0000
,
0001
0010
0100
0000
,
0100
0010
0001
0000
,
1000
0000
1000
0000
,
0001
0000
0001
0000
,
1000
0010
0100
0000
,
0100
0010
1000
0001
,
1000
0100
0010
0001
,
1000
0010
0100
0001
,
1000
0100
1000
0001
,
0100
0001
1000
0000
,
0001
0100
0010
1000
,
0001
0010
0100
1000
,
0001
0100
0001
1000
,
0100
1000
0001
0001
,
0010
0000
0000
0100
0000
0000
1000
0000
,
0010
0000
0000
0100
0000
0000
0001
0000
,
1000
0000
0000
0100
0000
0000
0010
0000
,
0100
1000
0001
1000
,
0001
0100
0010
1000
,
0001
0010
0100
1000
,
0002
0000
2003
0000
,
3001
1000
0001
1000
,
0200
0000
0010
0000
,
2300
0000
0001
0000
,
3002
0000
1000
0000
,
1003
0010
0100
0001
,
2000
0000
0100
0000
,
3002
0000
0103
0010
,
1000
0000
0000
0001
0000
0000
0010
0000
,
0000
0100
0000
0000
1000
0000
0001
0000
,
1000
0000
0000
0010
0000
0000
0100
0000
,
0001
0000
0000
0000
,
1000
0100
0010
0100
,
1000
0010
0100
0010
,
1000
0001
0100
0001
,
1000
0100
0010
0000
,
0001
0100
0010
0100
,
0001
0010
0100
0010
,
0001
1000
0010
0100
,
0001
1000
0001
1000
,
0010
0000
0000
0100
0000
0000
0001
0000
,
0010
0000
0000
0100
0000
0000
1000
0000
,
0001
0000
0000
0100
0000
0000
0010
0000
,
0100
0001
1000
0001
,
1000
0100
0010
0001
,
1000
0010
0100
0001
,
2000
0000
3002
0000
,
1003
0001
1000
1001
,
0001
0000
0001
0000
,
1000
0000
1000
0000
,
0010
0010
0100
0000
,
0001
0001
1000
0100
,
1000
0000
1000
0000
,
0001
0000
0001
0000
,
0010
0010
0100
0000
,
1000
1000
0001
1001
;

//--------------- dance-single - JA JU-- ----------------
#NOTES:
     dance-single:
     JA JU--:
     Easy:
     6:
     0,0,0,0,0:
0000
0000
0000
0000
,
1000
0000
0010
0000
0100
0001
0000
1000
,
0100
0000
0010
0000
0100
1000
0001
0000
,
1000
0010
0000
0010
0200
0000
0301
0000
,
0001
0010
0000
0010
0200
0000
1300
0000
,
0001
0000
0010
0000
0100
1000
0000
0001
,
0100
0000
0010
0000
0100
0001
1000
0000
,
0001
0010
0000
0010
0200
0000
1300
0000
,
1000
0010
0000
0010
0200
0000
0301
0000
,
1000
0000
0100
0000
0010
0001
1000
0000
,
0010
0000
0100
0000
0001
0100
0001
0000
,
1000
0000
0010
0000
0100
0001
1000
0000
,
0100
0000
0010
0000
0001
1000
0001
0000
,
1000
0000
0001
0000
0010
0100
0010
0000
,
0100
0000
1000
0000
0010
0100
0010
0000
,
2000
0000
3001
0010
0000
0000
0001
0000
,
2000
0000
3001
0010
0000
0000
0100
1000
,
0010
0000
0010
0100
0000
0100
0001
0000
,
1000
0100
1000
0000
0001
0000
0100
0001
,
0010
0000
0010
0100
0000
0100
1000
0000
,
0001
0100
0001
0000
1000
0100
0010
0000
,
0001
0000
0001
1000
0000
1000
0010
0000
,
0100
0000
0001
1000
0000
1000
0001
1000
,
0002
0000
1003
0010
0000
0000
1000
0000
,
0002
0000
1003
0010
0000
0000
0100
0001
,
0020
0000
0000
0100
0000
0000
0130
0000
,
2000
0000
0000
0010
0000
0000
3010
0000
,
1000
0000
0001
0010
0000
0100
0000
1000
,
0001
0000
1000
0010
0000
0100
0001
1000
,
0200
0000
0000
0010
0000
0000
0310
0000
,
0002
0000
0000
0100
0000
0000
0103
0000
,
0001
0000
1000
0100
0000
0010
0000
0001
,
1000
0001
1000
0001
0000
0000
0000
0000
,
1000
0000
0010
0000
0100
0001
0100
0000
,
0001
0000
0010
0000
0100
1000
0100
0000
,
1000
0010
0100
0000
0010
0100
0001
0000
,
1000
0100
0010
0000
0001
0000
1000
0000
,
0001
0000
0010
0000
0100
1000
0100
0000
,
1000
0000
0010
0000
0100
0001
0100
0000
,
0001
0010
0100
0000
0010
0100
1000
0000
,
0001
0100
0010
0000
1000
0001
1000
0000
,
0010
0000
0100
0001
0000
0001
1000
0000
,
0100
0000
0010
0001
0000
0001
1000
0010
,
0100
0000
0100
0001
0000
0001
1000
0000
,
0100
0010
0001
1000
0002
0000
2003
0000
,
3001
0000
0100
0000
0010
1000
0010
0000
,
1000
0000
0100
0000
0010
0001
0010
0000
,
0001
0100
0010
1000
,
0001
1000
0001
0000
1000
0000
0001
0000
,
0010
0100
1000
1000
,
0010
0100
0001
0001
,
2000
0000
0000
0000
,
0000
0000
3001
0010
0000
0100
0000
1000
,
0001
0100
0010
0010
,
1000
0000
0100
0000
0010
0001
1000
0000
,
0010
0000
0010
0100
0000
0100
0001
0000
,
1000
0001
1000
0000
0001
0000
0001
0000
,
0010
0000
0010
0100
0000
0100
1000
0000
,
0001
1000
0000
0000
0000
0000
0000
0000
,
0001
0000
0100
0000
0010
1000
0001
0000
,
1000
0000
0100
0000
0010
0001
1000
0000
,
0010
0000
0100
0000
0001
0010
0001
0000
,
1000
0010
1000
0000
0001
0000
0010
0000
,
0100
0000
1000
0000
0010
0100
0010
0000
,
0100
0000
0001
0000
0010
0100
0010
0000
,
0001
0000
1000
0000
0010
0100
0001
0000
,
0010
0100
1000
0000
0001
1000
0001
0000
,
0010
0000
0100
1000
0000
1000
0001
0000
,
0100
0000
0010
1000
0000
1000
0001
0010
,
0100
0000
0100
1000
0000
1000
0001
0000
,
0100
0010
1000
0001
2000
0000
3002
0000
,
1003
0000
0100
0000
0010
0001
0010
0000
,
0001
0000
0100
0000
0010
1000
0010
0000
,
1000
0100
0010
0001
,
1000
0001
1000
0000
0001
0000
1001
0000
,
1000
0000
0100
0000
0010
0001
0000
1000
,
0010
0000
0100
0000
0010
1000
0001
0000
,
1000
0100
0000
0100
0020
0000
0031
0000
,
0001
0100
0000
0100
0020
0000
1030
0000
,
0001
0000
0100
0000
0010
1000
0000
0001
,
0010
0000
0100
0000
0010
0001
1000
0000
,
0001
0100
0000
0100
0020
0000
1030
0000
,
1000
0100
0000
1000
0001
0000
1001
0000
;

//--------------- dance-single - JU- JA ----------------
#NOTES:
     dance-single:
     JU- JA:
     Medium:
     7:
     0,0,0,0,0:
0000
0000
0000
0000
,
1000
0010
0100
0001
0000
0011
0000
0010
,
0001
0010
0100
1000
0000
1010
0020
0000
,
0130
0001
0100
0000
0001
0010
0001
0000
,
1000
0100
1000
0000
0010
1000
0002
0000
,
1003
0100
0010
0001
0000
0101
0000
0100
,
0001
0100
0010
1000
0000
1100
0200
0000
,
0310
0001
0010
0000
0001
0100
0001
0000
,
1000
0010
1000
0000
0100
1000
0002
0000
,
1003
0100
0010
0000
0010
0100
1000
0000
,
0010
0100
0001
0000
2000
0000
3002
0000
,
1003
0010
0100
0000
0100
0010
1000
0000
,
0100
0010
0001
0000
2000
0000
3002
0000
,
1003
0100
1000
0000
0001
0100
0001
0000
,
1000
0010
1000
0000
0001
0010
0200
0000
,
1300
0000
0010
0200
0000
0000
0301
0000
,
1000
0000
0100
0020
0000
0000
0031
1000
,
0001
0100
0010
1000
0010
0100
0001
0000
,
0010
0100
1000
0000
0001
1000
0001
0000
,
0001
0010
0100
0000
0100
0010
0001
0000
,
0100
0010
1000
0000
0001
1000
0001
0000
,
0001
0100
0001
0000
1000
0100
1000
0000
,
0001
0010
0001
0000
1000
0010
0200
0000
,
0301
0000
0010
0200
0000
0000
1300
0000
,
0001
0000
0100
0020
0000
0000
1030
0001
,
2000
0000
0000
0010
0000
0000
3010
0100
,
0002
0000
0000
0010
0000
0000
0013
0100
,
1000
0010
0100
0002
0000
0203
0000
0320
,
0000
1030
0100
0020
0000
0032
1003
0000
,
0002
0000
0000
0010
0000
0000
0013
0100
,
2000
0000
0000
0010
0000
0000
3010
0100
,
0001
0010
0100
2000
0000
3200
0000
0320
,
0000
0031
1000
0001
0000
0000
0000
0000
,
1000
0100
0010
0001
1000
0001
0010
0100
,
1000
0001
0100
0010
1000
0010
0100
0001
,
1000
0000
1000
0100
0000
0100
0010
0001
,
1000
0000
1000
0010
0000
0010
0100
0001
,
1000
0010
0100
0001
1000
0001
0100
0010
,
1000
0001
0010
0100
1000
0100
0010
0001
,
1000
0000
1000
0010
0000
0010
0100
0001
,
1000
0100
1000
0000
0001
0100
0001
0010
,
0100
0000
1000
0100
0000
1000
0001
0100
,
0001
0000
0100
0001
0000
0100
0001
1000
,
0100
0000
0010
0001
0000
0100
0010
1000
,
0001
0010
0100
1000
0002
0000
2003
0000
,
3001
0100
0010
0000
0010
0100
0001
0000
,
1000
0100
0010
0000
0010
0100
1000
0000
,
0002
0100
2003
0100
,
3001
0100
0001
0000
1000
0100
1000
0000
,
0010
0100
0001
0020
0001
0000
0031
0000
,
0010
0100
2000
0000
0010
0000
3010
0100
,
0002
1000
1000
1000
,
1003
0000
0001
0000
0010
0100
1000
0001
,
0010
0100
1000
0020
1000
0000
1030
0000
,
0010
0100
0001
0010
0100
1000
0001
0000
,
1000
0000
0100
1000
0000
1000
0010
0100
,
0001
0010
0001
0000
0010
0010
0100
1000
,
0001
0000
0100
0001
0000
0001
0010
0100
,
1000
0001
0000
0000
0000
0000
0000
0000
,
1000
0010
1000
0000
0010
1000
0010
0000
,
0100
0001
0100
0000
0001
0100
0001
0000
,
0010
0001
0010
0000
0001
0010
0001
0000
,
0010
0100
1000
0000
0002
0000
2003
0000
,
3001
0010
0001
0000
0010
0001
0010
0000
,
0100
1000
0100
0000
1000
0100
1000
0000
,
0010
0100
0001
0000
0010
0100
1000
0000
,
0001
0100
0010
0000
1000
0100
1000
0010
,
0100
0000
0001
0100
0000
0001
1000
0100
,
1000
0000
0100
1000
0000
0100
1000
0001
,
0100
0000
0010
1000
0000
0100
0010
0001
,
1000
0010
0100
0001
2000
0000
3002
0000
,
1003
0100
0010
0000
0010
0100
1000
0000
,
0001
0100
0010
0000
0010
0100
0001
0000
,
2000
0100
3002
0100
,
1003
0001
1000
0001
1000
0001
1001
0000
,
1000
0010
0100
0001
0000
0011
0000
0010
,
0001
0010
0100
1000
0000
1010
0020
0000
,
0130
0001
0100
0000
0001
0010
0001
0000
,
1000
0100
1000
0000
0010
1000
0002
0000
,
1003
0100
0010
0001
0000
0101
0000
0100
,
0001
0100
0010
1000
0000
1100
0200
0000
,
0310
0001
0010
0000
0001
0100
0001
0000
,
1000
0010
1000
0000
0100
1000
0001
0000
;

//--------------- dance-single - XO JA DS ----------------
#NOTES:
     dance-single:
     XO JA DS:
     Hard:
     9:
     0,0,0,0,0:
0000
0000
0000
1001
,
1000
0010
0100
1000
0000
1000
0000
1000
,
0100
0000
0001
0000
0010
0000
1000
0000
0000
0000
1000
0000
0010
0001
0010
0000
,
0001
0100
0010
1000
0010
0000
1010
0000
,
1000
0010
0100
0001
0010
0000
0011
0000
,
0001
0100
0010
0001
0000
0001
0000
0001
,
0010
0000
1000
0000
0100
0000
0001
0000
0000
0000
0001
0000
0100
1000
0100
0000
,
1000
0010
0100
0001
0100
0000
0101
0000
,
0001
0100
0010
1000
0001
0000
1001
0000
,
1000
0010
0100
0000
0001
0010
0001
2000
,
3000
1000
0010
0100
0001
0100
0010
1000
,
0001
0010
0100
0000
1000
0010
1000
0002
,
0003
0001
0010
0100
1000
0010
2000
0100
,
3001
0010
0100
0000
1000
0010
1000
0002
,
0003
0001
1000
0010
0100
0001
0010
0100
,
0002
0000
0103
0010
0001
0000
0100
0010
,
2000
0000
3010
0100
0001
1000
0100
0010
,
0001
0100
0001
1000
0100
0100
1000
0020
,
0000
0130
0010
0100
0001
0010
0200
0000
,
1300
0100
1000
0001
0100
0100
0001
0020
,
0000
0130
0010
0100
1000
0010
2000
0100
,
3001
0010
0100
1000
0100
0010
0001
2000
,
0000
3010
0100
0001
1000
0001
0010
0100
,
0002
0000
0103
0010
0001
0000
0010
0001
,
2000
0000
3010
0100
0001
1000
0100
0010
,
0002
0000
0013
0100
0000
1000
0001
0100
,
0020
0000
1030
0100
0000
0010
0001
1000
,
0010
0100
0001
0020
0000
0230
0000
0302
,
0000
0103
1000
0001
0100
0010
1000
0001
,
2000
0000
3010
0100
0000
0001
1000
0100
,
0020
0000
0031
0100
0000
0010
1000
0001
,
0010
0100
1000
0020
0000
0230
0000
2300
,
3100
0001
1000
0200
0000
0320
0000
0032
,
1003
0010
0100
0010
0100
0100
0001
1000
,
0001
0010
0100
0010
0100
0100
1000
0001
,
0200
0010
0301
1000
0100
1000
0001
0001
,
0020
0100
0031
1000
0010
0100
1000
0100
,
0001
0010
0100
0010
0100
0100
1000
0001
,
1000
0010
0100
0010
0100
0100
0001
1000
,
0200
0010
1300
0001
0100
0001
1000
1000
,
0010
0100
0101
0000
0001
0010
0110
0000
,
1001
0000
1000
0010
0000
0001
0010
1000
,
0001
0000
1000
0100
0000
0001
0100
1000
,
0001
0100
0001
1000
0100
1000
0010
0100
,
0001
0000
0100
0000
0010
0000
1000
0000
0100
0010
0001
0000
1000
0000
0001
1000
,
0001
0100
0010
0100
0010
0010
1000
0001
,
1000
0100
0010
0100
0010
0010
0001
1000
,
0002
0000
0103
0010
2000
0000
3100
0010
,
0001
1000
0001
1000
0001
1000
0020
0000
,
0130
0001
0100
0001
0000
0001
0010
0100
,
1000
0100
1000
0100
1000
0010
1000
0010
,
0100
0001
0100
0001
1000
0001
1000
0100
,
0020
0000
0000
0030
0001
0000
1000
0000
0000
0000
0010
0000
0100
0000
0001
0000
,
0010
0100
0010
0100
0010
0100
0010
0100
,
1000
0001
1000
0010
0100
0001
0011
0000
,
0110
0000
0100
1100
0000
1000
1010
0000
,
0010
0000
0110
0000
0000
0000
0100
0000
0001
0100
0001
0000
1000
0000
0100
0000
,
0110
0000
0001
1001
0000
1000
0110
0000
,
1001
0000
0000
0000
0000
0000
0002
0000
0000
0000
0203
0000
0000
0300
0020
0000
,
1030
0100
0001
0100
0010
0100
1000
1000
,
0001
0100
1000
0100
0010
0100
0001
0001
,
1000
0100
0010
0100
1000
0010
0100
0010
,
1000
0000
0001
0000
0100
0000
0001
0000
0010
0000
0100
0000
1000
0000
0001
1000
,
0001
0100
1000
0100
0010
0100
0001
1000
,
1000
0100
0010
0100
0001
0100
1000
0001
,
0100
0100
0010
0010
1000
1001
1001
0001
,
0100
0010
1010
0000
1000
0100
0110
0001
,
1001
0000
0001
0010
0000
1000
0010
0001
,
1000
0000
0001
0100
0000
1000
0100
0001
,
1000
0100
1000
0001
0100
0001
0010
0100
,
1000
0000
0100
0000
0010
0000
0001
0100
0010
1000
0001
0000
1000
0010
0100
0001
,
1000
0100
0010
0100
0010
0010
0001
1000
,
0001
0100
0010
0100
0010
0010
1000
0001
,
2000
0000
3100
0010
0002
0000
0103
0010
,
1000
0001
1000
0001
1000
0001
1001
0000
,
1000
0100
0010
1000
0000
1000
0000
1000
,
0010
0000
0001
0000
0100
0000
1000
0000
0000
0000
1000
0000
0100
0001
0100
0000
,
0001
0010
0100
1000
0100
0000
1100
0000
,
1000
0100
0010
0001
0100
0000
0101
0000
,
0001
0010
0100
0001
0000
0001
0000
0001
,
0100
0000
1000
0000
0010
0000
0001
0000
0010
1000
0010
0000
1000
0100
0010
0001
,
1000
0010
0100
0001
0010
0000
0011
0000
,
0001
0100
0010
1000
0001
1000
1001
0000
;

//--------------- dance-single - SJ XO ----------------
#NOTES:
     dance-single:
     SJ XO:
     Challenge:
     10:
     0,0,0,0,0:
0000
0000
0000
1001
,
1000
0010
0100
0101
0000
0011
0000
0011
,
0010
0000
0100
0000
1000
0000
1100
0000
0000
0000
1010
0000
0010
0100
0001
1000
,
0100
0010
0011
0001
0100
0010
1010
1000
,
0100
1000
1010
0010
0100
0001
2000
0000
,
3001
0010
0100
1100
0000
1010
0000
1010
,
0010
0000
0100
0000
0001
0000
0101
0000
0000
0000
0011
0000
0010
0100
1000
0001
,
0100
0010
1010
1000
0100
0010
0011
0001
,
0100
0001
0011
0010
0100
1000
1002
0000
,
1003
1000
0100
0010
0001
0100
0010
0002
,
0003
0000
0010
0000
1000
0000
0001
0000
0010
0000
0100
0000
2000
3000
0000
0000
,
0001
0001
0100
0010
1000
0100
0010
2000
,
3000
0000
0010
0000
0001
0000
1000
0000
0010
0000
0100
0000
0002
0003
0010
0000
,
0100
1000
0010
0100
0001
1000
0001
0020
,
0030
0100
1000
0010
0100
0001
0010
0100
,
2000
0000
3100
0002
0003
0100
1000
0001
,
2000
0000
3000
0000
0010
0000
0002
0000
0000
0003
0010
0000
1000
0000
0001
0000
,
1000
0100
0001
0100
0010
0001
1000
0010
,
0100
1000
0100
0001
0010
0100
2000
3000
,
0001
0100
1000
0100
0010
1000
0001
0010
,
0100
0001
0100
1000
0010
0100
0002
0000
,
1003
0100
0010
0001
0100
0010
1000
0100
,
1000
0010
0100
0001
0010
0100
1000
0000
,
0002
0000
0103
2000
3000
0100
0001
1000
,
0002
0000
0003
0000
0010
0000
2000
0000
0000
3000
0010
0000
0001
0000
1000
0000
,
1001
0001
0100
0020
0000
0130
0010
1000
,
1100
0100
0010
0002
0000
0103
0001
1000
,
1010
0010
0100
0002
0000
2003
0000
3200
,
0000
0310
0001
2000
0000
3010
0100
0001
,
1001
1000
0100
0020
0000
0130
0010
0001
,
0101
0100
0010
2000
0000
3100
1000
0001
,
0011
0010
0100
2000
0000
3002
0000
0203
,
0300
0110
1010
1002
0000
2003
0000
3001
,
1000
0010
0110
0100
0001
0010
0110
0100
,
1000
0001
0101
0100
0001
0010
0011
0001
,
1000
0010
0100
0001
0010
0100
1000
0001
,
1000
0010
0100
0002
0000
1003
0010
1000
,
0001
0010
0110
0100
1000
0010
0110
0100
,
0001
1000
1100
0100
1000
0010
1010
1000
,
0001
0010
0100
1000
0010
0100
0001
0010
,
0001
0011
0110
0100
1100
1000
0101
0001
,
1001
0000
1000
1010
0000
0010
0110
0100
,
0101
0000
0001
0011
0000
0010
0110
0100
,
1100
0000
0100
0110
0000
0010
0011
0001
,
0101
0000
0100
0000
0010
0000
1010
0000
1001
0000
0001
0010
0100
1000
0001
0000
,
1000
0001
0011
0010
0100
1000
1010
0010
,
0100
0001
1001
1000
0100
0010
0011
0001
,
0201
0000
0310
0100
2000
0000
3100
0001
,
1000
0001
1000
0002
0103
0010
1000
0000
,
0002
0000
0010
0000
0010
0000
0013
0100
,
2000
0000
0010
0000
0010
0000
3010
0100
,
0002
1000
1000
1000
,
1003
0000
0100
0010
0000
0001
0000
1000
,
0002
0100
0100
0103
,
0010
1000
0100
0010
0001
0010
0011
0001
,
1001
1000
0010
0110
0100
0001
0011
0010
,
0100
0000
1100
0000
1010
0000
0101
0000
0001
0100
0010
1000
0001
0010
0100
0000
,
1100
1000
0010
0110
0100
0001
0011
0110
,
1100
0000
1000
0000
0000
0000
0020
0000
0000
0030
0200
0000
0000
0300
0002
0000
,
1003
0100
0110
0010
0001
0100
0110
0010
,
1000
0010
0110
0100
0001
0010
0110
0100
,
1000
0010
1000
0010
0100
1000
0100
1000
,
0100
0000
0001
0000
1000
0000
0200
0300
0001
0000
0200
0300
1000
0000
0001
1000
,
0001
0100
0110
0010
1000
0100
0110
0010
,
0001
0010
0110
0100
1000
0010
0110
0100
,
0001
0010
0001
0010
0100
0110
1100
1000
,
1001
1010
0110
0100
0101
0001
1100
1000
,
1001
0000
0001
0011
0000
0010
0110
0100
,
1100
0000
1000
1010
0000
0010
0110
0100
,
0101
0000
0100
0110
0000
0010
1010
1000
,
1100
0000
0110
0000
0010
0000
0001
0010
0100
1000
0001
1000
0001
0000
0100
0000
,
0010
1000
1010
0010
0100
0001
0011
0010
,
0100
1000
1001
0001
0100
0010
1010
1000
,
1200
0000
0310
0100
0002
0000
0103
1000
,
0001
1000
0001
1000
0001
1000
1001
0000
,
0001
0010
0100
1100
0000
1010
0000
1010
,
0010
0000
0100
0000
0001
0000
0101
0000
0000
0000
0011
0000
0010
0100
1000
0001
,
0100
0010
1010
1000
0100
0010
0011
0001
,
0100
0001
0011
0010
0100
1000
0002
0000
,
1003
0010
0100
0101
0000
0011
0000
0011
,
0010
0000
0100
0000
1000
0000
1010
0000
0010
0100
0010
0100
0001
1000
0100
0010
,
0001
0010
0011
0001
0100
0010
1010
1000
,
0100
1000
1010
0010
0100
0001
2002
0000
,
0000
0000
3003
0000
;
