#TITLE:Do It;
#SUBTITLE:;
#ARTIST:underscores;
#TITLETRANSLIT:;
#SUBTITLETRANSLIT:;
#ARTISTTRANSLIT:;
#GENRE:;
#CREDIT:Evergreen;
#MUSIC:Do It - Edit.ogg;
#BANNER:Do It.png;
#BACKGROUND:;
#CDTITLE:;
#SAMPLESTART:0.000;
#SAMPLELENGTH:0.000;
#SELECTABLE:YES;
#OFFSET:-0.023;
#BPMS:0.000=248.000000
,1.000=248.000000
,2.000=248.000000
,3.000=124.000000
,4.000=248.000000
,5.000=248.000000
,6.000=248.000000
,7.000=124.000000
,8.000=248.000000
,9.000=248.000000
,10.000=248.000000
,11.000=124.000000
,12.000=248.000000
,13.000=248.000000
,14.000=248.000000
,15.000=124.000000
,88.000=248.000000
,88.250=248.000000
,88.500=124.000000
,89.000=248.000000
,89.250=248.000000
,89.500=124.000000
,90.000=248.000000
,90.250=248.000000
,90.500=248.000000
,91.000=124.000000
,92.000=248.000000
,92.250=248.000000
,92.500=124.000000
,93.000=248.000000
,93.250=248.000000
,93.500=124.000000
,220.000=248.000000
,220.250=248.000000
,220.500=248.000000
,220.750=248.000000
,221.000=248.000000
,221.250=248.000000
,221.500=248.000000
,221.750=248.000000
,222.000=248.000000
,222.250=248.000000
,222.500=124.000000
,240.000=248.000000
,240.500=124.000000
;
#STOPS:0.000=0.242
,1.000=0.242
,2.000=0.242
,4.000=0.242
,5.000=0.242
,6.000=0.242
,8.000=0.242
,9.000=0.242
,10.000=0.242
,12.000=0.242
,13.000=0.242
,14.000=0.242
,88.000=0.060
,88.250=0.060
,89.000=0.060
,89.250=0.060
,90.000=0.060
,90.250=0.060
,90.500=0.121
,92.000=0.060
,92.250=0.060
,93.000=0.060
,93.250=0.060
,220.000=0.060
,220.250=0.060
,220.500=0.060
,220.750=0.060
,221.000=0.060
,221.250=0.060
,221.500=0.060
,221.750=0.060
,222.000=0.060
,222.250=0.060
,240.000=0.121
;
#DISPLAYBPM:124.000;
#BGCHANGES:;
#FGCHANGES:;

//--------------- dance-single - BR FS JU MD- (XMOD) ----------------
#NOTES:
     dance-single:
     BR FS JU MD- (XMOD):
     Hard:
     10:
     0,0,0,0,0:
0000
0000
0000
0MM0
,
0000
0000
0000
0MMM
,
0000
0000
0000
MMMM
,
M000
0000
0000
0000
00M0
0000
0000
0000
0M00
0000
0000
0000
000M
0000
1000
0001
,
0100
0000
000M
0100
1000
0000
0001
0000
2020
3030
0001
0000
2020
3030
0001
0000
,
1000
0100
0100
0001
1000
0000
0010
0000
0100
0000
0001
0000
0021
0000
0000
0000
,
0130
0000
M000
0100
0001
0000
1000
0000
0022
0033
1000
0000
0022
0033
1000
0000
,
0001
0100
0100
1000
0001
0000
0010
0000
0100
0000
1000
0010
0100
0000
0001
0000
,
1000
0000
0100
0010
0001
0000
1000
0000
0022
0033
0100
0000
0022
0033
0100
0000
,
0001
0000
0010
0100
1000
0000
0001
0000
0100
0000
0010
0000
2010
0000
0000
0000
,
3001
0000
0100
0010
1000
0000
0001
0000
2020
3030
0100
0000
2020
3030
0100
0000
,
1000
0000
0010
0100
0001
0000
1000
0000
0100
0000
0010
0001
1000
0000
0010
0100
,
0001
0000
0010
0100
1000
0000
0001
0000
2200
3300
0010
0000
2200
3300
0010
0000
,
1000
0000
0100
0010
0001
0000
1000
0000
0010
0000
0100
0000
0102
0000
0000
0000
,
1003
0000
0010
0100
0001
0000
1000
0000
0202
0303
0010
0000
0202
0303
0010
0001
,
0000
0001
0100
0010
1000
0000
0001
0000
0010
0000
0100
0000
1000
0001
1000
0000
,
0010
M000
0010
0100
1000
0000
0001
0000
2200
3300
0001
0000
2200
3300
0001
1000
,
0100
M000
0100
0001
1000
0000
0010
0000
0100
0000
0001
0000
0011
0000
0010
0000
,
0100
M000
0100
0010
1000
0000
0001
0000
2020
3030
0001
0000
2020
3030
0001
0000
,
0010
0000
0100
1000
0010
0100
0001
0000
1000
0000
0001
0000
1000
0100
0100
0001
,
0010
000M
0010
0100
0001
0000
1000
0000
0202
0303
1000
0000
0202
0303
1000
0001
,
0100
000M
0100
1000
0001
0000
0010
0000
0100
0000
1000
0000
1010
0000
0010
0000
,
0100
0001
0100
0000
0001
0010
0001
0000
1000
0010
1000
0000
MMMM
0000
0000
0000
,
0001
0100
0001
0000
1000
0100
1000
0000
0001
0000
0100
0000
0010
0000
1000
0000
,
0010
M000
0010
0100
1000
0000
0010
0100
0022
0033
1000
0000
0202
0303
1000
0000
,
0100
M000
0100
0001
1000
0000
0010
0010
0001
0000
1000
0000
1001
0000
0000
0000
,
0001
0100
0100
1000
0010
0000
0100
0001
2020
3030
0001
0000
2200
3300
0001
0000
,
0100
000M
0100
1000
0001
0000
0010
0010
1000
0000
0001
0000
0100
0010
1000
0001
,
0010
000M
0010
1000
0100
0000
1000
0000
0202
0303
1000
0000
0022
0033
1000
0000
,
0010
0100
0001
1000
0001
0000
0100
0000
0010
0000
1000
0000
1010
0000
0000
0000
,
0010
0000
0100
0001
0010
0000
0100
0000
2020
3030
0001
0000
2200
3300
0001
0000
,
0100
0010
1000
0000
0001
0010
0100
0000
1000
0000
0001
0000
0000
0000
0001
0000
,
1100
0000
0010
0100
0001
0000
0010
0000
0202
0303
1000
0000
0202
0303
1000
0000
,
0101
0000
0010
0100
1000
0000
0010
0000
2200
3300
0001
0000
1001
0000
1000
0000
,
0011
0000
0100
0010
1000
0000
0100
0000
2020
3030
0001
0000
2020
3030
0001
0000
,
1010
0000
0100
0010
0001
0000
0100
0000
0010
0010
0001
0000
1000
0000
0001
0000
,
1100
0000
0010
0100
0001
0000
0010
0000
0202
0303
1000
0000
0022
0033
1000
0000
,
0101
0000
0010
0100
1000
0000
0010
0000
2200
3300
0001
0000
1001
0000
1000
0000
,
0011
0000
0100
0010
1000
0000
0100
0000
2020
3030
0001
0000
2200
3300
0001
0000
,
1010
0000
0100
0010
0001
0000
0100
0000
0010
0010
0001
0000
1000
0001
0100
0000
,
0102
0000
0103
0001
2000
0000
3100
0010
,
0002
0000
1003
0010
0100
0001
1000
0100
,
0010
0010
0000
0100
1000
0010
0100
0001
,
1000
1000
0000
0001
0100
0010
1000
0100
,
2100
0000
3100
1000
0002
0000
0103
0010
,
2000
0000
3001
0010
0100
1000
0001
0100
,
0010
0010
0000
0100
0001
0010
0100
1000
,
0001
0000
0000
0100
0001
0000
0010
0000
0011
0000
0000
0000
0001
0000
0010
0000
,
0200
0300
0000
0000
0000
0000
2000
3000
0000
0000
0010
0000
0100
0000
0001
0000
,
0200
0300
0000
0000
0000
0000
0002
0003
0000
0000
0010
0000
0100
0000
1000
0000
,
0200
0300
0000
0000
0000
0000
2000
3000
0000
0000
0010
0000
0100
0000
0001
0000
,
2000
0000
0000
0000
3000
0001
0000
0010
,
0101
1000
0100
0000
1000
0010
1000
0000
0001
0010
0001
0000
1001
0000
0000
0000
,
0001
0100
0001
0000
1000
0100
1000
0000
0010
0100
0001
0000
1001
0000
0000
0000
,
0001
0010
0100
0000
1000
0010
0100
0000
0001
0010
0100
0000
1001
0000
0000
0000
,
1000
0001
1000
0001
1000
0001
1000
0001
1000
0001
1000
0000
0020
0000
0000
0000
,
1130
0000
0001
0010
0100
000M
0100
0001
2200
3300
0001
0000
2020
3030
0100
1000
,
0101
0000
1000
0010
0100
M000
0100
1000
0202
0303
1000
0000
0010
0100
0001
1000
,
0101
1000
0100
0010
M000
0010
1000
0001
2200
3300
0001
0000
2020
3030
0100
1000
,
0010
0010
0001
1000
0001
0000
1000
0000
0202
0303
1000
0000
0022
1033
0001
1000
,
0000
0000
0001
0000
0110
0000
0100
1000
0022
0033
1000
0000
0022
0033
0100
0000
,
0001
0000
0010
0100
1000
0100
0100
0001
2020
3030
0001
0000
2020
3030
0100
0000
,
1000
0000
0010
0100
0001
0000
1000
0000
0202
0303
0010
0000
0202
0303
1000
0000
,
0001
0000
0100
0000
0010
1000
0001
0000
1000
0000
0001
0000
0000
0000
0001
0000
,
0010
0000
0100
1000
0100
0000
2000
0000
0000
0000
3010
0000
0100
0000
0100
0000
,
0001
0000
0100
0001
1000
0000
0100
0010
0001
0000
1000
0000
0010
0100
0001
0000
,
2000
0000
0000
0000
3001
0000
0100
0000
0022
0033
1000
0000
0022
0033
1000
0000
,
0011
0000
0100
0010
1000
0000
0100
0000
0010
0010
1000
0000
0001
0000
1000
0000
,
0101
0000
0010
0100
1000
0000
0010
0000
2200
3300
0001
0000
2020
3030
0001
0000
,
1100
0000
0010
0100
0001
0000
0010
0000
0202
0303
1000
0000
1001
0000
0001
0000
,
1010
0000
0100
0010
0001
0000
0100
0000
0022
0033
1000
0000
0202
0303
1000
0000
,
0011
0000
0100
0010
1000
0000
0100
0000
0010
0010
1000
0000
0001
1000
0100
0000
;

//--------------- dance-single - BxF JU KS RH- DS- MD- (XMOD) ----------------
#NOTES:
     dance-single:
     BxF JU KS RH- DS- MD- (XMOD):
     Challenge:
     11:
     0,0,0,0,0:
0000
0000
0000
0MM0
,
0000
0000
0000
0MMM
,
0000
0000
0000
MMMM
,
M000
0000
0000
0000
00M0
0000
0000
0000
0M00
0000
0000
0000
000M
0000
1000
0001
,
1100
0000
0000
0001
1010
000M
0020
0000
1100
0030
M020
0000
0101
0030
001M
0000
,
1100
0010
0010
0001
1000
0000
0010
0000
1100
0000
0001
0000
2001
0000
0000
0000
,
3101
0010
0010
1000
0011
0000
M020
0000
0101
0030
002M
0000
1100
0030
M010
0000
,
0101
0010
0010
1000
0001
0000
0010
0000
0101
0000
1000
0000
1002
0000
0000
0000
,
1013
0100
0100
0001
1000
0000
0010
0000
2200
3300
0001
0000
2200
3300
0001
0000
,
0010
0100
0100
0001
0010
0000
0100
0000
1000
0000
0010
0000
2010
0000
0000
0000
,
3011
0100
0100
1000
0001
0000
0010
0000
0202
0303
1000
0000
0202
0303
1000
0000
,
0010
0100
0100
1000
0001
0000
0010
0000
0100
0000
0001
0000
0100
0000
1000
0001
,
1100
0010
0010
0001
1000
0000
0100
0000
2020
3030
0001
0000
2020
3030
0001
0000
,
0100
0010
0010
0001
0100
0000
0010
0000
1000
0000
0100
0000
2100
0000
0000
0000
,
3101
0010
0010
1000
0001
0000
0100
0000
0022
0033
1000
0000
0022
0033
1000
0100
,
0010
0010
1000
0000
0001
0000
0100
0000
0010
0000
1000
0000
0100
0100
0001
0000
,
1010
0100
0100
0001
1000
0000
0010
0000
2200
3300
0001
0000
2200
3300
0010
1000
,
0101
0010
0100
0100
0001
0000
1000
0000
0010
M000
0010
0000
1001
0000
1000
0000
,
0011
0100
0100
1000
0001
0000
0010
0000
0202
0303
1000
0000
0202
0303
0010
0001
,
1100
0010
0100
0001
0000
0001
0010
0000
0100
0000
1000
0000
0011
0100
0001
0000
,
1100
0010
0010
0001
1000
0000
0100
0000
2020
3030
0001
0000
2020
3030
0100
1000
,
0011
0100
0010
0010
0001
0000
1000
0000
0100
M000
0100
0000
1001
0000
0001
0000
,
1100
0001
1100
0000
0011
1000
0011
0000
1010
0001
1010
0000
MMMM
0000
0000
0000
,
0011
0100
0011
0000
1010
0100
1010
0000
0001
0000
0100
0000
0010
0000
1000
0000
,
0011
M000
0010
0001
1000
0000
0100
0200
0011
0300
02M0
0000
1310
0000
0001
0000
,
1010
0100
0100
0001
1000
0000
0010
0010
0001
0000
0100
0000
0102
0000
0000
0000
,
1013
0100
0100
0001
1100
0000
0200
0000
1010
0300
02M0
0000
0311
0000
0100
0000
,
0011
0100
0100
1000
0101
0000
0010
0000
0001
0000
1000
0000
0010
0100
0100
1000
,
0101
M000
0100
0001
1000
0000
0010
0020
0101
0030
002M
0000
1130
0000
0001
0000
,
1100
0010
0010
0001
1000
0000
0100
0100
0001
0000
0010
0000
0012
0000
0000
0000
,
1103
0010
0010
0001
1010
0000
0020
0000
1100
0030
M020
0000
0131
0000
1000
0000
,
0101
0010
0010
1000
0010
0100
1000
0000
0100
0000
0001
0000
0000
0000
0001
0000
,
1100
0000
0000
000M
0000
0000
0100
0000
0000
1000
0000
0000
0011
0000
0000
M000
0000
0000
0010
0000
0000
0000
0000
0000
0202
0000
0303
0000
0000
0000
0010
0000
0000
0000
0000
0000
0202
0000
0303
0000
0000
0000
1000
0000
0000
0000
0000
0000
,
0011
0000
0000
M000
0000
0000
0010
0000
0000
0001
0000
0000
0010
0000
0000
0100
0000
0000
1000
0000
0000
0000
0000
0000
0022
0000
0033
0000
0000
0000
0100
0000
0000
0000
0000
0000
0110
0000
0000
0000
0000
0000
0010
0000
0000
1000
0000
0000
,
0101
0000
0000
M000
0000
0000
0100
0000
0000
0001
0000
0000
1010
0000
0000
000M
0000
0000
0010
0000
0000
0000
0000
0000
2200
0000
3300
0000
0000
0000
0010
0000
0000
0000
0000
0000
2200
0000
3300
0000
0000
0000
0001
0000
0000
0000
0000
0000
,
1010
000M
0010
1000
0010
0100
0001
0000
1010
0000
0001
0000
1100
0010
0100
0001
,
1010
0000
0000
000M
0000
0000
0010
0000
0000
1000
0000
0000
0101
0000
0000
M000
0000
0000
0100
0000
0000
0000
0000
0000
0022
0000
0033
0000
0000
0000
0100
0000
0000
0000
0000
0000
0022
0000
0033
0000
0000
0000
1000
0000
0000
0000
0000
0000
,
0101
0000
0000
M000
0000
0000
0100
0000
0000
0001
0000
0000
0100
0000
0000
0010
0000
0000
1000
0000
0000
0000
0000
0000
0202
0000
0303
0000
0000
0000
0010
0000
0000
0000
0000
0000
0110
0000
0000
0000
0000
0000
0100
0000
0000
1000
0000
0000
,
0011
0000
0000
M000
0000
0000
0010
0000
0000
0001
0000
0000
1100
0000
0000
000M
0000
0000
0100
0000
0000
0000
0000
0000
2020
0000
3030
0000
0000
0000
0100
0000
0000
0000
0000
0000
2020
0000
3030
0000
0000
0000
0001
0000
0000
0000
0000
0000
,
1100
000M
0100
1000
0100
0010
0001
0000
1100
0000
0001
0000
1010
0100
0100
0001
,
2100
0000
0010
3001
2010
0000
0100
3001
,
1100
0010
0100
0001
1010
0100
0010
0001
,
1100
000M
0100
1000
0010
0000
1000
0000
2010
0000
3001
0000
1000
0000
1000
0000
,
0101
0000
0100
0001
0010
0000
0001
0000
0012
0000
1003
0000
0011
0000
1000
0000
,
0102
0000
0010
1003
0012
0000
0100
1003
,
0101
0010
0100
1000
0011
0100
0010
1000
,
0101
M000
0100
0001
0010
0000
0001
0000
0012
0000
1003
0000
0001
0000
0001
0000
,
1100
0000
0100
1000
0010
0000
1000
0000
2010
0000
3001
0000
1010
0000
0001
0000
,
0002
0003
0000
0020
0030
0100
1000
0001
,
0100
0000
0000
0002
0000
0000
0003
0000
0000
0020
0000
0000
0030
0000
0000
0100
0000
0000
1000
0000
0000
0001
0000
0000
,
0100
0000
0000
0000
0000
0000
0001
0000
0000
0000
0000
0000
0000
0000
0000
0000
0000
0000
0020
0000
0000
0000
0000
0000
0030
0000
0000
0000
0000
0000
0100
0000
0000
0000
0000
0000
1000
0000
0000
0000
0000
0000
0001
0000
0000
0000
0000
0000
,
0200
0000
0000
0000
0000
0000
0000
0000
0000
0000
0000
0000
0310
0000
0000
0000
0000
0000
0000
0000
1000
0000
0000
0000
0000
0000
0000
0000
0001
0000
0000
0000
0000
0000
0000
0000
0010
0000
0000
0100
0000
0000
0000
0000
0000
1000
0000
0000
0000
0000
0000
0000
0000
0000
0010
0000
0000
0100
0000
0000
0002
0000
0000
0000
0000
0000
0000
0000
0000
0000
0000
0000
1003
0000
0000
0000
0000
0000
0100
0000
0000
0000
0000
0000
0100
0000
0000
0000
0000
0000
0001
0000
0000
0000
0000
0000
,
1010
0100
0010
0000
0001
0010
0001
0000
1000
0010
1000
0000
0020
0000
0000
0000
,
0130
0001
0100
0000
0001
0010
0001
0000
1000
0010
1000
0000
0020
0000
0000
0000
,
0130
0001
0100
0000
0001
0010
0001
0000
1000
0100
1000
0000
0010
0100
0001
1000
,
0101
1100
0101
1100
0101
1100
0101
1100
0101
1100
0101
0000
0020
0000
0000
0000
,
1131
0000
0000
0001
1010
000M
0010
0200
0011
0300
02M0
0000
1310
M200
0301
1000
,
0100
0000
0000
0100
0000
0000
0001
0000
0000
1000
0000
0000
0001
0000
0000
0000
0000
0000
0010
0000
0000
0100
0000
0000
1010
0000
0000
0000
0000
0000
0100
0000
0000
0000
0000
0000
1000
0000
0010
0000
0100
0000
0001
0000
0000
1000
0000
0000
,
0101
0000
0000
1000
0011
M000
0010
0200
1010
0300
M200
0000
0311
020M
1300
0001
,
0100
0000
0000
0100
0000
0000
1000
0000
0000
0001
0000
0000
1000
0000
0000
0000
0000
0000
0010
0000
0000
0100
0000
0000
0011
0000
0000
0000
0000
0000
0100
0000
0000
0000
0000
0000
0001
0000
0010
0000
0100
0000
1000
0000
0000
0001
0000
0000
,
0000
0000
1010
0000
0101
0000
1000
0020
1100
0030
M020
0000
0101
0030
002M
0000
,
1030
0010
0010
0001
1000
0001
0100
0000
0010
1000
0100
0100
0011
0100
0100
1000
,
0011
0000
0000
0000
0000
0000
1000
0000
0100
0000
0010
0000
0101
0000
0000
M000
0000
0000
0100
0000
0000
0020
0000
0000
1100
0000
0000
0030
0000
0000
M020
0000
0000
0000
0000
0000
0131
0000
0000
002M
0000
0000
1030
0000
0000
0001
0000
0000
,
0010
0100
0010
0000
0001
0100
1000
0000
0010
0000
0100
0000
0000
0000
0001
0000
,
2000
0000
0000
3100
1000
0000
0020
0000
0130
0000
0010
0000
0010
0000
0100
0000
,
0002
0000
0000
0000
0000
0000
0000
0000
0000
0103
0000
0000
0001
0000
0000
0000
0000
0000
0010
0000
0100
0000
0010
0000
0100
0000
0000
0000
0000
0000
0010
0000
0000
0000
0000
0000
0100
0000
0000
1000
0000
0000
0010
0000
0000
1000
0000
0000
,
0002
0000
0000
0000
0000
0000
0000
0000
0000
0000
0000
0000
1103
0000
0000
000M
0000
0000
0100
0000
0000
0000
0000
0000
2020
0000
3030
0000
0000
0000
0100
0000
0000
0000
0000
0000
2020
0000
3030
0000
0000
0000
0001
0000
0000
0000
0000
0000
,
1100
000M
0100
1000
0100
0010
0001
0000
1100
0000
0001
0000
1010
0100
0010
0001
,
1100
0000
0000
000M
0000
0000
0100
0000
0000
1000
0000
0000
0011
0000
0000
M000
0000
0000
0010
0000
0000
0000
0000
0000
0202
0000
0303
0000
0000
0000
0010
0000
0000
0000
0000
0000
0202
0000
0303
0000
0000
0000
1000
0000
0000
0000
0000
0000
,
0011
0000
0000
M000
0000
0000
0010
0000
0000
0001
0000
0000
0010
0000
0000
0100
0000
0000
1000
0000
0000
0000
0000
0000
0022
0000
0033
0000
0000
0000
0100
0000
0000
0000
0000
0000
0110
0000
0000
0000
0000
0000
0010
0000
0000
1000
0000
0000
,
0101
0000
0000
M000
0000
0000
0100
0000
0000
0001
0000
0000
1010
0000
0000
000M
0000
0000
0010
0000
0000
0000
0000
0000
2200
0000
3300
0000
0000
0000
0010
0000
0000
0000
0000
0000
2200
0000
3300
0000
0000
0000
0001
0000
0000
0000
0000
0000
,
1010
000M
0010
1000
0010
0100
0001
0000
1010
0000
0001
0000
1100
0010
0100
0001
,
1000
0000
0000
0000
;
