#TITLE:Cake By The Ocean;
#SUBTITLE:;
#ARTIST:DNCE;
#TITLETRANSLIT:;
#SUBTITLETRANSLIT:;
#ARTISTTRANSLIT:;
#GENRE:;
#CREDIT:Evergreen;
#MUSIC:Cake By The Ocean - Edit.ogg;
#BANNER:Cake By The Ocean.png;
#BACKGROUND:;
#CDTITLE:;
#SAMPLESTART:0.000;
#SAMPLELENGTH:0.000;
#SELECTABLE:YES;
#OFFSET:-0.027;
#BPMS:0.000=119.000000;
#STOPS:;
#BGCHANGES:;
#FGCHANGES:;

//--------------- dance-single - XO JA ----------------
#NOTES:
     dance-single:
     XO JA:
     Hard:
     9:
     0,0,0,0,0:
0000
0000
0000
0000
,
0000
0000
0000
0000
,
0000
0000
0000
0000
,
0000
0000
0000
0000
,
1000
0000
0010
0000
0100
0000
0010
0000
1000
0000
0100
0010
0001
0000
1000
0000
,
0001
0000
0010
0000
0100
0000
0001
0000
0100
0000
1000
0010
0100
0000
0001
0000
,
0001
0000
0010
0000
0100
0000
0010
0000
0001
0000
0100
0010
1000
0000
0001
0000
,
1000
0000
0010
0000
0100
0000
1000
0000
0100
0000
0001
1000
0001
0000
0001
0000
,
1000
0000
0100
0000
0010
0000
0100
0000
1000
0000
0010
0100
0001
0000
1000
0000
,
0001
0000
0100
0000
0010
0000
0001
0000
0010
0000
1000
0001
1000
0000
0100
0000
,
0001
0100
1000
0010
0100
0010
0001
0010
,
1000
0001
0010
0100
1000
0001
0001
1000
,
0010
0000
0100
0000
0001
0000
1000
0001
0100
0000
0001
0010
0000
0001
1000
0000
,
0100
0000
0010
0001
1000
0000
0010
0100
0001
0000
1000
0000
1001
0000
0001
0000
,
0010
0000
0100
0000
1000
0000
0100
0000
0010
0000
0100
1000
0000
0010
0100
0000
,
0001
0000
0100
0000
0010
0000
0100
0001
0000
0010
0200
0000
2300
0000
3002
0000
,
0103
0000
0010
1000
0001
0000
0010
0000
0100
0000
1000
0001
0100
0000
0001
0100
,
0010
0000
1000
0000
0001
0000
0010
0100
1000
0000
0001
0000
1001
0000
1000
0000
,
0100
0000
0010
0001
0010
0001
0010
0000
0100
0000
1000
0010
0100
0000
0001
0000
,
1000
0000
0000
0000
0000
0001
1000
0001
,
0010
0000
0100
1000
0010
0000
0010
0000
0100
0000
0100
0000
0001
0000
1000
0000
,
0100
0000
0001
0100
0010
0000
0100
0000
1000
0000
0010
1000
0001
0000
0100
0000
,
0010
0000
0100
0001
0010
0000
0010
0000
0100
0000
0100
0000
1000
0000
0001
0000
,
0100
0000
1000
0100
0010
0000
0100
0000
0001
0000
0010
0001
1000
0000
0001
0000
,
1000
0000
0100
1000
0010
0000
0010
0000
0100
0000
0100
0000
0001
0000
1000
0000
,
0100
0000
0001
0100
0010
0000
0100
0000
1000
0000
1000
0000
0001
0000
0001
0000
,
0100
0000
0100
0010
1000
0000
0001
0000
0010
0000
0100
1000
0001
0000
0100
0000
,
0010
0000
0010
1000
0001
0000
0010
0000
0100
0000
1000
0010
0100
0000
0001
1000
,
0010
0000
0100
0001
0010
0000
0010
0000
0100
0000
0100
0000
1000
0000
0001
0000
,
0100
0000
1000
0100
0010
0000
0100
0000
0001
0000
0010
0001
1000
0000
0100
0000
,
0010
0000
0100
1000
0010
0000
0010
0000
0100
0000
0100
0000
0001
0000
1000
0000
,
0100
0000
0001
0100
0010
0000
0100
0000
1000
0000
0010
1000
0001
0000
1000
0000
,
0001
0000
0100
0001
0010
0000
0010
0000
0100
0000
0100
0000
1000
0000
0001
0000
,
0100
0000
1000
0100
0010
0000
0100
0000
0001
0000
0001
0000
1000
0000
1000
0000
,
0100
0000
0100
0010
0001
0000
1000
0000
0010
0000
0100
0001
1000
0000
0100
0000
,
0010
0000
0010
0001
1000
0000
0010
0000
0100
0000
0001
0010
0100
1000
0001
0000
,
1000
1000
0000
0001
,
0000
1000
0000
0001
,
0000
0010
0000
0100
,
2000
0000
3020
0000
0230
0000
0302
0000
,
0013
0000
0010
0100
0001
0000
0100
0000
1000
0000
1000
0010
0100
0000
1000
0000
,
0100
0000
0001
1000
0001
0000
0010
0000
0100
1000
0100
1000
0010
0000
0100
0000
,
0010
0000
0010
0100
1000
0000
0100
0000
0001
0000
0001
0010
0100
0000
0001
0000
,
0100
0000
1000
0001
1000
0000
0010
0000
0100
0001
0100
0001
0010
0000
0100
0000
,
1000
0000
0010
0100
0001
0000
0001
0000
1000
0000
1000
0000
0100
0000
0010
0000
,
0001
0000
0001
0100
0010
0000
1000
0000
0001
0000
0001
0000
1000
0000
1000
0000
,
0010
0000
0010
0100
0001
0000
1000
0000
0100
0000
0001
0100
1000
0000
0010
0000
,
0100
0000
0100
0001
1000
0000
0010
0000
0001
0000
0010
1000
0001
0010
0100
1000
,
0010
0000
0010
0100
1000
0000
0100
0000
0001
0000
0001
0010
0100
0000
0001
0000
,
0100
0000
1000
0001
1000
0000
0010
0000
0100
0001
0100
0001
0010
0000
0100
0000
,
0010
0000
0010
0100
0001
0000
0100
0000
1000
0000
1000
0010
0100
0000
1000
0000
,
0100
0000
0001
1000
0001
0000
0010
0000
0100
1000
0100
1000
0010
0000
0100
0000
,
0001
0000
0010
0100
1000
0000
1000
0000
0001
0000
0001
0000
0100
0000
0010
0000
,
1000
0000
1000
0100
0010
0000
0001
0000
1000
0000
1000
0000
0001
0000
0001
0000
,
0010
0000
0010
0100
1000
0000
0001
0000
0100
0000
1000
0100
0001
0000
0010
0000
,
0100
0000
0100
1000
0001
0000
0010
0000
1000
0000
0010
0001
1000
0010
0100
0001
,
1000
0000
0000
0000
;

//--------------- dance-single - FS XO JA JU- ----------------
#NOTES:
     dance-single:
     FS XO JA JU-:
     Challenge:
     11:
     0,0,0,0,0:
0000
0000
0000
0000
,
0000
0000
0000
0000
,
0000
0000
0000
0000
,
0000
0000
0000
0000
0000
0001
1000
0001
,
0010
0000
0100
0000
1000
0000
0001
0000
0200
0300
0100
010M
1000
0000
0001
0000
,
1000
0000
0010
0000
0100
0000
1000
0000
0100
0000
0010
0010
0001
0000
1000
0000
,
0010
0000
0100
0000
0001
0000
1000
0000
0200
0300
0100
M100
0001
0000
1000
0000
,
0001
0000
0010
0000
0100
0000
0001
0000
0100
0000
0010
0010
1000
0000
0001
0000
,
0010
0000
0100
0000
1000
0000
0001
0000
0200
0300
0100
010M
1000
0000
0001
0000
,
1000
0000
0010
0000
0100
0000
1000
0000
0100
0000
0010
0010
0001
0000
1000
0000
,
0010
0000
0100
0000
0001
0000
1000
0000
0200
0300
0100
M100
0001
0000
0010
0000
,
0100
0000
0001
0000
0100
0000
1000
0000
0020
0030
0010
M010
0001
1000
0001
0000
,
0100
0000
1000
0000
0100
0000
0001
0010
0100
000M
0100
0010
0000
1000
0001
0000
,
0100
0000
0010
0010
0001
0000
1000
0001
1000
0000
0010
0000
0110
0000
0100
0000
,
0001
0000
0100
0000
1000
0000
0100
0000
0001
0000
0010
0100
0000
1000
0001
0000
,
0010
0000
0100
0000
1000
0000
0001
1000
0001
0000
0200
0000
0320
0000
2030
0000
,
3001
0000
0010
0100
1000
0000
0100
0000
0001
0000
0100
1000
0010
0000
0100
0001
,
1000
0000
0100
0000
0010
0000
0001
1000
0001
0000
1000
0000
1001
0000
0001
0000
,
0100
0000
0000
0000
0000
0000
0100
0000
0020
0030
0010
M010
0001
0000
1000
0000
,
0001
0000
0000
0000
0000
1000
0001
1000
,
0020
0030
0010
M010
0100
1000
0001
0100
1000
0000
0100
0001
0010
0000
0100
0000
,
1000
0000
0100
0100
0001
0000
1000
0000
0020
0030
0010
M010
0001
1000
0100
0000
,
0020
0030
0010
001M
0100
0001
1000
0100
0001
0000
0100
1000
0010
0000
0100
0000
,
0001
0000
0100
0100
1000
0000
0001
0000
0020
0030
0010
001M
1000
0001
1000
0000
,
0200
0300
0100
M100
0010
1000
0001
0010
1000
0000
0010
0001
0100
0000
0010
0000
,
1000
0000
0010
0010
0001
0000
1000
0000
0100
0000
0001
0000
0100
0000
1000
0000
,
0001
0000
0100
0100
1000
0000
0001
0000
0200
0300
0100
010M
1000
0001
1000
0000
,
0100
0000
0010
0000
0100
0000
1000
0000
0010
0000
0100
0001
0010
0100
1000
0001
,
0020
0030
0010
001M
0100
0001
1000
0100
0001
0000
0100
1000
0010
0000
0100
0000
,
0001
0000
0100
0100
1000
0000
0001
0000
0020
0030
0010
001M
1000
0001
0100
0000
,
0020
0030
0010
M010
0100
1000
0001
0100
1000
0000
0100
0001
0010
0000
0100
0000
,
1000
0000
0100
0100
0001
0000
1000
0000
0020
0030
0010
M010
0001
1000
0001
0000
,
0200
0300
0100
010M
0010
0001
1000
0010
0001
0000
0010
1000
0100
0000
0010
0000
,
0001
0000
0010
0010
1000
0000
0001
0000
0100
0000
1000
0000
0100
0000
0001
0000
,
1000
0000
0100
0100
0001
0000
1000
0000
0200
0300
0100
M100
0001
1000
0001
0000
,
0100
0000
0010
0000
0100
0000
0001
0000
0010
0000
0100
1000
0010
0100
0001
1000
,
0001
1000
0000
1000
,
0000
0001
0000
0001
,
0000
0100
0000
0100
,
0020
0000
0000
0000
2030
0000
0000
0000
3002
0000
0000
0003
1001
0000
0000
0000
,
1000
0100
0100
0001
1000
0010
1000
0010
1000
0100
0100
0010
0100
0010
0010
0001
,
0010
0100
0001
0100
1000
0010
0100
0001
0020
0030
0010
001M
1000
0000
0001
1000
,
0100
0100
0001
0010
0100
1000
0010
0100
0001
0010
0001
0010
0100
1000
0010
0100
,
1000
0100
0001
0010
0010
1000
0100
1000
0020
0030
0010
M010
0001
0000
1000
0001
,
0100
0100
1000
0001
0010
0010
0100
0100
0010
0010
0100
0001
0010
0100
1000
0001
,
0200
0300
0100
010M
1000
0000
0001
0000
0010
0100
0010
0100
1000
0010
1000
0010
,
0200
0300
0100
010M
1000
0000
0010
0000
1010
0000
1010
0000
1000
0100
0010
0000
,
0011
0000
0001
0000
1001
0000
1000
0000
1010
0000
0110
0000
1001
0000
0001
1000
,
0001
0100
0100
1000
0001
0010
0001
0010
0001
0100
0100
0010
0100
0010
0010
1000
,
0010
0100
1000
0100
0001
0010
0100
1000
0020
0030
0010
M010
0001
0000
1000
0001
,
0100
0100
1000
0010
0100
0001
0010
0100
1000
0010
1000
0010
0100
0001
0010
0100
,
0001
0100
1000
0010
0010
0001
0100
0001
0020
0030
0010
001M
1000
0000
0001
1000
,
0100
0100
0001
1000
0010
0010
0100
0100
0010
0010
0100
1000
0010
0100
0001
1000
,
0200
0300
0100
M100
0001
0000
1000
0000
0010
0100
0010
0100
0001
0010
0001
0010
,
0200
0300
0100
M100
0001
0000
0010
0000
0011
0000
0011
0000
0001
0100
0010
0000
,
1010
0000
1000
0000
1001
0000
0001
0000
0011
0000
0110
0000
1001
0000
1000
0001
;
