#TITLE:Cake By The Ocean;
#SUBTITLE:Full;
#ARTIST:DNCE;
#TITLETRANSLIT:;
#SUBTITLETRANSLIT:;
#ARTISTTRANSLIT:;
#GENRE:;
#CREDIT:Evergreen;
#MUSIC:Cake By The Ocean.ogg;
#BANNER:Cake By The Ocean.png;
#BACKGROUND:;
#CDTITLE:full-cd.png;
#SAMPLESTART:0.000;
#SAMPLELENGTH:0.000;
#SELECTABLE:YES;
#OFFSET:-0.211;
#BPMS:0.000=119.000000;
#STOPS:;
#BGCHANGES:;
#FGCHANGES:;

//--------------- dance-single - BxF JA JU SS- ----------------
#NOTES:
     dance-single:
     BxF JA JU SS-:
     Challenge:
     13:
     0,0,0,0,0:
0000
0000
0000
0000
,
0000
0000
0000
0000
,
0000
0000
0000
0000
,
0000
0000
0000
0000
,
1010
0000
0000
0000
0001
0000
0000
0000
1100
0000
0000
0000
0010
0000
0000
0000
0200
0300
0000
0000
0100
000M
0100
0000
1000
0000
0000
0000
0001
0000
0000
0000
,
1000
0000
0010
0000
0100
0000
1000
0000
0100
0000
0010
0010
0001
0000
1000
0000
,
0011
0000
0000
0000
1000
0000
0000
0000
0101
0000
0000
0000
0010
0000
0000
0000
0200
0300
0000
0000
0100
M000
0100
0000
0001
0000
0000
0000
1000
0000
0000
0000
,
0001
0000
0010
0000
0100
0000
0001
0000
0100
0000
0010
0010
1000
0000
0001
0000
,
1100
0000
0000
0000
0001
0000
0000
0000
1010
0000
0000
0000
0100
0000
0000
0000
0020
0030
0000
0000
0010
000M
0010
0000
1000
0000
0000
0000
0001
0000
0000
0000
,
1000
0000
0100
0000
0010
0000
1000
0000
0010
0000
0100
0100
0001
0000
1000
0000
,
0101
0000
0000
0000
1000
0000
0000
0000
0011
0000
0000
0000
0100
0000
0000
0000
0020
0030
0000
0000
0010
M000
0010
0000
0101
0000
0000
0000
0010
0000
0000
0000
,
0101
0000
0000
0000
1000
0000
0000
0000
0020
0000
0030
0000
0010
M000
0010
0000
0001
0000
0000
0000
0100
0000
0100
0000
1000
0000
0001
0000
1000
0000
0000
0000
,
0001
0000
1100
0000
0011
0000
0010
0001
1000
0000
0010
1000
0100
0100
0011
0000
,
1100
0000
0010
0100
0001
0000
0010
0100
1000
0000
0001
0000
0111
0000
0000
0000
,
1000
0000
0101
0000
1010
0000
0010
0000
0100
0000
0001
1000
0000
0001
1010
0000
,
0101
0000
0100
0000
0001
0000
1000
0010
0000
0000
2200
0000
3322
0030
2023
0000
,
3031
0000
1010
0001
1010
0000
0010
0000
0100
0000
0100
1000
0001
0000
1100
0001
,
1100
0000
0100
0000
0010
0000
0010
1000
0001
0000
0100
0000
0111
0000
0000
0000
,
1000
0000
0100
0010
0001
0100
0010
0000
1000
0000
0100
0010
0000
0000
0001
0000
,
1000
0000
0010
0010
0001
0000
1000
0001
0000
0000
1010
0000
0011
0000
1010
0000
,
0101
0000
0010
0000
0010
0000
1000
0000
0001
0000
0000
0000
0020
0030
0000
0000
0010
000M
0010
0000
1000
0000
0001
0000
0100
0000
0000
0000
0010
0000
0000
0000
,
0100
0000
0100
0000
1000
0000
0001
0000
1000
0000
0000
0000
0020
0030
0000
0000
0010
M000
0010
0000
0001
0000
1000
0000
0001
0000
0000
0000
0100
0000
0000
0000
,
0011
0000
0100
0000
0100
0000
1000
0000
0001
0000
0000
0000
0200
0300
0000
0000
0100
000M
0100
0000
1000
0000
0001
0000
0010
0000
0000
0000
0100
0000
0000
0000
,
0010
0000
0010
0000
1000
0000
0001
0000
1000
0000
0000
0000
0200
0300
0000
0000
0100
M000
0100
0000
0011
0000
1000
0000
0011
0000
0000
0000
1000
0000
0000
0000
,
0101
0010
0010
1000
0011
0000
1100
0000
0101
0010
0010
1000
0001
0000
0010
0000
,
0100
0000
0100
0000
0001
0000
1000
0000
0001
0000
0000
0000
0020
0030
0000
0000
0010
M000
0010
0000
0100
0000
0100
0000
1000
0000
0001
0000
0100
0000
0100
0000
,
2020
3030
0000
0000
0000
0000
0100
0000
0000
1000
0000
0000
0022
0033
0000
0000
0000
0000
2200
3300
0000
0000
0000
0000
0022
0033
0000
0000
0000
0000
2020
3030
0000
0001
0000
0000
0100
0000
0000
0100
0000
0000
1000
0000
0000
0000
0000
0000
,
0022
0033
0000
0000
0000
0000
0100
0000
0000
0001
0000
0000
2020
3030
0000
0100
0000
0000
2020
3030
0000
0000
0000
0000
0202
0303
0000
0000
0000
0000
2020
3030
0000
0000
0000
0000
2022
3033
0000
0000
0000
0000
0100
0000
0000
0001
0000
0000
,
1100
0000
0010
0000
0010
0000
0001
0000
1000
0000
0000
0000
0020
0030
0000
0000
0010
M000
0010
0000
0001
0000
1000
0000
0100
0000
0000
0000
0010
0000
0000
0000
,
0100
0000
0100
0000
0001
0000
1000
0000
0001
0000
0000
0000
0020
0030
0000
0000
0010
000M
0010
0000
1000
0000
0001
0000
1000
0000
0000
0000
0100
0000
0000
0000
,
1010
0000
0100
0000
0100
0000
0001
0000
1000
0000
0000
0000
0200
0300
0000
0000
0100
M000
0100
0000
0001
0000
1000
0000
0010
0000
0000
0000
0100
0000
0000
0000
,
0010
0000
0010
0000
0001
0000
1000
0000
0001
0000
0000
0000
0200
0300
0000
0000
0100
000M
0100
0000
1010
0000
0001
0000
1010
0000
0000
0000
0001
0000
0000
0000
,
1100
0010
0010
0001
1010
0000
0101
0000
1100
0010
0010
0001
1000
0000
0010
0000
,
0100
0000
0100
0000
1000
0000
0001
0000
1000
0000
0000
0000
0020
0030
0000
0000
0010
000M
0010
0000
0100
0000
0100
0000
0001
0000
1000
0000
0100
0000
0100
0000
,
0022
0033
0000
0000
0000
0000
0100
0000
0000
0001
0000
0000
2020
3030
0000
0000
0000
0000
0202
0303
0000
0000
0000
0000
2020
3030
0000
0000
0000
0000
0022
0033
0000
1000
0000
0000
0100
0000
0000
0100
0000
0000
0001
0000
0000
0000
0000
0000
,
2020
3030
0000
0000
0000
0000
0100
0000
0000
1000
0000
0000
0022
0033
0000
0100
0000
0000
0022
0033
0000
0000
0000
0000
2200
3300
0000
0000
0000
0000
0022
0033
0000
0000
0000
0000
2022
3033
0000
0000
0000
0000
1000
0000
0000
0000
0000
0000
,
0001
0000
0000
0000
0000
0000
0000
0000
0000
0000
0000
0000
1000
0000
0000
0000
0020
0030
0000
0000
0010
M000
0010
0000
0001
0000
0000
0000
1000
0000
0000
0000
,
0001
0000
0000
0000
0000
0000
0000
0000
0000
0000
0000
0000
1000
0000
0000
0000
0200
0300
0000
0000
0100
M000
0100
0000
0001
0000
0000
0000
0100
0000
0000
0000
,
0120
0000
0000
0000
1030
0000
0000
0000
0101
0000
0000
0000
0010
0000
0000
0000
0200
0300
0000
0000
0100
M000
0100
0000
0001
0000
0000
0000
1000
0000
0000
0000
,
0001
0000
0010
0000
0100
0000
0001
0000
0100
0000
0010
0010
1000
0000
0010
0000
,
0210
0000
0000
0000
0301
0000
0000
0000
1100
0000
0000
0000
0010
0000
0000
0000
0200
0300
0000
0000
0100
000M
0100
0000
1000
0000
0000
0000
0001
0000
0000
0000
,
1000
0000
0010
0000
0100
0000
1000
0000
0100
0000
0010
0010
0001
0000
0010
0000
,
0210
0000
0000
0000
1300
0000
0000
0000
0011
0000
0000
0000
0100
0000
0000
0000
0020
0030
0000
0000
0010
M000
0010
0000
0001
0000
0000
0000
1000
0000
0000
0000
,
0001
0000
0100
0000
0010
0000
0001
0000
0010
0000
0100
0100
1000
0000
0010
0000
,
0210
0000
0000
0300
0001
0000
0000
0000
1010
0000
0000
0000
0100
0000
0000
0000
0020
0030
0000
0000
0010
000M
0010
0000
1100
0000
0000
0000
0010
0000
0000
0000
,
0210
0000
0000
0300
0001
0000
0000
0000
0020
0000
0030
0000
0010
000M
0010
0000
1000
0000
0000
0000
0100
0000
0100
0000
0001
0000
1000
0000
0001
0000
0000
0000
,
1000
0000
0101
0000
1010
0000
0010
1000
0001
0000
0010
0001
0100
0100
1010
0000
,
0101
0000
0010
0100
1000
0000
0010
0100
0001
0000
1000
0000
1110
0000
0000
0000
,
0001
0000
1100
0000
0011
0000
0010
0000
0100
0000
1000
0001
0000
1000
0011
0000
,
1100
0000
0100
0000
1000
0000
0001
0010
0000
0000
0202
0000
2323
0030
3022
0000
,
1033
0000
0011
1000
0011
0000
0010
0000
0100
0000
0100
0001
1000
0000
0101
1000
,
0101
0000
0100
0000
0010
0000
0010
0001
1000
0000
0100
0000
1110
0000
0000
0000
,
0001
0000
0100
0010
1000
0100
0010
0000
0001
0000
0100
0010
0000
0000
1000
0000
,
0001
0000
0010
0010
1000
0000
0001
1000
0000
0000
0011
0000
1010
0000
0011
0000
,
1100
0000
0010
0000
0010
0000
0001
0000
1000
0000
0000
0000
0020
0030
0000
0000
0010
M000
0010
0000
0001
0000
1000
0000
0100
0000
0000
0000
0010
0000
0000
0000
,
0100
0000
0100
0000
0001
0000
1000
0000
0001
0000
0000
0000
0020
0030
0000
0000
0010
000M
0010
0000
1000
0000
0001
0000
1000
0000
0000
0000
0100
0000
0000
0000
,
1010
0000
0100
0000
0100
0000
0001
0000
1000
0000
0000
0000
0200
0300
0000
0000
0100
M000
0100
0000
0001
0000
1000
0000
0010
0000
0000
0000
0100
0000
0000
0000
,
0010
0000
0010
0000
0001
0000
1000
0000
0001
0000
0000
0000
0200
0300
0000
0000
0100
000M
0100
0000
1010
0000
0001
0000
1010
0000
0000
0000
0001
0000
0000
0000
,
1100
0010
0010
0001
1010
0000
0101
0000
1100
0010
0010
0001
1000
0000
0010
0000
,
0100
0000
0100
0000
1000
0000
0001
0000
1000
0000
0000
0000
0020
0030
0000
0000
0010
000M
0010
0000
0100
0000
0100
0000
0001
0000
1000
0000
0100
0000
0100
0000
,
0022
0033
0000
0000
0000
0000
0100
0000
0000
0001
0000
0000
2020
3030
0000
0000
0000
0000
0202
0303
0000
0000
0000
0000
2020
3030
0000
0000
0000
0000
0022
0033
0000
1000
0000
0000
0100
0000
0000
0100
0000
0000
0001
0000
0000
0000
0000
0000
,
2020
3030
0000
0000
0000
0000
0100
0000
0000
1000
0000
0000
0022
0033
0000
0100
0000
0000
0022
0033
0000
0000
0000
0000
2200
3300
0000
0000
0000
0000
0022
0033
0000
0000
0000
0000
2022
3033
0000
0000
0000
0000
0100
0000
0000
1000
0000
0000
,
0101
0000
0010
0000
0010
0000
1000
0000
0001
0000
0000
0000
0020
0030
0000
0000
0010
000M
0010
0000
1000
0000
0001
0000
0100
0000
0000
0000
0010
0000
0000
0000
,
0100
0000
0100
0000
1000
0000
0001
0000
1000
0000
0000
0000
0020
0030
0000
0000
0010
M000
0010
0000
0001
0000
1000
0000
0001
0000
0000
0000
0100
0000
0000
0000
,
0011
0000
0100
0000
0100
0000
1000
0000
0001
0000
0000
0000
0200
0300
0000
0000
0100
000M
0100
0000
1000
0000
0001
0000
0010
0000
0000
0000
0100
0000
0000
0000
,
0010
0000
0010
0000
1000
0000
0001
0000
1000
0000
0000
0000
0200
0300
0000
0000
0100
M000
0100
0000
0011
0000
1000
0000
0011
0000
0000
0000
1000
0000
0000
0000
,
0101
0010
0010
1000
0011
0000
1100
0000
0101
0010
0010
1000
0001
0000
0010
0000
,
0100
0000
0100
0000
0001
0000
1000
0000
0001
0000
0000
0000
0020
0030
0000
0000
0010
M000
0010
0000
0100
0000
0100
0000
1000
0000
0001
0000
0100
0000
0100
0000
,
2020
3030
0000
0000
0000
0000
0100
0000
0000
1000
0000
0000
0022
0033
0000
0000
0000
0000
2200
3300
0000
0000
0000
0000
0022
0033
0000
0000
0000
0000
2020
3030
0000
0001
0000
0000
0100
0000
0000
0100
0000
0000
1000
0000
0000
0000
0000
0000
,
0022
0033
0000
0000
0000
0000
0100
0000
0000
0001
0000
0000
2020
3030
0000
0100
0000
0000
2020
3030
0000
0000
0000
0000
0202
0303
0000
0000
0000
0000
2020
3030
0000
0000
0000
0000
2022
3033
0000
0000
0000
0000
0001
0000
0000
0000
0000
0000
,
1100
0000
0000
0000
0010
0000
0000
0000
0110
0000
0000
0000
0200
0300
0000
0000
0100
0000
0100
0000
1000
0000
0001
0000
0010
0000
0000
0000
0001
0000
0000
0000
,
1010
0000
0010
0000
0110
0000
0100
0100
0010
0010
1000
0001
0100
0100
1000
0001
,
2020
3030
0000
0000
0000
0000
0100
0000
0000
1000
0000
0000
0022
0033
0000
0000
0000
0000
2200
3300
0000
0000
0000
0000
0022
0033
0000
0000
0000
0000
2020
3030
0000
0001
0000
0000
0100
0000
0000
0100
0000
0000
1000
0000
0000
0000
0000
0000
,
0022
0033
0000
0000
0000
0000
0100
0000
0000
0001
0000
0000
2020
3030
0000
0100
0000
0000
2020
3030
0000
0000
0000
0000
0202
0303
0000
0000
0000
0000
2020
3030
0000
0000
0000
0000
2022
3033
0000
0000
0000
0000
1000
0000
0000
0000
0000
0000
,
0101
0000
0000
0000
0010
0000
0000
0000
0110
0000
0000
0000
0200
0300
0000
0000
0100
0000
0100
0000
0001
0000
1000
0000
0010
0000
0000
0000
1000
0000
0000
0000
,
0011
0000
0010
0000
0110
0000
0100
0100
0010
0010
0001
1000
0100
0100
0001
1000
,
0022
0033
0000
0000
0000
0000
0100
0000
0000
0001
0000
0000
2020
3030
0000
0000
0000
0000
0202
0303
0000
0000
0000
0000
2020
3030
0000
0000
0000
0000
0022
0033
0000
1000
0000
0000
0100
0000
0000
0100
0000
0000
0001
0000
0000
0000
0000
0000
,
2020
3030
0000
0000
0000
0000
0100
0000
0000
1000
0000
0000
0022
0033
0000
0100
0000
0000
0022
0033
0000
0000
0000
0000
2200
3300
0000
0000
0000
0000
0022
0033
0000
0000
0000
0000
2022
3033
0000
0000
0000
0000
1000
0000
0000
0000
0000
0000
,
0001
1000
0000
1000
,
0000
0001
0000
0001
,
0000
0010
0000
0010
,
0200
0000
2300
0000
3002
0003
1111
0000
,
0011
0100
0010
1000
0101
0010
0101
1000
0011
0100
0011
1000
0010
0100
0001
1000
,
0200
0000
0300
0000
0100
M000
0100
0000
0001
0000
0100
0000
0010
0000
1000
0000
0101
0000
0000
0000
1100
0000
0000
0000
0011
0000
0000
0000
1010
0000
0001
0000
,
1010
0001
0100
0010
1100
0010
1100
0001
1010
0100
1010
0001
1100
0000
0101
0000
,
0020
0000
0030
0000
0010
M000
0010
0000
1000
0000
0000
0000
0010
0000
0000
0000
0100
0000
0000
0000
0101
0000
0000
0000
1100
0000
0000
0000
0101
0000
1000
0000
,
0011
0100
0100
1000
0011
1100
0101
1100
0011
1010
0101
1010
0001
0010
0100
1000
,
0001
0100
0100
1000
0010
0100
0011
1000
0101
0010
0101
1000
0011
0100
0011
1000
,
0101
0000
0000
0000
0000
0000
0100
0000
0000
0001
0000
0000
2020
0000
3030
0000
0000
0000
0001
0000
0000
0000
0000
0000
0022
0000
0033
0000
0000
0000
2020
0000
3030
0100
0000
0000
1000
0000
0000
0000
0000
0000
0010
0000
0000
0000
0000
0000
,
2200
0000
3300
0000
0000
0000
0100
0000
0000
1000
0000
0000
0022
0000
0033
0000
0000
0000
2020
0000
3030
0000
0000
0000
0202
0000
0303
0000
0000
0000
0110
0000
0000
0000
0000
0000
1101
0000
0000
0000
0000
0000
0001
0000
0000
0000
0000
0000
,
1010
0100
0010
0001
1100
0010
1100
0001
1010
0100
1010
0001
0010
0100
1000
0001
,
0200
0000
0300
0000
0100
000M
0100
0000
1000
0000
0100
0000
0010
0000
0001
0000
1100
0000
0000
0000
0101
0000
0000
0000
1010
0000
0000
0000
0011
0000
1000
0000
,
0011
1000
0100
0010
0101
0010
0101
1000
0011
0100
0011
1000
0101
0000
1100
0000
,
0020
0000
0030
0000
0010
000M
0010
0000
0001
0000
0000
0000
0010
0000
0000
0000
0100
0000
0000
0000
1100
0000
0000
0000
0101
0000
0000
0000
1100
0000
0001
0000
,
1010
0100
0100
0001
1010
0101
1100
0101
1010
0011
1100
0011
1000
0010
0100
0001
,
1000
0100
0100
0001
0010
0100
1010
0001
1100
0010
1100
0001
1010
0100
1010
0001
,
1100
0000
0000
0000
0000
0000
0100
0000
0000
1000
0000
0000
0022
0000
0033
0000
0000
0000
1000
0000
0000
0000
0000
0000
2020
0000
3030
0000
0000
0000
0022
0000
0033
0100
0000
0000
0001
0000
0000
0000
0000
0000
0010
0000
0000
0000
0000
0000
,
0202
0000
0303
0000
0000
0000
0100
0000
0000
0001
0000
0000
2020
0000
3030
0000
0000
0000
0022
0000
0033
0000
0000
0000
2200
0000
3300
0000
0000
0000
0110
0000
0000
0000
0000
0000
1101
0000
0000
0000
0000
0000
1000
0000
0000
0000
0000
0000
,
0011
0100
0001
0010
0100
0001
0100
1000
0021
0000
0031
0011
0100
0100
1000
0010
,
1200
0000
1300
1100
0010
0010
0001
1000
0011
0100
0011
1000
0101
0000
1100
0001
,
1010
0100
1000
0010
0100
1000
0100
0001
1020
0000
1030
1010
0100
0100
0001
0010
,
0201
0000
0301
0101
0010
0010
1000
0001
1010
0100
1010
0001
1100
0000
0101
1000
,
0011
0100
0001
0010
0100
0001
0100
1000
0021
0000
0031
0011
0100
0100
1000
0010
,
1200
0000
1300
1100
0010
0010
0001
1000
0011
0100
0011
1000
0101
0000
1100
0000
,
0022
0033
0000
0000
0000
0000
0100
0000
0000
0001
0000
0000
2020
3030
0000
0000
0000
0000
0202
0303
0000
0000
0000
0000
2020
3030
0000
0000
0000
0000
0022
0033
0000
1000
0000
0000
0100
0000
0000
0100
0000
0000
0001
0000
0000
0000
0000
0000
,
2020
3030
0000
0000
0000
0000
0100
0000
0000
1000
0000
0000
0022
0033
0000
0100
0000
0000
0022
0033
0000
0000
0000
0000
2200
3300
0000
0000
0000
0000
0022
0033
0000
0000
0000
0000
2022
3033
0000
0000
0000
0000
1000
0000
0000
0001
0000
0000
;
