#TITLE:BUBBLE TEA;
#SUBTITLE:;
#ARTIST:dark cat;
#TITLETRANSLIT:;
#SUBTITLETRANSLIT:;
#ARTISTTRANSLIT:;
#GENRE:;
#CREDIT:Evergreen;
#MUSIC:BUBBLE TEA.ogg;
#BANNER:BUBBLE TEA.png;
#BACKGROUND:;
#CDTITLE:;
#SAMPLESTART:42.029;
#SAMPLELENGTH:11.999;
#SELECTABLE:YES;
#OFFSET:-0.024;
#BPMS:0.000=160.014514;
#STOPS:;
#GASongDataVersionSONG:1;
#GASongDataSONG:{"SyncOffset"\:0.009,"DefaultChartType"\:"dance_single","DefaultChartIndex"\:3}; #GAChartDataVersionCHART0000:1; #GAChartDataCHART0000:{"MusicOffset"\:0,"ShouldUseChartMusicOffset"\:false,"ExpressedChartConfig"\:"a19d532e-b0ce-4759-ad1c-02ecbbdf2efd","Patterns"\:{}}; #GAChartDataVersionCHART0001:1; #GAChartDataCHART0001:{"MusicOffset"\:0,"ShouldUseChartMusicOffset"\:false,"ExpressedChartConfig"\:"a19d532e-b0ce-4759-ad1c-02ecbbdf2efd","Patterns"\:{}}; #GAChartDataVersionCHART0002:1; #GAChartDataCHART0002:{"MusicOffset"\:0,"ShouldUseChartMusicOffset"\:false,"ExpressedChartConfig"\:"a19d532e-b0ce-4759-ad1c-02ecbbdf2efd","Patterns"\:{}}; #GAChartDataVersionCHART0003:1; #GAChartDataCHART0003:{"MusicOffset"\:0,"ShouldUseChartMusicOffset"\:false,"ExpressedChartConfig"\:"a19d532e-b0ce-4759-ad1c-02ecbbdf2efd","Patterns"\:{}};
#BGCHANGES:;
#FGCHANGES:;

//--------------- dance-single - ----------------
#NOTES:
     dance-single:
     :
     Beginner:
     2:
     0,0,0,0,0:
0000
0000
0000
0000
,
0000
0000
0000
0000
,
0000
0000
0000
0000
,
0000
0000
0000
0000
,
0000
0000
0000
0000
,
0000
0000
0000
0000
,
0000
0000
0000
0000
,
0000
0000
0000
0000
,
1000
0000
0000
0000
,
0001
0000
0000
0000
,
0010
0000
0000
0000
,
0100
0000
0000
0000
,
1000
0000
0000
0000
,
0010
0000
0000
0000
,
0100
0000
0000
0000
,
0001
0000
0000
0000
,
1000
0000
0000
0000
,
0100
0000
0000
0000
,
0010
0000
0000
0000
,
0001
0000
0000
0000
,
1000
0000
0000
0000
,
0010
0000
0000
0000
,
0100
0000
0000
0000
,
0001
0000
1000
0000
,
1001
0000
0000
0000
,
0000
0000
0000
0000
,
1001
0000
0000
0000
,
0000
0000
0001
0000
,
0010
0000
0100
0000
,
1000
0000
1000
0000
,
0010
0000
0100
0000
,
0001
0000
0001
0000
,
0100
0000
0001
0000
,
1000
0000
1000
0000
,
0100
0000
1000
0000
,
0001
0000
0001
0000
,
0100
0000
0000
0010
0000
0000
1000
0000
,
0001
0000
0000
0010
0000
0000
0001
0000
,
1000
0000
0010
0000
,
0100
0000
0001
1000
,
0001
0000
0001
0000
,
1000
0000
1000
0000
,
0010
0000
0100
0000
,
0001
0000
1000
0000
,
0001
0000
0000
0000
,
0000
0000
0000
0000
,
0000
0000
0000
0000
,
0000
0000
1000
0000
,
0001
0000
0000
0000
,
0000
0000
0000
0000
,
0000
0000
0000
0000
,
0000
0000
1000
0001
,
0100
0000
0010
1000
,
0100
0000
0010
0001
,
0100
0000
0010
0000
,
1000
0000
0001
1000
,
0100
0000
0010
0001
,
0100
0000
0010
1000
,
0100
0000
0010
0000
,
0001
0000
1000
0001
,
1000
0000
0000
0000
,
0000
0000
0000
0000
,
0001
0000
0000
0000
;

//--------------- dance-single - JA ----------------
#NOTES:
     dance-single:
     JA:
     Easy:
     6:
     0,0,0,0,0:
0000
0000
0000
0000
,
0000
0000
0000
0000
,
0000
0000
0000
0000
,
0000
0000
0000
0000
,
0000
0000
0000
0000
,
0000
0000
0000
0000
,
0000
0000
0000
0000
,
0000
0000
0000
0000
,
0001
0000
0000
0001
0000
0000
0010
0000
,
0100
0000
0000
0100
0000
0000
1000
0000
,
0010
0000
0000
0100
0001
0000
1000
0000
,
0100
0000
0010
0000
0001
0100
0010
0000
,
1000
0000
0000
1000
0000
0000
0010
0000
,
0100
0000
0000
0100
0000
0000
0001
0000
,
0010
0000
0000
0100
1000
0000
0001
0000
,
0100
0000
0010
0000
1000
0100
0010
0000
,
0001
0000
0000
0001
0000
0000
0100
0000
,
0010
0000
0000
0010
0000
0000
1000
0000
,
0100
0000
0000
0010
0001
0000
1000
0000
,
0010
0000
0100
0000
0001
0010
0100
0000
,
1000
0000
0000
1000
0000
0000
0100
0000
,
0010
0000
0000
0010
0000
0000
0001
0000
,
0100
0000
0000
0010
1000
0000
0001
0000
,
0010
0000
0100
0000
1000
0001
1000
0000
,
1001
0000
0000
0000
,
0001
0000
0000
0000
,
1000
0000
0010
0100
0000
0001
0000
0010
,
0000
0000
0100
0000
1000
0001
1000
0000
,
0010
0010
0100
0100
,
0001
0001
1000
1000
,
0100
0010
0100
0000
1000
0100
1000
0000
,
0001
0100
0001
0100
0010
1000
0001
0000
,
0010
0010
0100
0100
,
1000
1000
0001
0001
,
0100
0010
0100
0000
0001
1000
0001
0000
,
0010
0100
1000
0000
0010
0100
0001
0000
,
1000
0000
0100
0010
0000
0010
0000
0010
,
0001
0000
1000
0000
0010
0100
0001
1000
,
0001
0000
0100
0010
0000
0010
0000
0010
,
1000
0000
0001
0000
0010
0100
1000
0001
,
0100
0100
0010
0010
,
1000
1000
0001
0001
,
0010
0100
0010
0000
0001
0100
0001
0000
,
1000
0100
0010
0001
1000
0010
0100
0001
,
2000
0000
0000
0000
,
3002
0000
0000
0000
,
0103
0000
0000
0010
0000
0000
1000
0000
,
0000
0001
0000
0000
1000
0000
0010
0000
,
0200
0000
0300
0000
,
0002
0000
0000
0003
,
0010
0000
0000
0100
0000
0000
1000
0000
,
0000
0001
0000
0000
1000
0001
1000
0000
,
0010
0000
0100
0001
1000
0000
0000
0000
,
0010
0000
0100
0001
0010
0000
0100
0000
,
1000
0000
0001
0001
,
1000
0000
1000
0000
0100
0010
0001
1000
,
0100
0000
1000
0001
0010
0000
0000
0000
,
0100
0000
1000
0001
0100
0000
0000
0000
,
0010
0000
1000
1000
,
0010
0000
0010
0000
0100
0001
0010
0100
,
1000
0001
2000
0000
0000
0000
0000
0000
,
0000
0000
0000
0000
,
0002
0000
0000
0000
,
0000
0000
0000
0000
,
3003
0000
0000
0000
;

//--------------- dance-single - XO JA- ----------------
#NOTES:
     dance-single:
     XO JA-:
     Medium:
     7:
     0,0,0,0,0:
0000
0000
0000
0000
,
0000
0000
0000
0000
,
0000
0000
0000
0000
,
0000
0000
0000
0000
,
0000
0000
0000
0000
,
0000
0000
0000
0000
,
0000
0000
0000
0000
,
0000
0000
0000
0000
,
0000
0000
0001
0100
0000
0001
0000
0010
,
0000
0100
0000
0010
0000
0001
0100
0001
,
1000
0000
0000
0100
0010
0001
0010
0100
,
1000
0010
0100
0001
0010
0100
1000
0001
,
0000
0000
1000
0100
0000
1000
0000
0010
,
0000
0100
0000
0010
0000
1000
0100
1000
,
0001
0000
0000
0100
0010
1000
0010
0100
,
0001
0010
0100
1000
0010
0100
0001
1000
,
0001
0000
0010
0100
0000
1000
0000
0100
,
0000
0001
0000
0100
0000
1000
0010
0100
,
0001
0000
0000
0100
0010
1000
0001
0010
,
0100
1000
0100
1000
0010
0100
0001
1000
,
0000
0000
0010
0100
0000
0001
0000
0100
,
0000
1000
0000
0100
0000
0001
0010
0100
,
1000
0000
0000
0100
0010
0001
1000
0010
,
0100
0001
0100
0001
0010
0100
1000
0001
,
2000
0000
0000
3020
0000
0000
0000
0230
,
0000
0000
0000
0302
0000
0000
0013
0100
,
2002
0000
0000
0000
,
3003
0000
0000
0000
1000
0001
0010
0000
,
0100
1000
0100
0000
1000
0001
1000
0000
,
0001
0100
0001
0000
0100
0010
0100
0000
,
1000
0100
0001
0000
1000
0010
0001
0000
,
1000
0100
0001
1000
0010
0100
0001
0000
,
0100
0001
0100
0000
0001
1000
0001
0000
,
1000
0100
1000
0000
0100
0010
0100
0000
,
0001
0100
1000
0000
0001
0010
1000
0000
,
0001
0100
1000
0001
0010
0100
1000
0001
,
1000
0000
0010
0100
0000
0100
0000
0100
,
0001
0010
0100
1000
0001
0100
0010
1000
,
0001
0000
0010
0100
0000
0100
0000
0100
,
1000
0010
0100
0001
1000
0100
0010
0001
,
0010
0001
0010
0000
0001
1000
0001
0000
,
1000
0010
1000
0000
0010
0100
0010
0000
,
0001
0010
1000
0000
0001
0100
1000
0000
,
0001
0010
1000
0001
0010
0100
1000
0001
,
2000
0000
0000
0000
,
3002
0000
0000
0000
,
0023
0000
0000
0000
,
0230
0000
0000
0000
1300
0010
0100
0001
,
2000
0000
0000
0000
,
3002
0000
0000
0000
,
0023
0000
0000
0000
,
0230
0000
0000
0000
1300
0010
0100
0001
,
1000
0000
0001
1000
0000
0000
0001
0010
,
0000
0000
1000
0010
0000
0000
0001
1000
,
0001
0000
0000
0100
0010
0000
1000
0000
,
0001
0010
0100
0000
1000
0010
0100
0001
,
1000
0000
0001
1000
0000
0000
0001
0100
,
0000
0000
1000
0100
0000
0000
0001
1000
,
0001
0000
0000
0010
0100
0000
1000
0000
,
0001
0100
0010
0000
1000
0100
0010
0001
,
2000
3020
0000
0000
,
0000
0000
0000
0000
,
0200
0000
0000
0000
,
0000
0000
0000
0000
,
0330
0000
0000
0000
0000
0000
;

//--------------- dance-single - DS+ XO FL ----------------
#NOTES:
     dance-single:
     DS+ XO FL:
     Hard:
     9:
     0,0,0,0,0:
0000
0000
0000
0000
,
0000
0000
0000
0000
,
0000
0000
0000
0000
,
0000
0000
0000
0000
,
0000
0000
0000
0000
,
0000
0000
0000
0000
,
0000
0000
0000
0000
,
0000
0000
0000
2000
,
3001
0000
0010
0100
0000
1000
0000
0010
,
0000
0100
0000
0001
0000
0100
0001
1000
,
0000
0000
0000
0001
0020
0100
0031
1000
,
0020
0100
1030
0001
0010
0100
1000
0010
,
1000
0000
0010
0100
0000
0001
0000
0010
,
0000
0100
0000
1000
0000
0100
1000
0001
,
0000
0000
0000
1000
0020
0100
1030
0001
,
0020
0100
0031
1000
0010
0100
0001
0010
,
0100
0000
0001
0100
0000
1000
0000
0010
,
0000
0100
0000
0001
0000
1000
0000
0001
,
0000
0000
0000
1000
0002
0100
1003
0010
,
0200
0001
0310
1000
0200
0010
1300
0001
,
0100
0000
1000
0100
0000
0001
0000
0010
,
0000
0100
0000
1000
0000
0001
0000
1000
,
0000
0000
0000
0001
2000
0100
3001
0010
,
0200
1000
0310
0001
0200
0010
0301
1000
,
0100
0000
0010
0001
0000
1000
0010
0100
,
0000
0001
0010
0100
0000
1000
0001
1000
,
1001
0000
0000
0000
0000
0000
0001
0000
0000
0010
0000
0000
0000
0000
0000
0100
0000
0000
0000
0000
0000
1000
0001
0000
,
0000
0000
0000
0000
0000
0000
0000
0000
1000
0000
0000
0000
0010
0000
0000
0000
0100
0000
0000
0000
0001
0010
0000
0000
0100
0000
0000
0000
1000
0000
0000
0000
,
0020
0030
0100
0000
0020
0030
0001
0000
0020
0030
0100
0000
0020
0030
1000
0000
,
0200
0300
0010
0000
0200
0300
0001
0000
0200
0300
0010
0000
0200
0300
1000
0000
,
0002
0000
0100
0000
1003
0000
0020
0000
0100
0000
1030
0000
0002
0000
0010
0000
,
2003
0000
0000
0000
0100
0000
0000
0000
3010
0000
0000
0000
0100
0000
0000
0000
1000
0000
0000
0000
0100
0010
0000
0000
1000
0000
0000
0000
0001
0000
0000
0000
,
0020
0030
0100
0000
0020
0030
1000
0000
0020
0030
0100
0000
0020
0030
0001
0000
,
0200
0300
0010
0000
0200
0300
1000
0000
0200
0300
0010
0000
0200
0300
0001
0000
,
2000
0000
0100
0000
3001
0000
0020
0000
0100
0000
0031
0000
2000
0000
0010
0000
,
3002
0000
0000
0000
0100
0000
0000
0000
0013
0000
0000
0000
0100
0000
0000
0000
0001
0000
0000
0000
0100
0010
0000
0000
0001
0000
0000
0000
1000
0000
0000
0000
,
0001
0000
0100
0000
0002
0000
2003
3000
0100
0000
0020
0030
0100
0000
0002
0003
,
0100
0000
1000
0000
0010
0000
0200
0300
0001
0000
0020
0030
0100
0000
2000
3000
,
0002
0000
0010
0000
1003
0000
0020
0030
0100
0000
2000
3000
0100
0000
0002
0003
,
0010
0000
0000
0000
0100
0000
0000
0000
1000
0000
0000
0000
0001
0000
0000
0000
1000
0000
0000
0000
0010
0100
0000
0000
0001
0000
0000
0000
1000
0000
0000
0000
,
0200
0300
0010
0000
0200
0300
0001
0000
0200
0300
0010
0000
0200
0300
1000
0000
,
0020
0030
0100
0000
0020
0030
0001
0000
0020
0030
0100
0000
0001
0000
1000
0000
,
0002
0000
0010
0000
1003
0000
0002
0000
0100
0000
2003
0000
0100
0000
3001
0000
,
0010
0000
0000
0000
1000
0000
0000
0000
0010
0000
0000
0000
0001
0000
0000
0000
1000
0000
0000
0000
0010
0100
0000
0000
0001
0000
0000
0000
0010
0000
0000
0000
,
0001
0000
0000
0001
0000
0000
0010
0000
,
0100
0000
0000
1000
0000
0000
1000
0000
,
0010
0000
0000
0100
0000
0000
0001
0000
,
0000
1000
0000
0000
0001
0010
0100
1000
,
0001
0000
0000
0001
0000
0000
0100
0000
,
0010
0000
0000
0010
0000
0000
1000
0000
,
0001
0000
0000
0010
0000
0000
0100
0000
,
0000
1000
0000
0000
0001
0100
0010
1000
,
0002
0010
1003
0001
1000
0000
0001
0000
,
2000
0010
3001
1000
0001
0000
0010
0001
,
1000
0000
0000
0010
0100
0001
1000
0100
,
0001
0100
1000
0001
0100
0010
1000
0001
,
2000
0100
3001
1000
0001
0000
0010
0000
,
0002
0100
1003
0001
1000
0000
0010
0100
,
0001
0000
0000
0010
0100
1000
0001
0100
,
1000
0100
0001
0100
0010
1000
0001
0010
,
0100
1000
0020
0000
0000
0000
0000
0000
,
0000
0000
0000
0000
,
0230
0000
0000
0000
,
0000
0000
0000
0000
,
0300
0000
0000
0000
;
