#TITLE:404 (New Era);
#SUBTITLE:;
#ARTIST:KiiiKiii;
#TITLETRANSLIT:;
#SUBTITLETRANSLIT:;
#ARTISTTRANSLIT:;
#GENRE:;
#CREDIT:Evergreen;
#MUSIC:404 (New Era) - Edit.ogg;
#BANNER:404 (New Era).png;
#BACKGROUND:;
#CDTITLE:;
#SAMPLESTART:0.000;
#SAMPLELENGTH:0.000;
#SELECTABLE:YES;
#OFFSET:-0.008;
#BPMS:0.000=127.000000;
#STOPS:;
#BGCHANGES:;
#FGCHANGES:;

//--------------- dance-single - XO-- ----------------
#NOTES:
     dance-single:
     XO--:
     Hard:
     7:
     0,0,0,0,0:
0000
0000
0000
0000
,
0000
0000
0000
0000
,
0000
0000
0000
0000
,
0000
0000
0000
0000
,
1000
0010
0100
0001
1000
0100
1000
0001
,
1000
0000
0010
0000
0100
0000
0001
0000
1000
0010
0000
1000
0001
0000
0000
0000
,
0001
0010
0100
1000
0001
0100
0001
1000
,
0001
0000
0010
0000
0100
0000
1000
0000
0001
0010
0000
0001
1000
0000
0000
0000
,
0010
0100
0001
0010
0200
0000
1300
0001
,
0100
0010
1000
0100
0020
0000
0031
0100
,
0001
0010
0100
1000
0002
0000
1003
0001
,
1000
0010
0100
0001
2000
0000
3001
1000
,
0100
0010
0100
1000
0020
0000
0130
0001
,
0100
0001
0010
0100
0020
0000
0130
1000
,
0001
0100
0001
1000
0200
0000
0310
0001
,
1000
0000
1000
0000
0010
0000
0000
0100
0000
0000
0001
0000
1000
0000
0000
0000
,
0001
0100
1000
0100
0001
0010
0001
0010
,
0100
1000
0010
0100
0001
0100
0001
1000
,
0100
0010
0001
1000
0010
0100
0001
1000
,
0100
0010
0100
1000
0010
0100
0001
1000
,
0002
0000
0000
0000
1003
0000
0000
0100
0000
0000
0010
0000
0001
0000
0000
0000
,
2000
0000
0000
0000
3001
0000
0000
0100
0000
0000
0010
0000
1000
0000
0000
0000
,
0002
0000
0000
0000
1003
0000
0000
0010
0000
0000
0100
0000
0001
0000
0000
0000
,
2000
0000
0000
0000
3001
0000
0000
0010
0000
0000
0100
0000
1000
0000
0000
0000
,
0001
0100
0001
0100
0001
0010
0100
1000
,
0001
0100
0001
0100
0001
0100
0010
1000
,
0100
0010
0100
1000
0010
0100
0010
1000
,
0001
0000
1000
0001
2000
0000
3002
0000
,
1003
0100
0010
0001
1000
0010
1000
0001
,
1000
0000
0100
0000
0010
0000
0001
0000
1000
0100
0000
1000
0001
0000
0100
0000
,
0001
0100
0010
1000
0001
0010
0001
1000
,
0001
0000
0100
0000
0010
0000
1000
0000
0001
0100
0000
0001
1000
0000
0100
0000
,
0010
0100
1000
0010
0100
0001
0100
0010
,
1000
0000
0100
0000
0010
0000
0100
0000
1000
0001
0000
0100
0001
0000
1000
0000
,
0010
0100
0001
0010
0100
1000
0100
0010
,
0001
0000
0100
0000
0010
0000
0100
0000
0001
1000
0000
0100
1000
0000
0001
0000
,
2000
0000
0000
0000
,
3002
0000
0000
0000
,
0023
0000
0000
0000
,
0130
1000
0010
0100
0001
1000
0100
0010
,
0002
0000
1003
0010
0200
0000
0301
0010
,
0200
0000
1300
0010
0100
0001
0100
0010
,
2000
0000
3001
1000
0200
1300
0001
1000
,
0100
0000
0010
0000
0001
0100
0010
0000
,
2000
0000
3001
0010
0200
0000
1300
0010
,
0200
0000
0301
0010
0100
1000
0100
0010
,
0002
0000
1003
0001
0200
0301
1000
0001
,
0100
0000
0010
0000
1000
0100
0010
0001
,
1000
1000
0001
0001
,
1000
0010
0100
0001
0010
0001
0100
0001
,
1000
0100
0010
0001
1000
0010
0100
0001
,
1000
0100
0010
0001
1000
0001
0010
0100
,
1000
0000
0010
0000
0100
0000
0001
0000
1000
0010
0000
0100
0001
0000
1000
0000
,
0001
0010
0100
1000
0010
1000
0100
1000
,
0001
0100
0010
1000
0001
0010
0100
1000
,
0001
0100
0010
1000
0001
1000
0010
0100
,
0001
0000
0010
0000
0100
0000
1000
0000
0001
1000
0000
0001
1000
0000
0000
0000
;

//--------------- dance-single - FS XO JA ----------------
#NOTES:
     dance-single:
     FS XO JA:
     Challenge:
     10:
     0,0,0,0,0:
0000
0000
0000
0000
,
0000
0000
0000
0000
,
0000
0000
0000
0000
,
0000
0000
0000
0000
,
1000
0000
0100
0001
0000
0000
0100
1000
0010
M000
0010
0001
1000
0000
0001
0000
,
1000
0000
0100
0001
0000
0100
1000
0000
0010
0100
0000
0010
0100
0000
0001
1000
,
0001
0100
0000
1000
0000
0000
0100
0001
0010
0010
1000
0001
1000
0000
0001
0000
,
0010
0100
1000
0010
1000
0001
0010
0100
1000
0001
0000
1000
0001
0000
0000
0000
,
1000
0000
0100
0100
0010
M000
0010
0001
1000
0000
0010
0000
0100
0001
1000
0000
,
0001
0000
0100
0100
0010
000M
0010
1000
0001
0000
0010
0000
0100
1000
0001
0000
,
1000
0000
0001
0100
0010
M000
0010
0001
1000
0000
0100
0000
0010
0001
0100
000M
,
0100
1000
0010
M000
0010
0001
0100
0000
0010
0000
0100
0000
0001
0010
0100
1000
,
0001
0000
0100
0100
0010
000M
0010
1000
0001
0000
0010
0000
0100
1000
0100
M000
,
0100
0001
0010
000M
0010
1000
0010
0100
0001
0000
0010
0000
0100
0000
1000
0000
,
0001
0000
1000
0100
0010
000M
0010
1000
0001
0000
0100
0000
0010
1000
0001
0000
,
1000
0000
1000
0000
0001
0000
0010
0100
0000
0000
1000
0000
0001
0000
0000
0000
,
1000
0000
0010
0000
0001
0000
0010
1000
0001
0000
0010
0000
0100
1000
0001
0000
,
0100
000M
0100
1000
0001
0010
0100
000M
0100
0000
0010
0000
0001
0000
0010
1000
,
0001
0000
0010
1000
0010
0000
0001
0000
1000
0000
0010
0000
0100
0001
1000
0100
,
0010
M000
0010
1000
0010
0100
0001
0000
1000
0000
0100
0010
0001
0000
1000
0000
,
0002
0000
0000
0000
1003
0000
0100
0010
0000
0000
0001
0000
1000
0000
0000
0000
,
0002
0000
0000
0000
1003
0000
0010
0100
0000
0000
0001
0000
1000
0000
0001
0000
,
1000
0000
1000
0000
0001
0000
0100
0010
0000
0000
1000
0000
0001
0000
0000
0000
,
1000
0000
1000
0000
0001
0000
0010
0100
0000
0000
1000
0000
0001
0000
0000
0000
,
1000
0100
1000
0001
0100
0010
1000
0001
0010
0100
1000
0001
0100
0010
0100
0001
,
1000
0100
1000
0001
0100
0001
0010
0100
1000
0010
1000
0001
0010
0100
1000
0001
,
0100
0010
1000
0001
0010
0100
1000
0001
0100
0010
0100
0001
1000
0100
0010
0001
,
1000
0010
1000
0001
0010
0001
0100
0010
2000
0000
0000
0000
3002
0000
0000
0000
,
1003
0000
0100
0001
0100
000M
0100
0001
0010
000M
0010
1000
0001
0100
0100
1000
,
0001
0000
0100
1000
0000
0100
0001
0000
0010
0100
0000
0010
0100
0000
0010
0000
,
0001
0100
0000
1000
0100
M000
0100
1000
0010
M000
0010
0001
1000
0100
0100
0001
,
1000
0000
0100
0001
0000
0100
1000
0000
0010
0100
0000
0010
0100
0001
1000
0000
,
0001
0000
0010
1000
0010
M000
0010
1000
0100
M000
0100
0001
1000
0010
0010
0001
,
1000
0000
0010
0001
0000
0010
1000
0000
0100
0010
0000
0100
0010
0000
0100
0000
,
1000
0000
0010
0001
0010
000M
0010
0001
0100
0100
1000
0001
0010
000M
0010
1000
,
0001
0000
1000
0000
0010
0000
0100
0001
1000
0000
0001
0000
0100
0000
0001
0000
,
2000
0000
0000
0000
,
3002
0000
0000
0000
,
0023
0000
0000
0000
0000
0000
0000
0000
,
0130
1000
0100
1000
0010
0100
0010
0100
0001
0000
1000
0100
0010
0000
0001
0000
,
0100
0000
0000
0001
0010
000M
0010
0000
1000
0000
0100
0000
0001
0000
0100
0000
,
1000
0000
0000
1000
0010
M000
0010
0000
0001
0000
0100
0000
1000
0000
0100
0000
,
0001
0000
0010
0100
1000
0000
0020
0000
0000
0000
0130
0001
1000
0000
0001
0000
,
0010
0000
0100
1000
0001
0000
0100
0000
0010
0000
1000
0000
0001
0000
0010
0000
,
0100
0000
0000
1000
0010
M000
0010
0000
0001
0000
0100
0000
1000
0000
0100
0000
,
0001
0000
0000
0001
0010
000M
0010
0000
1000
0000
0100
0000
0001
0000
0100
0000
,
1000
0000
0010
0100
0001
0000
0020
0000
0000
0000
0130
1000
0001
0000
1000
0000
,
0010
0100
0001
0010
0100
1000
0010
0100
0001
0010
0100
1000
,
0002
0000
2003
0000
3002
0000
2003
0000
,
3010
0000
0100
0001
0010
000M
0010
0000
1000
0000
0010
0100
0001
0000
1000
0000
,
0001
0000
0010
0100
1000
0000
0001
0000
1000
0100
0100
0001
1000
0000
0001
0000
,
1000
0000
0010
0001
0010
000M
0010
0001
0100
000M
0100
1000
0001
0010
0010
1000
,
0001
0000
0010
1000
0000
0010
0001
0000
0100
0010
0000
0100
0010
0000
1000
0001
,
0010
0000
0100
1000
0010
M000
0010
0000
0001
0000
0010
0100
1000
0000
0001
0000
,
1000
0000
0010
0100
0001
0000
1000
0000
0001
0100
0100
1000
0001
0000
1000
0000
,
0001
0000
0010
1000
0010
M000
0010
1000
0100
M000
0100
0001
1000
0010
0010
0001
,
1000
0000
0010
0001
0000
0010
1000
0000
0100
0010
0000
0001
1000
0000
0000
0000
;
