#TITLE:CHIKARA ("RHYTHM" Special);
#SUBTITLE:;
#ARTIST:BeForU;
#TITLETRANSLIT:;
#SUBTITLETRANSLIT:;
#ARTISTTRANSLIT:;
#CREDIT:;
#BANNER:CHIKARA (RHYTHM Special).png;
#BACKGROUND:CHIKARA (RHYTHM Special)-bg.png;
#LYRICSPATH:;
#CDTITLE:./CDTITLES/Guitar Freaks & DrumMania.png;
#MUSIC:CHIKARA.mp3;
#OFFSET:-0.561;
#SAMPLESTART:31.492;
#SAMPLELENGTH:15.000;
#SELECTABLE:YES;
#DISPLAYBPM:185.000;
#BPMS:0.000=185.000;
#STOPS:;
#BGCHANGES:;

//---------------dance-single - ----------------
#NOTES:
     dance-single:
     :
     Challenge:
     8:
     0.713,0.824,0.510,0.195,0.071: // measure 1
1000
0100
0001
0100
1000
0100
0001
0100
,  // measure 2
1000
0010
0001
0010
1000
0000
1001
0000
,  // measure 3
0010
0100
0001
0100
0010
0100
0001
0100
,  // measure 4
0010
0100
1000
0100
0010
0000
1010
0000
,  // measure 5
0001
0000
1000
0100
0010
0000
0001
0101
,  // measure 6
0000
0110
0000
1010
1000
0001
0100
0000
,  // measure 7
0100
0000
0001
0010
0100
0000
1000
0010
,  // measure 8
0100
0010
0000
0010
0100
0001
0010
0100
,  // measure 9
1000
0010
0100
0001
0000
0001
0100
0010
,  // measure 10
1000
0010
0100
0001
0000
0001
0010
0100
,  // measure 11
1000
0000
0010
0000
0100
0000
0001
1000
,  // measure 12
0000
1000
0001
0100
0010
0100
0001
0100
,  // measure 13
0010
1000
0100
1000
0000
0100
1000
0100
,  // measure 14
0010
0001
1000
0001
0000
0001
0100
0010
,  // measure 15
0000
0000
0010
0000
0100
0000
0001
0100
,  // measure 16
0000
1000
0100
0010
0001
1000
0001
0100
,  // measure 17
0010
1000
0010
1000
0000
0100
0001
0100
,  // measure 18
1000
0100
0001
0100
0000
0010
0001
0010
,  // measure 19
0000
1100
1010
1001
,  // measure 20
0101
0000
0100
0010
0000
0100
0010
1000
,  // measure 21
0002
0000
0000
2003
0000
3001
0010
0100
,  // measure 22
0000
1000
0100
0001
0100
0000
1000
0010
,  // measure 23
0100
0000
0100
0001
0000
0001
1000
0010
,  // measure 24
0000
0100
0010
0001
1000
0000
1001
0100
,  // measure 25
0002
0000
0000
1003
0010
0001
0010
0100
,  // measure 26
0001
0000
0011
0000
1001
0000
0110
0010
,  // measure 27
1000
0000
0100
0010
0000
0001
1000
0010
,  // measure 28
0100
0101
0011
1001
,  // measure 29
0101
0000
0010
0000
1000
0010
0001
0010
,  // measure 30
1000
1100
0011
0101
,  // measure 31
1010
0000
0100
0000
0010
0001
0010
1000
,  // measure 32
0100
0011
0100
1100
,  // measure 33
1010
0000
1010
0000
1010
0100
0001
0010
,  // measure 34
0200
0000
2300
0000
,  // measure 35
3020
0000
0230
0000
,  // measure 36
0302
0000
0000
0000
0003
0100
1000
0100
,  // measure 37
0001
0000
1001
0000
1001
0000
0100
0010
,  // measure 38
1000
0000
1000
0010
0000
0010
0000
0200
,  // measure 39
0000
0300
1010
0000
0101
0000
1010
0000
,  // measure 40
1000
0100
0100
0010
0001
0001
0100
0000
,  // measure 41
0001
0000
0100
0010
0000
0010
1000
0000
,  // measure 42
0100
0010
1000
0010
0001
0100
1000
0100
,  // measure 43
0010
0000
1000
0100
0000
0100
0010
0000
,  // measure 44
0001
0100
1000
0100
0010
0001
0010
1000
,  // measure 45
0200
0000
0000
0000
0300
1000
0010
0100
,  // measure 46
0001
0000
1000
0000
0100
0000
1000
0000
0010
0000
1000
0000
,  // measure 47
0001
0000
0100
0000
0010
1000
0010
0100
,  // measure 48
0001
0010
0001
0100
,  // measure 49
0010
1000
0100
1000
0100
0001
0100
1000
,  // measure 50
0010
0100
0001
0100
,  // measure 51
0001
0010
1000
0010
0001
0100
1000
0100
,  // measure 52
0101
0011
1100
1010
,  // measure 53
0100
0010
0000
0001
0000
0100
0010
1000
,  // measure 54
0020
1000
0230
0010
,  // measure 55
0302
1000
0023
0100
,  // measure 56
0032
0000
0000
0000
0103
1000
0100
0001
,  // measure 57
0010
0000
0000
0100
1000
0000
0010
0000
,  // measure 58
0100
0000
0001
0000
0010
0000
0100
1000
,  // measure 59
0010
0100
0010
0100
0010
0000
0000
0000
1000
0001
1000
0001
1000
0000
0000
0000
,  // measure 60
0010
1000
0010
1000
0010
0000
0000
0000
0100
0001
0100
0001
0100
0000
0000
0000
,  // measure 61
1000
0001
0100
0002
0000
0000
0013
0000
,  // measure 62
0110
1100
1010
0101
,  // measure 63
1001
0001
0101
0100
0110
0010
1010
1000
,  // measure 64
1001
0010
0010
0100
0001
0001
0010
0000
,  // measure 65
1100
0000
0010
0001
0100
0010
0000
0100
,  // measure 66
0010
0001
0010
1000
0000
1000
0010
0000
,  // measure 67
0101
0000
0001
0010
0100
0010
0000
0100
,  // measure 68
0001
0100
1000
0010
0100
0001
0100
0000
,  // measure 69
0220
0000
0000
0000
0000
0000
0000
0000
0000
0000
0000
0000
0330
0000
1000
0001
,  // measure 70
1000
0000
0000
0000
;
