#TITLE:Work B**ch!;
#SUBTITLE:;
#ARTIST:Britney Spears;
#TITLETRANSLIT:;
#SUBTITLETRANSLIT:;
#ARTISTTRANSLIT:;
#GENRE:;
#CREDIT:;
#BANNER:wb-bn.png;
#BACKGROUND:wb-bg.png;
#LYRICSPATH:;
#CDTITLE:;
#MUSIC:Britney Spears - Work Bitch!.mp3;
#OFFSET:-0.160;
#SAMPLESTART:47.000;
#SAMPLELENGTH:12.000;
#SELECTABLE:YES;
#BPMS:0.000=128.000
,194.000=64.000
,197.500=128.000
,198.500=64.000
,201.500=62.500
,202.000=125.000
,203.000=62.500
,207.000=128.000
,261.000=256.000
,267.000=128.000
;
#STOPS:94.500=0.469,
191.000=2.344,
266.000=0.469
;
#BGCHANGES:0.000=Video.avi=1.000=1=0=1===CrossFade==,
99999=-nosongbg-=1.000=0=0=0 // don't automatically add -songbackground-
;
#KEYSOUNDS:;
#ATTACKS:;

//---------------dance-single - ----------------
#NOTES:
     dance-single:
     :
     Hard:
     10:
     0.837,0.912,1.000,0.520,0.914,662.000,191.000,83.000,0.000,16.000,0.000,0.837,0.912,1.000,0.520,0.914,662.000,191.000,83.000,0.000,16.000,0.000: // measure 0
1001
0000
0000
0000
1001
0000
0000
0000
1001
0000
0000
0000
1001
0100
0010
0100
,  // measure 1
1001
1001
1001
1001
,  // measure 2
1001
0000
0000
0000
1001
0000
0000
0000
1001
0000
0000
0000
1001
0100
0010
0100
,  // measure 3
1001
1001
1001
1001
,  // measure 4
1001
0000
0000
0000
1001
0000
0000
0000
1001
0010
0100
0010
1000
0100
0010
0100
,  // measure 5
1001
1001
1001
1001
,  // measure 6
1001
0000
0000
0000
1001
0000
0000
0000
1001
0010
0100
0010
1000
0100
0010
0100
,  // measure 7
1001
1001
1001
1002
,  // measure 8
0023
0000
0000
0130
0000
1000
0000
0100
0000
0010
0000
0100
1000
0000
0010
0000
,  // measure 9
2001
0000
0000
3100
0000
1000
0000
0100
0000
0010
0000
0100
1000
0000
0010
0000
,  // measure 10
2001
0000
0000
3100
0000
1000
0000
0100
0000
0010
0100
1000
0100
1000
0010
0100
,  // measure 11
0002
0000
0000
0103
0000
0010
0000
0100
0000
0001
0100
0001
0010
0000
1001
0000
,  // measure 12
0020
0000
0000
0130
0000
0001
0000
0100
0000
0010
0000
0100
0001
0000
0010
0000
,  // measure 13
1002
0000
0000
0103
0000
0001
0000
0100
0000
0010
0000
0100
0001
0000
0010
0000
,  // measure 14
1002
0000
0000
0103
0000
0001
0000
0100
0000
0010
0000
0100
0001
0000
0010
0000
,  // measure 15
1002
0000
0000
0103
0000
0001
0000
0100
0000
0010
0100
0010
1000
0000
1001
0000
,  // measure 16
0200
0000
0000
0310
0000
0100
0000
0010
0000
1000
0000
0010
0100
0000
0001
0000
,  // measure 17
2001
0000
0000
3010
0000
0100
0000
0010
0000
1000
0000
0010
0100
0000
0001
0000
,  // measure 18
2001
0000
0000
3010
0000
0100
0000
0010
0000
1000
0000
0010
0100
0000
0001
0000
,  // measure 19
2001
0000
0000
3010
0000
0100
0000
0010
0000
1000
0100
0010
0100
0000
1001
0000
,  // measure 20
0101
0101
1010
1010
0101
0101
1010
1010
,  // measure 21
0101
0101
1010
1010
0101
0101
1010
1010
,  // measure 22
0001
1000
0010
0100
0001
1000
0010
0100
0001
1000
0010
0100
0001
1000
0010
0100
,  // measure 23
0001
1000
0001
1000
0001
1000
0001
1000
0001
1000
0001
1000
0001
1000
0001
1000
0002
0000
0000
0000
0003
0000
0000
0000
2001
0000
0000
0000
3010
0000
0001
0000
,  // measure 24
0000
0010
0000
0001
0000
0100
0010
0100
0001
0000
0010
0000
1001
0000
0100
0001
,  // measure 25
0000
0010
0000
0001
0000
0100
0010
0100
0001
0000
0100
0000
1001
0000
0010
1000
,  // measure 26
0000
0010
0000
1000
0000
0001
0100
0001
0010
0000
0100
0000
2001
0000
0010
0001
,  // measure 27
0000
0010
0000
0001
0000
0100
0001
0100
0010
0000
3100
0000
1001
0000
0100
0001
,  // measure 28
0000
0010
0000
0001
0000
0100
0010
0100
0001
0000
0100
0000
1001
0000
1000
0010
,  // measure 29
0000
1000
0000
0010
0000
1000
0100
1000
0001
0000
0010
0000
1001
0000
0100
0001
,  // measure 30
0000
0100
0000
0001
0000
0010
0100
1000
0100
0000
0010
0000
1002
0000
0100
1000
,  // measure 31
0000
0100
0000
1000
0000
0010
0000
0100
0000
0010
0103
0000
2001
0000
0000
3102
,  // measure 32
0000
0000
0123
0000
0000
0130
1000
0100
1000
0000
0010
0000
1002
0000
0000
0123
,  // measure 33
0000
0000
2130
0000
0000
3001
0100
0001
0100
0000
0010
0000
1002
0000
0000
2013
,  // measure 34
0000
0000
3120
0000
0000
0130
0001
0100
0001
0000
0010
0000
1002
0000
0000
0113
,  // measure 35
0000
1100
0000
0101
0000
1100
0000
0100
0000
0010
0200
0300
1002
0000
0000
2013
,  // measure 36
0000
0000
3210
0000
0000
0310
0001
0010
0001
0000
0100
0000
2001
0000
0000
3021
,  // measure 37
0000
0000
2031
0000
0000
3001
0100
0001
0100
0000
0010
0000
2001
0000
0000
3102
,  // measure 38
0000
0000
0123
0000
0000
0130
1000
0100
1000
0000
0010
0000
2001
0000
0000
3110
,  // measure 39
0000
0011
0000
1010
0000
0011
0000
0010
0000
0100
0020
0030
0101
0000
0000
0000
,  // measure 40
0101
0000
0000
0101
0000
0010
0000
0100
0001
0000
0010
0000
1100
0000
0000
0000
,  // measure 41
1100
0000
0000
1100
0000
0001
0000
0010
0100
1000
0100
0000
1001
0000
0000
0000
,  // measure 42
1001
0000
0000
1001
0000
0010
0000
0100
1000
0000
0010
0000
0110
0000
0000
0000
,  // measure 43
0110
0000
0000
0110
0000
0001
0000
0010
0100
0010
1000
0000
1010
0000
0000
0000
,  // measure 44
1010
0000
0000
1010
0000
0100
0000
0001
0010
0100
1000
0000
0101
0000
0000
0000
,  // measure 45
0101
0000
0000
0101
0000
0010
0000
1000
0100
0010
0100
0000
0110
0000
0000
0000
,  // measure 46
0110
0000
0000
0110
0000
0001
0000
0100
0010
0000
0100
0000
1001
0000
0100
0001
,  // measure 47
0000
0101
0000
1100
0000
0101
0000
1000
0000
0010
0200
0000
0300
0000
0000
0000
,  // measure 48
0100
0000
0010
0000
0100
0000
0000
0000
0120
0000
0000
0000
1000
0100
1000
0130
,  // measure 49
0020
0000
0000
0030
1000
0001
1001
0000
0101
0000
0210
0000
0020
0030
0001
0010
,  // measure 50
0001
0310
0200
0000
2300
0000
3001
0010
0101
0000
0110
0000
2001
0000
3002
0000
,  // measure 51
0000
0023
0230
0000
0320
0000
0000
0130
1000
0001
0100
0100
1001
0000
0010
0000
,  // measure 52
0101
1000
1010
0100
0101
1000
1001
0010
,  // measure 53
0110
0001
0101
1000
1020
0230
2302
3003
,  // measure 54
2002
3103
0110
0001
0101
0010
2020
3030
,  // measure 55
0201
0301
1001
0010
1010
0100
2002
3003
,  // measure 56
1002
0103
0110
0001
0022
0033
0012
0013
,  // measure 57
0110
0000
0100
0000
2002
0000
3003
0000
2002
0000
3003
0000
0110
0000
0001
0100
,  // measure 58
0000
0100
0000
0100
0002
0000
0013
0100
0000
0100
0000
0100
0002
0010
0003
0010
,  // measure 59
0100
0000
0001
0000
0102
0000
1003
0010
0000
0010
0000
0010
0002
0100
0003
0100
,  // measure 60
0010
0000
0100
0000
1002
0000
1003
0100
0000
0100
0000
0010
0002
0100
0003
0001
,  // measure 61
0010
0000
0100
0000
1002
0000
0103
0010
0000
0010
0000
1000
0002
0100
0003
0100
,  // measure 62
0000
1000
0001
0000
0101
0010
0100
0000
0010
1000
0010
0000
0100
0010
0100
0000
,  // measure 63
1010
0000
1010
0000
0001
0010
0001
0000
1000
0100
1000
0000
0001
0010
0001
0000
,  // measure 64
1100
0000
1100
0000
0001
1000
0010
0100
0001
1000
0010
0100
0001
1000
0010
0100
,  // measure 65
0001
1000
0010
0100
0001
1000
0001
1000
0001
1000
0001
1000
0001
1000
0001
1000
,  // measure 66
0001
1000
0001
1000
0002
0000
0003
0000
0000
0000
0000
0000
2001
0000
3010
0001
,  // measure 67
0000
1010
0000
0101
0000
0100
0010
0100
0001
0000
1010
0000
1001
0000
0100
0001
,  // measure 68
0000
0011
0000
1100
0000
0100
0010
0100
0001
0000
0101
0000
1001
0000
0010
1000
,  // measure 69
0000
0011
0000
1010
0000
0001
0100
0001
0010
0000
1100
0000
1001
0000
0010
0001
,  // measure 70
0000
0011
0000
1100
0000
0100
0001
0100
0010
0000
0101
0000
1001
0000
0100
0001
,  // measure 71
0000
1010
0000
0101
0000
0100
0010
0100
0001
0000
0101
0000
1001
0000
1000
0010
,  // measure 72
0000
0101
0000
1100
0000
0100
0001
0100
1000
0000
1010
0000
1001
0000
0100
0001
,  // measure 73
0000
0000
0000
0000
0000
0000
0000
0000
0000
0000
0000
0000
1001
0000
0000
0000
0000
0000
0000
0000
0000
0000
0000
0000
0000
0000
0000
0000
0000
0000
0000
0000
0000
0000
0000
0000
0110
0000
0000
0000
0000
0000
0000
0000
0000
0000
0000
0000
0000
0000
0000
0000
0000
0000
0000
0000
0000
0000
0000
0000
0010
0000
0000
0000
0000
0000
0000
0000
0000
0000
0000
0000
0100
0000
0000
0000
0000
0000
0000
0000
0000
0000
0000
0000
1000
0000
0000
0000
0000
0000
0000
0000
0000
0000
0000
0000
0100
0000
0000
0000
0000
0000
0000
0000
0000
0000
0000
0000
0000
0000
0000
0000
0000
0000
0000
0000
0000
0000
0000
0000
0110
0000
0000
0000
0000
0000
0000
0000
0000
0000
0000
0000
0000
0000
0000
0000
0000
0000
0000
0000
0000
0000
0000
0000
1002
0003
0000
0000
0000
0000
0000
0000
0000
0000
0000
0000
0000
0000
0000
0000
0000
0000
0000
0000
0000
0000
0000
0000
0010
0000
0000
0000
0000
0000
0000
0000
0000
0000
0000
0000
0100
0000
0000
0000
0000
0000
0000
0000
0000
0000
0000
0000
,  // measure 74
0000
1100
0000
0101
0000
1100
0000
0001
0010
0000
2002
0000
3003
0000
0000
0000
;

//---------------dance-single - Copied from----------------
#NOTES:
     dance-single:
     Copied from:
     Medium:
     9:
     0.536,0.679,0.488,0.407,0.116,456.000,78.000,65.000,0.000,0.000,0.000,0.536,0.679,0.488,0.407,0.116,456.000,78.000,65.000,0.000,0.000,0.000:
1000
0000
0000
0000
1000
0000
0000
0000
1000
0000
0000
0000
1000
0100
0010
0100
,
1000
1000
1000
1000
,
1000
0000
0000
0000
1000
0000
0000
0000
1000
0000
0000
0000
1000
0100
0010
0100
,
1000
1000
1000
1000
,
1000
0000
0000
0000
1000
0000
0000
0000
1000
0000
0000
0000
1000
0100
0010
0100
,
1000
1000
1000
1000
,
1000
0000
0000
0000
1000
0000
0000
0000
1000
0000
0000
0000
1000
0100
0010
0100
,
1000
1000
1000
1002
,
0013
1000
0010
0100
1000
0100
1000
0000
,
2001
0000
3100
0001
0100
0010
1000
0000
,
2001
0000
0000
3000
0100
0000
0010
0000
0100
0000
1000
0000
0100
0000
0000
0000
,
1002
0000
0000
0003
0100
0000
0010
0000
0100
0000
0001
0000
1010
0000
0000
0000
,
0020
0000
0000
0030
0100
0000
0001
0000
0100
0000
0010
0000
1000
0000
0000
0000
,
1002
0000
0013
1000
0010
0100
1000
0000
,
2001
0000
3010
0001
0100
0001
0100
0000
,
2001
0000
3001
0010
0100
0010
0100
0000
,
2001
0000
3100
0001
0100
0010
0001
0010
,
0002
0000
1003
0000
0010
1000
0010
0100
,
0002
0000
1003
0000
0010
0100
0010
0001
,
0020
0000
0031
0100
0001
0010
0001
1000
,
0100
0100
0010
0010
0100
0100
0010
0010
,
0100
0100
0010
0010
0100
0100
0010
0010
,
1001
0101
1001
0101
1001
0101
1001
0101
,
0001
1000
0001
1000
0001
1000
0001
1000
0002
0003
0000
0000
1002
0000
0000
0000
,
0013
1000
0010
0100
1000
0100
2000
0000
,
3001
0010
0100
0001
0100
0010
2000
0000
,
3001
0010
0100
0010
0100
1000
0200
0000
,
0301
0010
0100
0010
0100
0001
2000
0000
,
3010
0001
0100
0001
0100
0010
2000
0000
,
3001
0100
0010
1000
0010
0100
0002
0000
,
1003
0100
0010
0001
0100
0001
0200
0000
,
0310
0000
1000
0000
0001
0000
0010
0000
0100
0000
0010
0000
2000
0000
0000
0100
,
3000
0000
2000
0000
0000
0000
3010
0000
0001
0000
0100
0000
0020
0000
0000
1000
,
0030
0000
2000
0000
0000
0000
3001
0000
0010
0000
0001
0000
0200
0000
0000
0310
,
0000
0000
0020
0000
0000
0000
0130
0000
0010
0000
0100
0000
0020
0000
0000
1000
,
0030
0000
2000
0000
0000
0000
3100
0000
0010
0000
0001
0000
0020
0000
0000
0130
,
0000
0000
0200
0000
0000
0300
0001
0000
0010
0000
0000
0000
2000
0000
0000
3020
,
0000
0000
2030
0000
0000
3000
0001
0000
0100
0000
0001
0000
2000
0000
0000
3100
,
0000
0000
0020
0000
0000
0030
0100
0000
1000
0000
0100
0000
2000
0000
0000
3100
,
0000
0010
0000
0001
0000
0010
0000
0100
0000
1000
0000
0000
0101
0000
0000
0000
,
0101
0000
0101
0000
0101
0010
1100
0000
,
1100
0000
1100
0000
1100
0010
1001
0000
,
1001
0000
1001
0000
1001
0010
0110
0000
,
0110
0000
0110
0000
0110
1000
1010
0000
,
1010
0000
1010
0000
1010
0100
0101
0000
,
0101
0000
0101
0000
0101
0100
0110
0000
,
0110
0000
0000
0000
0110
0000
0000
0000
0110
0000
0000
0000
0110
0000
0000
0001
,
0000
0010
0000
0100
0000
1000
0000
0100
0000
0010
0200
0000
0300
0000
0000
0000
,
0100
0010
0100
0000
0120
0000
0000
0000
,
0000
0000
0030
1001
0101
0210
0000
0000
,
0000
0000
0300
0000
0101
0110
2001
0010
,
0000
0000
0010
0000
0020
0000
0030
0000
0000
3000
0100
0010
1001
0000
0000
0000
,
0101
0000
0010
0100
0001
1000
0001
0000
,
0110
0000
0100
1000
0100
0010
0100
0000
,
0200
0300
0010
0100
0001
0010
0100
0000
,
1100
0000
0001
0010
0001
0100
0002
0003
,
1002
0003
0100
0001
0020
0030
0110
0000
,
0100
0001
0020
0030
1001
0000
0100
0010
,
0001
0000
0101
0000
0020
0030
0101
0000
,
0020
0030
0101
0000
0020
0030
0101
0000
,
0020
0030
0101
0000
0020
0030
0101
0000
,
0020
0030
0101
0000
0020
0030
0101
0000
,
0020
0030
0001
0001
1000
1000
0001
0001
,
1000
1000
0001
0001
1000
1000
0001
0001
,
1000
1000
0011
0011
1100
1100
0011
0011
,
1100
1100
0001
1000
0001
1000
0001
1000
,
0001
1000
0002
0000
0003
0000
1002
0000
,
0013
1000
0010
0100
1000
0100
2000
0000
,
3001
0010
0100
0001
0100
0010
2000
0000
,
3001
0010
0100
0010
0100
1000
0200
0000
,
0301
0010
0100
0010
0100
0001
2000
0000
,
3010
0001
0100
0001
0100
0010
2000
0000
,
3001
0100
0010
1000
0010
0100
0002
0000
,
1003
0000
0100
0000
0010
0000
0001
0000
0100
0000
0001
0000
0200
0000
0000
0001
,
0300
0010
0000
0100
0000
1000
0000
0100
0010
0000
0020
0000
0030
0000
0000
0000
;

//---------------dance-single - Copied from Copied from----------------
#NOTES:
     dance-single:
     Copied from Copied from:
     Easy:
     6:
     0.374,0.374,0.275,0.338,0.025,320.000,44.000,54.000,0.000,0.000,0.000,0.374,0.374,0.275,0.338,0.025,320.000,44.000,54.000,0.000,0.000,0.000:
1000
0000
1000
0000
1000
0000
1000
0010
,
1000
1000
1000
1000
,
1000
0000
1000
0000
1000
0000
1000
0010
,
1000
1000
1000
1000
,
1000
0000
1000
0000
1000
0000
1000
0010
,
1000
1000
1000
1000
,
1000
0000
1000
0000
1000
0000
1000
0010
,
1000
1000
1000
1001
,
0020
0000
0130
0010
0100
0000
1000
0000
,
2000
3001
0001
0100
,
0200
0000
0310
0100
0010
0000
0100
0000
,
0020
1030
1000
0001
,
0002
0000
1003
0100
1000
0000
0100
0000
,
0200
0310
0010
1000
,
2000
0000
3001
0100
0001
0000
0100
0000
,
2000
3010
0010
1000
,
2000
0000
3001
0100
0001
0000
0010
0000
,
0020
1030
1000
0010
,
0002
0000
1003
0100
1000
0000
0010
0000
,
0020
0031
0001
1000
,
0101
1100
0101
1100
,
0101
1100
0101
1100
,
0001
0100
0001
0100
0001
0100
0001
0100
,
0002
0000
0000
0000
0000
0000
0000
0000
0000
0003
0000
0000
0200
0000
0000
0000
,
0310
0100
0010
0000
0001
0000
0002
0000
,
1003
1000
0010
0020
,
0130
0010
0100
0000
0010
0000
0200
0000
,
0301
0001
1000
2000
,
3001
0010
0001
0000
0010
0000
0020
0000
,
0130
0100
0001
0002
,
1003
0010
1000
0000
0010
0000
0002
0000
,
0103
0000
0000
0000
0100
0000
0000
0000
0001
0000
0000
0000
0001
0000
0000
0001
,
0000
0000
0002
0000
0000
0000
0000
0003
0010
0000
0000
0000
0010
0000
0000
0010
,
0000
0000
0020
0000
0000
0000
0000
0000
0130
0000
0000
0000
0100
0000
0000
0100
,
0000
0000
0200
0000
0000
0000
0000
0000
0310
0000
0000
0000
0010
0000
0000
0010
,
0000
0000
0020
0000
0000
0000
0000
0000
0130
0000
0000
0000
0100
0000
0000
0100
,
0000
0000
0200
0000
0000
0000
0000
0000
1300
0000
0000
0000
1000
0000
0000
1000
,
0000
0000
2000
0000
0000
3000
0000
0000
0100
0000
0000
0000
0001
0000
0000
0001
,
0000
0000
0002
0000
0000
0000
0003
0000
1000
0000
0000
0000
1000
0000
0000
0100
,
0000
0000
0020
0000
0000
0030
0000
0000
1000
0000
0000
0000
0101
0000
0000
0000
,
0101
0101
0101
1100
,
1100
1100
1100
1001
,
1001
1001
1001
0110
,
0110
0110
0110
1010
,
1010
1010
1010
0101
,
0101
0101
0101
0110
,
0110
0110
0110
0110
,
1001
0000
1001
0000
0010
0200
0300
0000
,
0100
0100
0020
0000
,
0000
0000
0030
1000
0100
0200
0000
0000
,
0000
0000
0300
0000
0001
1000
2000
0000
,
0000
0000
0000
0000
0000
0000
0000
0000
0000
3000
0100
0000
0010
0000
0000
0000
,
0100
0000
0010
0000
0001
1000
0001
0000
,
0100
1000
1000
0100
,
0100
0010
0010
0001
,
0001
0000
1000
0010
1000
0000
0002
0003
,
0002
0003
0100
0000
0200
0300
0010
0000
,
0010
1000
1000
0100
,
0001
0000
0001
0000
0020
0030
0100
0000
,
0020
0030
0001
0000
0020
0030
0100
0000
,
0020
0030
0001
0000
0020
0030
0100
0000
,
0020
0030
0001
0000
0020
0030
0100
0000
,
0020
0030
0101
0000
1000
0000
0101
0000
,
1000
0101
1000
0101
,
1000
0000
0001
0001
1000
1000
0001
0001
,
1000
1000
0002
0000
0000
0000
0000
0000
,
0000
0000
0003
0020
,
0130
0010
0100
0000
1000
0000
2000
0000
,
3001
1000
0001
0000
0100
0000
0200
0000
,
0310
0100
0010
0000
0100
0000
0020
0000
,
1030
0100
1000
0000
0001
0000
0002
0000
,
1003
0100
1000
0000
0100
0000
0200
0000
,
0310
1000
0010
0000
1000
0000
2000
0000
,
3001
0100
0001
0000
0100
0000
2000
0000
,
3010
0000
0100
0010
0100
0002
0003
0000
;
