#VERSION:0.81;
#TITLE:Woodman Stage;
#SUBTITLE:Megaman 2;
#ARTIST:Manami, Ogeretsu & Ietel;
#TITLETRANSLIT:;
#SUBTITLETRANSLIT:;
#ARTISTTRANSLIT:;
#GENRE:;
#ORIGIN:;
#CREDIT:;
#BANNER:wood-bn.png;
#BACKGROUND:black-bg.png;
#PREVIEWVID:;
#JACKET:;
#CDIMAGE:;
#DISCIMAGE:;
#LYRICSPATH:;
#CDTITLE:title.png;
#MUSIC:woodman.mp3;
#OFFSET:-0.080;
#SAMPLESTART:7.440;
#SAMPLELENGTH:13.620;
#SELECTABLE:YES;
#BPMS:0.000=180.020,
224.000=180.010,
256.000=146.010;
#STOPS:;
#DELAYS:;
#WARPS:248.000=16.000;
#TIMESIGNATURES:0.000=4=4;
#TICKCOUNTS:0.000=4;
#COMBOS:0.000=1;
#SPEEDS:0.000=1.000=0.000=0;
#SCROLLS:0.000=1.000;
#FAKES:;
#LABELS:0.000=Song Start;
#BGCHANGES:0.000=Video.avi=1.000=0=0=1=====,
99999=-nosongbg-=1.000=0=0=0 // don't automatically add -songbackground-
;
#KEYSOUNDS:;
#ATTACKS:
;

//---------------dance-single - ----------------
#NOTEDATA:;
#CHARTNAME:;
#STEPSTYPE:dance-single;
#DESCRIPTION:;
#CHARTSTYLE:;
#DIFFICULTY:Challenge;
#METER:10;
#RADARVALUES:0.860,0.899,0.667,0.651,0.600,564.000,80.000,78.000,0.000,12.000,0.000,0.000,11.000,0.860,0.899,0.667,0.651,0.600,564.000,80.000,78.000,0.000,12.000,0.000,0.000,11.000;
#CREDIT:;
#NOTES:
// measure 0
1001
0000
0011
0000
1000
1000
0101
0000
,  // measure 1
1000
1000
0101
0011
0000
0011
1001
0000
,  // measure 2
0110
0000
1001
0000
0100
0100
1001
0000
,  // measure 3
1001
0000
0010
0100
1000
0000
1010
0000
0110
0000
0101
0000
0011
0000
0110
0000
,  // measure 4
1001
0010
0100
1000
0100
0010
0001
0010
0100
1000
0100
0010
0001
0010
0100
0000
,  // measure 5
0000
0100
0000
0000
0100
0000
0110
2001
,  // measure 6
0000
0000
3001
0000
0100
0010
0000
0100
,  // measure 7
0000
1010
0000
1010
0011
0000
0102
0000
,  // measure 8
2013
0000
0000
0000
3102
0000
1003
0010
,  // measure 9
0000
0220
0000
0000
0330
0001
0010
0102
,  // measure 10
0000
0000
1000
0000
0010
0003
1000
0002
,  // measure 11
0000
0023
0230
2300
,  // measure 12
3100
0010
0100
1000
0010
0100
0001
0110
,  // measure 13
0000
0110
0000
0000
0110
0000
0110
0012
,  // measure 14
0000
0000
0103
0000
0010
0100
0000
0001
,  // measure 15
0000
1000
0000
0100
0010
0000
0012
0000
,  // measure 16
2103
0000
0001
0000
3010
0000
0100
1000
,  // measure 17
0000
2100
0000
0000
0000
3001
0010
0002
,  // measure 18
0000
0000
1000
0000
0100
0003
1000
0002
,  // measure 19
0000
0023
0230
2300
,  // measure 20
3001
0010
0100
1000
0010
0100
0001
0110
,  // measure 21
0000
0110
0000
0000
0110
0000
0110
1020
,  // measure 22
0000
0000
1000
0000
0031
1000
0000
0001
,  // measure 23
0000
0100
0000
0100
0001
0000
2100
0000
,  // measure 24
3120
0000
0000
0000
0000
0000
0000
0031
,  // measure 25
2000
3200
0320
0032
,  // measure 26
0013
0200
0000
0000
0000
0000
0000
0000
0000
0000
0000
0000
0000
0000
0000
0000
0301
0000
0000
0000
1000
0000
0000
0000
0000
0000
0000
0000
0001
0000
0000
0000
,  // measure 27
0000
0001
0000
0100
2000
0000
3200
0000
,  // measure 28
0301
0010
0100
1000
0100
0010
0001
0010
0100
1000
0100
0010
0001
0010
0100
0000
,  // measure 29
0000
0100
0000
0000
0110
0000
0110
2000
,  // measure 30
0000
0000
3001
0100
0001
0000
0010
0001
0010
0000
0001
0100
0001
0000
1000
0100
,  // measure 31
1000
0000
0010
0100
0010
0000
1000
0001
1000
0000
0001
0100
0001
0000
1000
0100
,  // measure 32
1000
0000
0010
0100
0010
0000
0100
0001
0100
0000
0010
1000
0010
0000
1000
0001
,  // measure 33
1000
0000
0010
0100
0010
0000
1000
0100
1000
0000
0001
0100
0001
0000
0100
0000
,  // measure 34
0000
0000
0001
0010
0001
0000
0100
1000
0100
0000
0010
1000
0010
0000
0100
0000
,  // measure 35
0000
0000
0001
0010
0001
0000
1000
0010
1000
0000
0000
0000
0101
0000
0000
0000
,  // measure 36
0002
0023
0230
2300
3200
0320
0032
1103
,  // measure 37
0000
1100
0000
0000
1001
0000
1001
2000
,  // measure 38
0000
0000
3001
0100
0001
0000
0010
0001
0010
0000
0001
0100
0001
0000
1000
0100
,  // measure 39
1000
0000
0010
0100
0010
0000
1000
0001
1000
0000
0001
0100
0001
0000
1000
0100
,  // measure 40
1000
0000
0010
0100
0010
0000
0100
0001
0100
0000
0010
1000
0010
0000
1000
0001
,  // measure 41
1000
0000
0010
0100
0010
0000
1000
0100
1000
0000
0001
0100
0001
0000
0010
0000
,  // measure 42
0000
0000
0001
0010
0001
0000
0100
1000
0100
0000
0010
1000
0010
0000
0100
0000
,  // measure 43
0000
0000
0001
0010
0001
0000
1000
0010
1000
0000
0000
0000
0110
0000
0000
0000
,  // measure 44
0002
0023
0230
2300
3200
0320
0032
1103
,  // measure 45
0000
1100
0000
0000
0101
0000
0101
2010
,  // measure 46
0000
3000
0100
0000
0001
0010
0000
0001
,  // measure 47
0000
0010
0000
1000
0100
0000
1002
0000
,  // measure 48
0123
1000
0130
0101
,  // measure 49
2010
3210
0321
0131
,  // measure 50
0022
0000
0000
0000
0000
0000
0000
0000
0000
0000
0000
0000
0033
0000
0000
0100
1000
0000
0000
0000
1000
0000
0000
0000
0000
0000
0000
0000
0010
0000
0000
0000
,  // measure 51
0000
0010
0000
1000
0200
0000
0320
0000
,  // measure 52
0031
0010
0100
1000
0100
0010
0001
0010
0100
1000
0100
0010
0001
0000
0010
0000
,  // measure 53
0000
0010
0000
0000
0011
0000
0011
2100
,  // measure 54
0000
0000
3001
0000
0100
0010
0000
0100
,  // measure 55
0000
1010
0000
1010
0011
0000
0102
0000
,  // measure 56
2013
0000
0000
0000
3102
0000
1003
0010
,  // measure 57
0000
0220
0000
0000
0330
0001
0010
0102
,  // measure 58
0000
0000
1000
0000
0010
0003
1000
0002
,  // measure 59
0000
0023
0230
2300
,  // measure 60
3100
0010
0100
1000
0010
0100
0001
0110
,  // measure 61
0000
0110
0000
0000
0220
0330
0220
0330
,  // measure 62
1002
0000
0000
0000
0100
0000
0000
0100
,  // measure 63
0000
0103
0010
2100
,  // measure 64
3120
0000
0000
0000
0000
0000
0000
0031
,  // measure 65
0000
0000
0000
0000
,  // measure 66
0000
0000
0000
0000
1000
0100
0010
0100
1000
0000
0000
0000
1000
0000
1000
0100
,  // measure 67
1000
0000
0000
0000
1000
0100
0010
0100
1000
0000
0000
0000
1000
0000
1000
0100
,  // measure 68
1000
0000
1000
0000
1100
0000
0000
0000
0001
0000
0001
0000
0101
0000
0000
0100
,  // measure 69
0000
0010
0100
0000
0010
0000
0100
0001
1000
0100
1000
0100
1000
0100
1000
0100
,  // measure 70
0010
0001
0000
0001
0000
0001
0010
0000
0000
0010
0001
0000
0001
0000
0001
0010
,  // measure 71
0001
0010
0000
0010
0000
0000
0000
0000
0100
0100
0000
0100
1000
0000
0100
0000
,  // measure 72
0100
1000
0000
1000
0000
1000
0100
0000
0000
0100
1000
0000
1000
0000
1000
0100
,  // measure 73
1000
0100
0000
0100
0000
0000
0000
0000
0100
0100
0000
0100
1000
0000
0100
0000
,  // measure 74
0100
0010
0000
0010
0000
0010
0100
0000
0000
0100
0010
0000
0010
0000
0010
0100
,  // measure 75
0010
0100
0000
0100
0000
0000
0000
0000
0010
0010
0000
0100
1000
0000
0010
0000
,  // measure 76
0100
0001
0000
0001
0000
0001
0100
0000
0000
0100
0001
0000
0001
0000
0001
0100
,  // measure 77
0002
0000
0000
0000
0023
0000
0000
0000
0230
0000
0000
0000
1300
0010
1000
0010
,  // measure 78
0100
1000
0000
1000
0000
1000
0100
0000
0000
0100
1000
0000
1000
0000
1000
0100
,  // measure 79
1000
0100
0000
0100
0000
0000
0000
0000
0010
0010
0000
0010
0001
0000
0010
0000
,  // measure 80
0010
0001
0000
0001
0000
0001
0010
0000
0000
0010
0001
0000
0001
0000
0001
0010
,  // measure 81
0001
0010
0000
0010
0000
0000
0000
0000
0010
0010
0000
0010
0001
0000
0010
0000
,  // measure 82
0010
0100
0000
0100
0000
0100
0010
0000
0000
0010
0100
0000
0100
0000
0100
0010
,  // measure 83
0100
0010
0000
0010
0000
0000
0000
0000
0100
0100
0000
0010
0001
0000
0100
0000
,  // measure 84
0010
1000
0000
1000
0000
1000
0010
0000
0000
0010
1000
0000
1000
0000
1000
0010
,  // measure 85
2000
0000
0000
0000
3200
0000
0000
0000
0320
0000
0000
0000
0031
0100
0001
0100
,  // measure 86
0002
0003
0000
0000
;

//---------------dance-single - ----------------
#NOTEDATA:;
#CHARTNAME:;
#STEPSTYPE:dance-single;
#DESCRIPTION:;
#CHARTSTYLE:;
#DIFFICULTY:Hard;
#METER:8;
#RADARVALUES:0.637,0.647,0.033,0.692,0.058,448.000,4.000,83.000,0.000,0.000,0.000,0.000,8.000,0.637,0.647,0.033,0.692,0.058,448.000,4.000,83.000,0.000,0.000,0.000,0.000,8.000;
#CREDIT:;
#NOTES:
1000
0000
0001
0000
0001
0010
0100
0000
,
1000
0100
0001
0010
0000
1000
0001
0000
,
0100
0000
1000
0000
0010
0100
0100
0000
,
0001
0010
1000
1000
0010
0100
0001
0010
,
0001
0100
0100
0001
0100
0100
0001
1001
,
0000
1001
0000
0000
1001
0000
0100
2000
,
0000
0000
0000
0000
3001
0010
0000
0001
,
0000
0100
0000
0100
0001
0000
0200
0000
,
2300
0000
0000
0000
3200
0000
1300
0010
,
0000
0200
0000
0000
0300
0001
0010
0200
,
0000
0000
1000
0000
0010
0300
1000
0002
,
0000
0023
0230
2300
,
3100
0010
0100
2000
0000
0000
3000
0100
,
0000
1000
0000
0000
0100
0000
1000
0020
,
0000
0000
0230
0000
0310
0100
0000
0001
,
0000
1000
0000
0010
0100
0000
0020
0000
,
0230
0000
0001
0000
0320
0000
0130
0001
,
0000
0200
0001
0000
0000
0001
0310
0002
,
0000
0000
1000
0000
0100
0003
1000
0002
,
0000
0023
0230
2300
,
3001
0010
0100
2000
0000
0000
3000
0001
,
0000
0010
0000
0000
0100
0000
0001
0020
,
0000
0000
1000
0000
0001
1000
0000
0001
,
0030
0100
0000
0010
0001
0000
2000
0000
,
3020
0000
0001
0000
1000
0000
0000
0031
,
2000
3200
0320
0032
,
0023
0000
1000
0000
0031
1000
0000
0001
,
0010
0100
1000
0100
2000
0000
3200
0000
,
0301
0100
0100
0001
0100
0100
0001
1000
,
0000
1000
0000
0000
0001
0000
0001
2000
,
0000
0000
0000
3000
0001
0100
0000
0001
,
0000
1000
0000
1000
0100
0000
0002
0000
,
2003
0000
3000
0000
0002
0000
0103
0001
,
0000
2000
0000
3000
0000
0001
1000
0002
,
0000
0000
1000
0000
0103
0000
0200
0320
,
0000
0230
2300
3200
,
0301
0010
0001
0100
0001
0100
0001
1000
,
0000
0001
0000
0000
1000
0000
0001
0200
,
0000
0300
2000
0000
3100
1000
0000
0100
,
0000
1000
0000
0100
0010
0000
0020
0000
,
0032
0000
0000
0003
0002
0000
0013
0001
,
0000
2000
0000
0000
3000
0001
0010
0002
,
0000
0000
1000
0003
0100
0000
1000
0002
,
0000
0023
0230
2300
,
3100
0010
0001
0010
0100
1000
0100
1000
,
0000
1000
0000
0000
0001
0000
0001
2000
,
0000
3000
0200
0000
0301
0010
0000
0001
,
0000
0010
0000
1000
0100
0000
0002
0000
,
0023
0000
1000
0000
0030
0000
0010
0100
,
2000
3200
0320
0032
,
0023
0000
0000
0030
1000
0100
0000
0010
,
0001
0010
0100
1000
0200
0000
0320
0000
,
0031
0100
0100
0001
0100
0100
0001
1000
,
0000
1000
0000
0000
1001
0000
0100
1000
,
0010
1000
0001
0100
0001
0010
0100
0001
,
1000
0100
0001
0100
1000
0010
0100
0001
,
0020
0000
0000
0000
0230
0000
1300
0010
,
0000
0200
0000
0000
0300
0001
0010
0200
,
0000
0000
1000
0000
0310
0000
1000
0002
,
0000
0023
0230
2300
,
3100
0010
0001
1000
0010
0100
0001
0010
,
0000
0010
0000
0000
0100
0000
1000
0000
,
1001
0000
0200
0000
0010
0000
0000
0001
,
0300
1000
0000
0010
0100
0000
0000
0000
,
0000
0000
0000
0000
,
0000
0000
0000
0000
,
0000
0000
1000
0100
1000
0000
1000
0010
,
1000
0000
1000
0100
1000
0000
1000
0010
,
1000
0000
1000
0000
0001
0000
0000
0000
1000
0000
1000
0000
0100
0000
0000
0010
,
0000
0001
0010
0000
0001
0000
0100
0000
0100
0000
0010
0000
0010
0000
0100
0000
,
0100
1000
0100
0000
0010
0000
1000
0000
0001
0000
1000
0000
0100
0000
0010
0000
,
0001
0000
0100
0000
0010
0000
1000
0000
0001
0010
0001
0000
0100
0000
0100
0000
,
0010
0100
0010
0000
1000
0000
0100
0000
1000
0000
0010
0000
1000
0000
0001
0000
,
1000
0000
0100
0000
0010
0000
0001
0000
1000
0100
1000
0000
0100
0000
0001
0000
,
0010
0100
0010
0000
1000
0000
0001
0000
1000
0000
0010
0000
0100
0000
0001
0000
,
0010
0000
0100
0000
1000
0000
0100
0000
1000
0100
1000
0000
0010
0000
0100
0000
,
0001
1000
0100
0010
0001
0100
0001
0010
,
0200
2300
3200
0320
,
0031
0010
0001
0000
0100
0000
0001
0000
1000
0000
0001
0000
0010
0000
0100
0000
,
1000
0000
0010
0000
0100
0000
0001
0000
1000
0100
1000
0000
0010
0000
0010
0000
,
0100
0010
0100
0000
0001
0000
0010
0000
0001
0000
0100
0000
0001
0000
1000
0000
,
0001
0000
0010
0000
0100
0000
1000
0000
0001
0010
0001
0000
0010
0000
1000
0000
,
0100
0010
0100
0000
0001
0000
1000
0000
0001
0000
0100
0000
0010
0000
1000
0000
,
0100
0000
0010
0000
0001
0000
0010
0000
0001
0010
0001
0000
0100
0000
0010
0000
,
1000
0001
0010
0100
1000
0010
1000
0100
,
0020
0032
0023
0230
,
2300
3000
0000
0000
;

//---------------dance-single - Copied from----------------
#NOTEDATA:;
#CHARTNAME:Copied from;
#STEPSTYPE:dance-single;
#DESCRIPTION:Copied from;
#CHARTSTYLE:;
#DIFFICULTY:Medium;
#METER:5;
#RADARVALUES:0.479,0.468,0.017,0.609,0.000,327.000,2.000,73.000,0.000,0.000,0.000,0.000,8.000,0.479,0.468,0.017,0.609,0.000,327.000,2.000,73.000,0.000,0.000,0.000,0.000,8.000;
#CREDIT:Copied from;
#NOTES:
1000
0000
1000
0000
0001
0010
0001
0000
,
1000
1000
0001
0001
,
0100
0000
1000
0000
0010
0100
0010
0000
,
0001
0011
1000
1100
,
0001
0100
0001
0100
0001
0100
0001
0100
,
0000
0100
0000
0000
0100
0000
0100
2000
,
0000
0000
0000
0000
3001
0010
0000
0001
,
0000
0100
0000
0100
0001
0000
0200
0000
,
2300
0000
0000
0000
3000
0000
1000
0010
,
0000
0200
0000
0000
0300
0001
0010
0200
,
0000
0000
0000
0000
0000
0300
1000
0002
,
0000
0023
0230
2300
,
3100
0000
0100
0000
0010
0000
0010
0001
,
0000
0001
0000
0000
0001
0000
1000
0020
,
0000
0000
0030
0000
0010
0200
0000
0301
,
0000
1000
0000
0100
0010
0000
0100
0000
,
0200
0000
0000
0000
0300
0000
0100
0001
,
0000
0200
0000
0000
0000
0000
0310
0002
,
0000
0000
0000
0000
0000
0003
1000
0002
,
0000
0023
0230
2300
,
3001
0000
0001
0000
0010
0000
0010
0100
,
0000
0100
0000
0000
0100
0000
1000
0020
,
0000
0000
0000
0000
0130
0001
0000
0010
,
0000
0100
0000
1000
0001
0000
1000
0000
,
0020
0000
0000
0000
0000
0000
0000
0031
,
2000
3200
0320
0032
,
0023
0000
0000
0000
0031
1000
0000
0001
,
0000
0100
0000
0000
2000
0000
3200
0000
,
0301
0010
0001
0010
0001
0010
0001
0010
,
0000
0010
0000
0000
0001
0000
0001
2000
,
0000
0000
0000
3000
0001
0100
0000
0001
,
0000
1000
0000
1000
0100
0000
0002
0000
,
2003
0000
0000
0000
3000
0000
0100
0001
,
0000
2000
0000
3000
0000
0000
1000
0002
,
0000
0000
0000
0000
0003
0000
0100
0020
,
0000
0230
2300
3200
,
0301
0000
0001
0000
0100
0000
0100
1000
,
0000
1000
0000
0000
1000
0000
1000
0200
,
0000
0000
0300
0000
0100
1000
0000
0100
,
0000
1000
0000
0100
0010
0000
0020
0000
,
0032
0000
0000
0003
0000
0000
0010
0100
,
0000
2000
0000
0000
3000
0000
0010
0002
,
0000
0000
0000
0003
0000
0000
1000
0002
,
0000
0023
0230
2300
,
3100
0000
0100
0000
0010
0000
0010
1000
,
0000
1000
0000
0000
0001
0000
0001
2000
,
0000
0000
3000
0000
0001
0010
0000
0001
,
0000
0010
0000
0100
1000
0000
0002
0000
,
0023
0000
0000
0000
0030
0000
0000
0100
,
2000
3200
0320
0032
,
0023
0000
0000
0030
1000
0100
0000
0010
,
0000
0010
0000
0010
0200
0000
0320
0000
,
1030
0100
1000
0100
1000
0100
1000
0100
,
0000
0100
0000
0000
0100
0000
0100
2000
,
0000
0000
0000
0000
3001
0010
0000
0001
,
0000
0100
0000
0100
0001
0000
0200
0000
,
2300
0000
0000
0000
3000
0000
1000
0010
,
0000
0200
0000
0000
0300
0001
0010
0200
,
0000
0000
0000
0000
0000
0300
1000
0002
,
0000
0023
0230
2300
,
3100
0000
0100
0000
0010
0000
0010
0001
,
0000
0001
0000
0000
0001
0000
0001
0000
,
1002
0000
0000
0000
0010
0200
0003
0301
,
0000
1000
0000
0100
0010
0000
0000
0000
,
0000
0000
0000
0000
,
0000
0000
0000
0000
,
0000
1000
1000
1000
,
1000
0000
1000
0000
1000
0000
1000
0100
,
0001
0000
0001
0000
0001
0100
1000
0000
,
1000
0100
0001
0000
0001
0100
1000
0000
,
1000
0010
1000
0000
0001
0000
0100
0000
,
0001
0000
0010
0000
0001
0001
0100
0000
,
0010
0010
1000
0000
0001
0000
1000
0000
,
0010
0000
0010
0000
1000
1000
0100
0000
,
0010
0010
1000
0000
1000
0000
0100
0000
,
0010
0000
1000
0000
1000
1000
0010
0000
,
0001
0100
0001
0001
,
0200
2300
3200
0320
,
0031
0001
0100
0000
1000
0000
0010
0000
,
1000
0000
0100
0000
1000
1000
0010
0000
,
0100
0100
0001
0000
0100
0000
0001
0000
,
0100
0000
0010
0000
0001
0001
0010
0000
,
0100
0100
0001
0000
1000
0000
0010
0000
,
0100
0000
0001
0000
0001
0001
0100
0000
,
1000
0010
1000
1000
,
0020
0032
0023
0230
,
2300
3000
0000
0000
;

//---------------dance-single - Copied from Copied f----------------
#NOTEDATA:;
#CHARTNAME:Copied from Copied f;
#STEPSTYPE:dance-single;
#DESCRIPTION:Copied from Copied f;
#CHARTSTYLE:;
#DIFFICULTY:Easy;
#METER:4;
#RADARVALUES:0.437,0.468,0.075,0.634,0.000,282.000,9.000,76.000,0.000,2.000,0.000,0.000,8.000,0.437,0.468,0.075,0.634,0.000,282.000,9.000,76.000,0.000,2.000,0.000,0.000,8.000;
#CREDIT:Copied from Copied f;
#NOTES:
1000
1100
0001
0101
,
1000
1100
0001
0101
,
0100
1000
0010
0010
,
0001
0011
1000
1100
,
0202
0000
0000
0000
0000
0000
0303
0100
,
0000
0100
0000
0000
1000
0000
1000
2000
,
0000
0000
3001
0010
,
0001
0100
0001
0200
,
2300
0000
3000
0000
,
0100
0200
0000
0000
0300
0000
0100
0200
,
0000
0000
0000
0000
0000
0300
1000
0000
,
0001
0020
0230
2300
,
3100
0100
0010
0010
,
0100
0000
0001
0000
0001
0000
0010
0020
,
0000
0030
0010
0100
,
0001
1000
0010
0100
,
0200
0000
0000
0000
0300
0000
0000
0001
,
0000
0200
0000
0000
0000
0000
0301
0002
,
0000
0000
0000
0000
0000
0003
1000
0000
,
0001
0020
0230
2300
,
3001
0001
0010
0010
,
0100
0000
0100
0000
0010
0000
0010
0020
,
0000
0000
0130
0001
,
0010
0100
1000
0001
,
0020
0000
0000
0000
0000
0000
0000
0030
,
2000
3200
0320
0032
,
0023
0000
0031
1000
,
0001
0010
2000
3200
,
0322
0000
0000
0000
0000
0000
0033
0010
,
0000
0010
0000
0000
0001
0000
1000
2000
,
0000
0000
0000
3000
0001
0000
0010
0000
,
0100
1000
0100
0020
,
2030
0000
0000
0000
3000
0000
0000
0001
,
0000
2000
0000
3000
0000
0000
0001
0002
,
0000
0000
0000
0000
0003
0000
0010
0020
,
0000
0230
2300
3200
,
0301
0001
0100
0100
,
0010
0000
0010
0000
1000
0000
0100
0200
,
0000
0300
0100
1000
,
0100
0100
0010
0020
,
0032
0000
0000
0003
0000
0000
0000
0100
,
0000
2000
0000
0000
3000
0000
0001
0002
,
0000
0000
0000
0003
0000
0000
1000
2000
,
0000
3020
0230
2300
,
3100
0100
0010
0010
,
0100
0000
0100
0000
0001
0000
1000
2000
,
0000
3000
0001
0010
,
0001
0010
1000
0002
,
0023
0000
0030
0100
,
2000
3200
0320
0032
,
0023
0000
0000
0030
1000
0000
0100
0000
,
0010
0010
0200
0320
,
2230
0000
0000
0000
0000
0000
3300
0100
,
0000
0100
0000
0000
1000
0000
1000
2000
,
0000
0000
3001
0010
,
0001
0100
0001
0200
,
2300
0000
0000
0000
3000
0000
0000
0010
,
0000
0200
0000
0000
0300
0000
0100
0200
,
0000
0000
0000
0000
0000
0300
0000
0002
,
0000
0023
0230
2300
,
3100
0100
0010
0010
,
0100
0100
0001
0001
,
1002
0000
0000
0000
0010
0200
0003
0301
,
0000
1000
0000
0100
0010
0000
0000
0000
,
0000
0000
0000
0000
,
0000
0000
0000
0000
,
0000
1000
1000
1000
,
1000
1000
1000
1000
,
0001
0001
0001
1000
,
1000
0001
0001
1000
,
1000
1000
0100
0000
0001
0000
0100
0000
,
0001
0010
0001
0100
,
0010
0010
1000
0000
0001
0000
1000
0000
,
0010
0010
1000
0100
,
0010
0010
1000
0000
1000
0000
0100
0000
,
0010
1000
1000
0010
,
0001
0001
0100
0000
0001
0000
0001
0000
,
0200
2300
3200
0320
,
0031
0001
0100
0000
1000
0000
0010
0000
,
1000
0100
1000
0010
,
0100
0100
0001
0000
0100
0000
0001
0000
,
0100
0010
0001
0010
,
0100
0100
0001
0000
1000
0000
0010
0000
,
0100
0001
0001
0100
,
1000
1000
0010
0000
1000
0000
1000
0000
,
0020
0032
0023
0230
,
2300
3000
0000
0000
;
