#VERSION:0.81;
#TITLE:Womanizer;
#SUBTITLE:Circus;
#ARTIST:Britney Spears;
#TITLETRANSLIT:;
#SUBTITLETRANSLIT:;
#ARTISTTRANSLIT:;
#GENRE:;
#ORIGIN:;
#CREDIT:;
#BANNER:W-BN.png;
#BACKGROUND:black-bg.png;
#PREVIEWVID:;
#JACKET:AlbumArt_{0446F4FA-2465-4581-A855-189C346A67EA}_Large.jpg;
#CDIMAGE:AlbumArt_{0446F4FA-2465-4581-A855-189C346A67EA}_Small.jpg;
#DISCIMAGE:;
#LYRICSPATH:;
#CDTITLE:;
#MUSIC:01 Womanizer (Radio Rip).mp3;
#OFFSET:1.940;
#SAMPLESTART:123.800;
#SAMPLELENGTH:15.620;
#SELECTABLE:YES;
#BPMS:0.000=139.000,
70.000=278.000,
73.000=139.000,
134.000=278.000,
135.000=139.000,
135.500=278.000,
136.500=139.000,
137.000=278.000,
138.000=139.000,
138.500=278.000,
139.500=139.000,
140.000=278.000,
141.000=139.000,
141.500=278.000,
142.500=139.000,
143.000=278.000,
144.000=139.000,
144.500=278.000,
145.500=139.000,
146.000=278.000,
147.000=139.000,
147.500=278.000,
148.500=139.000,
149.000=278.000,
150.000=139.000,
150.500=278.000,
151.500=139.000,
152.000=278.000,
153.000=139.000,
153.500=278.000,
154.500=139.000,
155.000=278.000,
156.000=139.000,
156.500=278.000,
157.500=139.000,
174.000=278.000,
175.000=139.000,
175.500=278.000,
176.500=139.000,
177.000=278.000,
178.000=139.000,
178.500=278.000,
179.500=139.000,
180.000=278.000,
181.000=139.000,
181.500=278.000,
182.500=139.000,
183.000=278.000,
184.000=139.000,
184.500=278.000,
185.500=139.000,
186.000=278.000,
187.000=139.000,
187.500=278.000,
188.500=139.000,
189.000=278.000,
190.000=139.000,
190.500=278.000,
191.500=139.000,
192.000=278.000,
193.000=139.000,
193.500=278.000,
194.500=139.000,
195.000=278.000,
196.000=139.000,
196.500=278.000,
197.500=139.000,
246.000=69.500,
261.000=139.000,
263.000=278.000,
264.000=139.000,
264.500=278.000,
265.500=139.000,
266.000=278.000,
267.000=139.000,
267.500=278.000,
268.500=139.000,
269.000=278.000,
270.000=139.000,
270.500=278.000,
271.500=139.000,
272.000=278.000,
273.000=139.000,
273.500=278.000,
274.500=139.000,
275.000=278.000,
276.000=139.000,
276.500=278.000,
277.500=139.000,
278.000=278.000,
279.000=139.000,
279.500=278.000,
280.500=139.000,
281.000=278.000,
282.000=139.000,
282.500=278.000,
283.500=139.000,
284.000=278.000,
285.000=139.000,
285.500=278.000,
286.500=139.000,
303.000=278.000,
304.000=139.000,
304.500=278.000,
305.500=139.000,
306.000=278.000,
307.000=139.000,
307.500=278.000,
308.500=139.000,
309.000=278.000,
310.000=139.000,
310.500=278.000,
311.500=139.000,
312.000=278.000,
313.000=139.000,
313.500=278.000,
314.500=139.000,
315.000=278.000,
316.000=139.000,
316.500=278.000,
317.500=139.000,
318.000=278.000,
319.000=139.000,
319.500=278.000,
320.500=139.000,
321.000=278.000,
322.000=139.000,
322.500=278.000,
323.500=139.000,
324.000=278.000,
325.000=139.000,
325.500=278.000,
326.500=139.000;
#STOPS:70.000=0.216;
#DELAYS:;
#WARPS:;
#TIMESIGNATURES:0.000=4=4;
#TICKCOUNTS:0.000=4;
#COMBOS:0.000=1;
#SPEEDS:0.000=1.000=0.000=0;
#SCROLLS:0.000=1.000;
#FAKES:;
#LABELS:0.000=Song Start;
#BGCHANGES:5.000=Video.avi=1.000=1=0=1===CrossFade==,
99999=-nosongbg-=1.000=0=0=0 // don't automatically add -songbackground-
;
#KEYSOUNDS:;
#ATTACKS:
;

//---------------dance-single - ----------------
#NOTEDATA:;
#CHARTNAME:;
#STEPSTYPE:dance-single;
#DESCRIPTION:;
#CHARTSTYLE:;
#DIFFICULTY:Challenge;
#METER:11;
#RADARVALUES:0.898,1.000,1.000,0.390,0.994,642.000,249.000,60.000,0.000,40.000,0.000,0.000,0.000,0.898,1.000,1.000,0.390,0.994,642.000,249.000,60.000,0.000,40.000,0.000,0.000,0.000;
#CREDIT:;
#OFFSET:1.900;
#BPMS:0.000=139.000
,70.000=278.000
,73.000=139.000
,134.000=278.000
,135.000=139.000
,135.500=278.000
,136.500=139.000
,137.000=278.000
,138.000=139.000
,138.500=278.000
,139.500=139.000
,140.000=278.000
,141.000=139.000
,141.500=278.000
,142.500=139.000
,143.000=278.000
,144.000=139.000
,144.500=278.000
,145.500=139.000
,146.000=278.000
,147.000=139.000
,147.500=278.000
,148.500=139.000
,149.000=278.000
,150.000=139.000
,150.500=278.000
,151.500=139.000
,152.000=278.000
,153.000=139.000
,153.500=278.000
,154.500=139.000
,155.000=278.000
,156.000=139.000
,156.500=278.000
,157.500=139.000
,174.000=278.000
,175.000=139.000
,175.500=278.000
,176.500=139.000
,177.000=278.000
,178.000=139.000
,178.500=278.000
,179.500=139.000
,180.000=278.000
,181.000=139.000
,181.500=278.000
,182.500=139.000
,183.000=278.000
,184.000=139.000
,184.500=278.000
,185.500=139.000
,186.000=278.000
,187.000=139.000
,187.500=278.000
,188.500=139.000
,189.000=278.000
,190.000=139.000
,190.500=278.000
,191.500=139.000
,192.000=278.000
,193.000=139.000
,193.500=278.000
,194.500=139.000
,195.000=278.000
,196.000=139.000
,196.500=278.000
,197.500=139.000
,246.000=69.500
,261.000=139.000
,263.000=278.000
,264.000=139.000
,264.500=278.000
,265.500=139.000
,266.000=278.000
,267.000=139.000
,267.500=278.000
,268.500=139.000
,269.000=278.000
,270.000=139.000
,270.500=278.000
,271.500=139.000
,272.000=278.000
,273.000=139.000
,273.500=278.000
,274.500=139.000
,275.000=278.000
,276.000=139.000
,276.500=278.000
,277.500=139.000
,278.000=278.000
,279.000=139.000
,279.500=278.000
,280.500=139.000
,281.000=278.000
,282.000=139.000
,282.500=278.000
,283.500=139.000
,284.000=278.000
,285.000=139.000
,285.500=278.000
,286.500=139.000
,303.000=278.000
,304.000=139.000
,304.500=278.000
,305.500=139.000
,306.000=278.000
,307.000=139.000
,307.500=278.000
,308.500=139.000
,309.000=278.000
,310.000=139.000
,310.500=278.000
,311.500=139.000
,312.000=278.000
,313.000=139.000
,313.500=278.000
,314.500=139.000
,315.000=278.000
,316.000=139.000
,316.500=278.000
,317.500=139.000
,318.000=278.000
,319.000=139.000
,319.500=278.000
,320.500=139.000
,321.000=278.000
,322.000=139.000
,322.500=278.000
,323.500=139.000
,324.000=278.000
,325.000=139.000
,325.500=278.000
,326.500=139.000
;
#STOPS:70.000=0.216
;
#DELAYS:;
#WARPS:;
#TIMESIGNATURES:0.000=4=4
;
#TICKCOUNTS:0.000=4
;
#COMBOS:0.000=1
;
#SPEEDS:0.000=1.000=0.000=0
;
#SCROLLS:0.000=1.000
;
#FAKES:;
#LABELS:0.000=Song Start
;
#NOTES:
0000
0000
0000
0000
,
0000
0000
0000
2010
0000
0010
0010
0010
0010
0010
0000
0010
,
3000
1000
0001
2000
0000
0100
0100
0100
0100
0100
0000
0100
,
3000
1000
0001
2000
0000
0010
0010
0010
0010
0010
0000
0010
,
3000
1000
0001
2000
0000
0001
0001
0001
0001
0001
0000
0001
,
3000
0001
1000
0002
0000
0100
0100
0100
0100
0100
0000
0100
,
0003
0001
1000
0002
0000
0010
0010
0010
0010
0010
0000
0010
,
0003
0100
1000
0200
0000
0010
0010
0010
0010
0010
0000
0010
,
0300
0010
0001
0020
0000
0100
0100
0100
0100
1031
1001
1001
,
0101
0101
0101
1001
0000
0010
0100
0000
0000
0101
0000
0000
,
1001
0000
0100
1000
0000
0100
1000
0000
0100
1000
0000
0100
,
0000
0000
0000
1001
0000
0010
0100
0000
0000
0101
0000
0000
,
1001
0000
0100
0001
0000
0100
0001
0000
0100
0001
0000
0100
,
0000
0000
0000
1001
0000
0100
1000
0000
0100
1000
0000
0001
,
0010
0000
0001
0010
0000
0100
1000
0000
0100
1000
0000
0010
,
0100
0000
0010
0100
0000
0001
0102
0000
0000
1000
0000
0000
,
0113
0000
0000
1100
0000
1000
2100
0000
0000
0001
0000
0000
,
3101
0000
0000
0000
0000
0000
0000
0000
0000
0000
0000
0000
0110
0000
0000
0000
0000
0000
1100
0000
0000
0011
0000
0000
1100
0000
0000
0000
0000
0000
0000
0000
0000
0000
0000
0000
0001
0000
0000
0000
1000
0000
0000
0000
0001
0000
0000
0000
,
1000
0001
1000
0011
0000
0100
0001
0000
0100
0001
0000
0100
,
0001
0000
0100
0000
0000
1000
1001
0000
0010
0100
0000
0000
,
0000
0000
0100
0001
0000
0010
0100
0000
0010
0100
0000
0010
,
0100
0000
0010
0000
0000
0000
1100
0000
0001
0010
0000
0001
,
0100
0000
0001
1000
0000
0100
1000
0000
0010
1000
0000
0001
,
1000
0000
0100
1000
0000
0001
0010
0000
0100
0120
0000
0000
,
1000
0000
0000
1130
0000
0000
0101
0000
0010
0110
0000
0000
,
1001
0000
0000
0101
0000
0000
1200
0000
1000
1300
0000
0001
,
0101
0000
0001
0101
0000
0001
0011
0000
0001
0101
0000
0001
,
0011
0000
0001
0101
0000
0001
1002
0000
1000
1003
0000
0100
,
1100
0000
0010
2010
0000
0001
3001
0000
0100
0101
0000
0001
,
0011
0000
0001
0101
0000
1100
2001
0000
0000
3110
0000
0110
,
0000
0000
0110
0000
0000
0000
1002
0000
0000
0113
0000
0110
,
0000
0000
0110
0000
0000
0000
1200
0000
1000
1300
0000
1000
,
1100
0000
1000
1100
0000
1000
1010
0000
1000
1100
0000
1000
,
0011
0000
0011
0000
0011
0000
1100
0000
1100
0000
1100
0000
2002
0000
0000
3003
0000
0000
0000
0101
0000
0101
0000
0000
,
0000
0000
0000
0000
1010
0000
1010
0000
0000
0000
0000
0000
0000
1021
0000
1031
0000
0000
0000
0000
0000
0000
1100
0000
,
1100
0000
0000
0000
0000
0000
0000
0110
0000
0110
0000
0000
0000
0000
0000
0000
0011
0000
0011
0000
0000
0000
0000
0000
,
0000
1120
0000
1130
0000
0000
0000
0000
0000
0000
0000
0000
0101
0000
0000
0000
0000
0000
0000
0011
0000
0011
0000
0000
,
0000
0000
0000
0000
1001
0000
1001
0000
0000
0000
0000
0000
0000
2101
0000
3101
0000
0000
0000
0000
0000
0000
1100
0000
,
1100
0000
0000
0000
0000
0000
0000
0110
0000
0110
0000
0000
0000
0000
0000
0000
0011
0000
0011
0000
0000
0000
0000
0000
,
0000
1102
0000
1103
0000
0000
0000
0000
0000
0000
0000
0000
2100
0000
0000
0000
0000
0000
0010
0000
0000
0000
0001
0000
,
3010
0000
0010
0001
0000
0100
2000
0000
0000
0001
0000
0010
,
3100
0000
0100
0010
0000
0100
0002
0000
0000
1000
0000
0100
,
1003
0000
1000
0010
0000
0100
0110
0000
0000
1010
0000
0100
,
0010
0000
0000
0000
0100
0000
0010
0000
0000
0000
0100
0000
1001
0000
0000
0000
0000
0000
0000
0011
0000
0011
0000
0000
,
0000
0000
0000
0000
1100
0000
1100
0000
0000
0000
0000
0000
0000
2110
0000
3110
0000
0000
0000
0000
0000
0000
0101
0000
,
0101
0000
0000
0000
0000
0000
0000
1001
0000
1001
0000
0000
0000
0000
0000
0000
1010
0000
1010
0000
0000
0000
0000
0000
,
0000
2101
0000
3101
0000
0000
0000
0000
0000
0000
0000
0000
0011
0000
0000
0000
0000
0000
0000
1010
0000
1010
0000
0000
,
0000
0000
0000
0000
0110
0000
0110
0000
0000
0000
0000
0000
0000
0211
0000
0311
0000
0000
0000
0000
0000
0000
0101
0000
,
0101
0000
0000
0000
0000
0000
0000
1001
0000
1001
0000
0000
0000
0000
0000
0000
1010
0000
1010
0000
0000
0000
0000
0000
,
0000
0121
0000
0131
0000
0000
0000
0000
0000
0000
0000
0000
0201
0000
0000
0000
0000
0000
1000
0000
0000
0000
0010
0000
,
0301
0000
0001
0010
0000
0010
0200
0000
0000
0010
0000
1000
,
0301
0000
0001
1000
0000
0100
0020
0000
0000
0100
0000
0001
,
0130
0000
0100
1000
0000
0000
1001
0000
0100
1000
0000
0001
,
1000
0000
0010
1000
0000
0000
0110
0000
0000
1001
0000
0000
,
1100
0000
0010
0100
0000
0010
0100
0000
0000
1010
0000
0000
,
0100
0000
0000
0010
0000
0000
1000
0000
0000
0001
0000
0000
1002
0000
0000
0000
0100
0000
1000
0000
0000
0000
0100
0000
,
1000
0000
0100
1000
0000
0100
1000
0000
0100
1000
0000
0100
,
1003
0000
0100
1000
0000
0100
1100
0000
0000
1001
0000
0000
,
1000
0000
0100
0010
0000
0001
0100
0000
0010
1000
0000
0001
,
0100
0000
0001
0010
0000
0100
1100
0000
0000
1010
0000
0100
,
0010
0000
1000
0001
0000
0001
1000
0000
0000
1100
0000
0000
,
1001
0000
1001
0000
1001
0000
0101
0000
0101
0000
0101
0000
1200
0000
1000
1300
0000
0001
0100
0000
0001
0100
0000
0001
,
0010
0000
0001
0100
0000
0001
0010
0000
0001
0100
0000
0001
0002
0000
1000
1003
0000
0100
1000
0000
0010
2000
0000
0001
,
3001
0000
0100
0001
0000
0100
0010
0000
0100
0001
0000
1000
2000
0000
0000
3110
0000
0110
0000
0000
0110
0000
0000
0000
,
1002
0000
0000
0113
0000
0110
0000
0000
0110
0000
0000
0000
1200
0000
1000
1300
0000
1000
0100
0000
1000
0100
0000
1000
,
0010
0000
1000
0100
0000
1000
0011
0000
0011
0000
0011
0000
1100
0000
1100
0000
1100
0000
1001
0000
0000
0000
0000
0000
,
0000
0101
0000
0101
0000
0000
0000
0000
0000
0000
1010
0000
1010
0000
0000
0000
0000
0000
0000
1021
0000
1031
0000
0000
,
0000
0000
0000
0000
1100
0000
1100
0000
0000
0000
0000
0000
0000
0110
0000
0110
0000
0000
0000
0000
0000
0000
0011
0000
,
0011
0000
0000
0000
0000
0000
0000
1120
0000
1130
0000
0000
0000
0000
0000
0000
0000
0000
0101
0000
0000
0000
0000
0000
,
0000
0011
0000
0011
0000
0000
0000
0000
0000
0000
1001
0000
1001
0000
0000
0000
0000
0000
0000
2101
0000
3101
0000
0000
,
0000
0000
0000
0000
1100
0000
1100
0000
0000
0000
0000
0000
0000
0110
0000
0110
0000
0000
0000
0000
0000
0000
0011
0000
,
0011
0000
0000
0000
0000
0000
0000
1102
0000
1103
0000
0000
0000
0000
0000
0000
0000
0000
2100
0000
0000
0000
0000
0000
,
0010
0000
0001
3010
0000
0010
0100
0000
0000
2100
0000
0000
,
0001
0000
0010
3100
0000
0100
0010
0000
0000
0102
0000
0000
,
1000
0000
0100
1003
0000
1000
0010
0000
0000
0110
0000
0000
,
1010
0000
0100
0010
0000
0100
0010
0000
0100
1001
0000
0000
,
0000
0011
0000
0011
0000
0000
0000
0000
0000
0000
1100
0000
1100
0000
0000
0000
0000
0000
0000
2110
0000
3110
0000
0000
,
0000
0000
0000
0000
0101
0000
0101
0000
0000
0000
0000
0000
0000
1001
0000
1001
0000
0000
0000
0000
0000
0000
1010
0000
,
1010
0000
0000
0000
0000
0000
0000
2101
0000
3101
0000
0000
0000
0000
0000
0000
0000
0000
0011
0000
0000
0000
0000
0000
,
0000
1010
0000
1010
0000
0000
0000
0000
0000
0000
0110
0000
0110
0000
0000
0000
0000
0000
0000
0211
0000
0311
0000
0000
,
0000
0000
0000
0000
0101
0000
0101
0000
0000
0000
0000
0000
0000
1001
0000
1001
0000
0000
0000
0000
0000
0000
1010
0000
,
1010
0000
0000
0000
0000
0000
0000
0121
0000
0131
0000
0000
0000
0000
0000
0000
0000
0000
0201
0000
0000
0000
0000
0000
,
1000
0000
0010
0301
0000
0001
0010
0000
0010
0200
0000
0000
,
0010
0000
1000
0310
0000
0010
0100
0000
0001
0020
0000
0000
,
0100
0000
0001
0130
0000
0100
1000
0000
0010
0002
0000
0000
,
1003
0000
0100
1000
0000
0100
1000
0000
0000
1001
0000
0100
,
0101
0000
1000
1010
0000
0021
0031
0000
1000
1100
0000
0010
,
0110
0000
0001
0011
0000
1100
1100
0000
0000
0101
0000
0001
,
0011
0000
0001
1001
0000
0101
0101
0000
1000
1100
0000
0010
,
0110
0000
0001
0011
0000
1100
1100
0000
0000
0101
0000
0001
,
0100
0000
0001
0100
0000
0001
0100
0000
0001
0100
0000
0010
,
1000
0000
0010
1000
0000
0010
1000
0000
0010
0200
0000
0301
,
0100
0000
0001
0100
0000
0001
0200
0000
0300
1001
0000
0100
,
0010
0000
0100
0010
0000
0100
0010
0000
2002
0000
0000
0000
,
0000
3003
0000
0000
;

//---------------dance-single - Copied from----------------
#NOTEDATA:;
#CHARTNAME:Copied from;
#STEPSTYPE:dance-single;
#DESCRIPTION:Copied from;
#CHARTSTYLE:;
#DIFFICULTY:Hard;
#METER:9;
#RADARVALUES:0.621,0.857,0.292,0.201,0.790,593.000,45.000,31.000,0.000,0.000,0.000,0.000,0.000,0.621,0.857,0.292,0.201,0.790,593.000,45.000,31.000,0.000,0.000,0.000,0.000,0.000;
#CREDIT:Copied from;
#OFFSET:1.920;
#BPMS:0.000=139.000
,70.000=278.000
,73.000=139.000
,134.000=278.000
,135.000=139.000
,135.500=278.000
,136.500=139.000
,137.000=278.000
,138.000=139.000
,138.500=278.000
,139.500=139.000
,140.000=278.000
,141.000=139.000
,141.500=278.000
,142.500=139.000
,143.000=278.000
,144.000=139.000
,144.500=278.000
,145.500=139.000
,146.000=278.000
,147.000=139.000
,147.500=278.000
,148.500=139.000
,149.000=278.000
,150.000=139.000
,150.500=278.000
,151.500=139.000
,152.000=278.000
,153.000=139.000
,153.500=278.000
,154.500=139.000
,155.000=278.000
,156.000=139.000
,156.500=278.000
,157.500=139.000
,174.000=278.000
,175.000=139.000
,175.500=278.000
,176.500=139.000
,177.000=278.000
,178.000=139.000
,178.500=278.000
,179.500=139.000
,180.000=278.000
,181.000=139.000
,181.500=278.000
,182.500=139.000
,183.000=278.000
,184.000=139.000
,184.500=278.000
,185.500=139.000
,186.000=278.000
,187.000=139.000
,187.500=278.000
,188.500=139.000
,189.000=278.000
,190.000=139.000
,190.500=278.000
,191.500=139.000
,192.000=278.000
,193.000=139.000
,193.500=278.000
,194.500=139.000
,195.000=278.000
,196.000=139.000
,196.500=278.000
,197.500=139.000
,246.000=69.500
,261.000=139.000
,263.000=278.000
,264.000=139.000
,264.500=278.000
,265.500=139.000
,266.000=278.000
,267.000=139.000
,267.500=278.000
,268.500=139.000
,269.000=278.000
,270.000=139.000
,270.500=278.000
,271.500=139.000
,272.000=278.000
,273.000=139.000
,273.500=278.000
,274.500=139.000
,275.000=278.000
,276.000=139.000
,276.500=278.000
,277.500=139.000
,278.000=278.000
,279.000=139.000
,279.500=278.000
,280.500=139.000
,281.000=278.000
,282.000=139.000
,282.500=278.000
,283.500=139.000
,284.000=278.000
,285.000=139.000
,285.500=278.000
,286.500=139.000
,303.000=278.000
,304.000=139.000
,304.500=278.000
,305.500=139.000
,306.000=278.000
,307.000=139.000
,307.500=278.000
,308.500=139.000
,309.000=278.000
,310.000=139.000
,310.500=278.000
,311.500=139.000
,312.000=278.000
,313.000=139.000
,313.500=278.000
,314.500=139.000
,315.000=278.000
,316.000=139.000
,316.500=278.000
,317.500=139.000
,318.000=278.000
,319.000=139.000
,319.500=278.000
,320.500=139.000
,321.000=278.000
,322.000=139.000
,322.500=278.000
,323.500=139.000
,324.000=278.000
,325.000=139.000
,325.500=278.000
,326.500=139.000
;
#STOPS:70.000=0.216
;
#DELAYS:;
#WARPS:;
#TIMESIGNATURES:0.000=4=4
;
#TICKCOUNTS:0.000=4
;
#COMBOS:0.000=1
;
#SPEEDS:0.000=1.000=0.000=0
;
#SCROLLS:0.000=1.000
;
#FAKES:;
#LABELS:0.000=Song Start
;
#NOTES:
0000
0000
0000
0000
,
0000
2010
0000
0000
,
3000
1000
0001
2000
0000
0000
0000
0000
0000
0000
0000
0000
,
3000
1000
0001
2000
0000
0000
0000
0000
0000
0000
0000
0000
,
3000
1000
0001
2000
0000
0000
0000
0000
0000
0000
0000
0000
,
3000
0001
1000
0002
0000
0000
0000
0000
0000
0000
0000
0000
,
0003
0001
1000
0002
0000
0000
0000
0000
0000
0000
0000
0000
,
0003
0100
1000
0200
0000
0000
0000
0000
0000
0000
0000
0000
,
0300
0010
0001
0020
0000
0000
0000
0000
0000
0031
1000
0001
,
0100
0001
0100
0001
0000
0010
0100
0000
0000
1000
0000
0000
,
0001
0000
0100
1000
0000
0100
1000
0000
0100
1000
0000
0100
,
1000
0000
0000
0001
0000
0010
0100
0000
0000
0100
0000
0000
,
1000
0000
0100
0001
0000
0100
0001
0000
0100
0001
0000
0100
,
0001
0000
0000
1000
0000
0100
1000
0000
0100
1000
0000
0001
,
0010
0000
0001
0010
0000
0100
1000
0000
0100
1000
0000
0010
,
0100
0000
0010
0100
0000
0001
0010
0000
0000
1000
0000
0000
,
0110
0000
0000
1000
0000
0001
0100
0000
0000
0001
0000
0000
,
1100
0000
0000
0000
0000
0000
0000
0000
0000
0000
0000
0000
1000
0000
0000
0000
0000
0000
0001
0000
0000
1000
0000
0000
0001
0000
0000
0000
0000
0000
0000
0000
0000
0000
0000
0000
0001
0000
0000
0000
1000
0000
0000
0000
0001
0000
0000
0000
,
1000
0001
1000
0001
0000
0100
0001
0000
0100
0001
0000
0100
,
0001
0000
0100
0001
0000
1000
0001
0000
0010
0100
0000
0000
,
0010
0000
0100
0001
0000
0010
0100
0000
0010
0100
0000
0010
,
0100
0000
0010
0100
0000
0000
1000
0000
0001
0010
0000
0001
,
0100
0000
0001
1000
0000
0100
1000
0000
0010
1000
0000
0001
,
1000
0000
0100
1000
0000
0001
0010
0000
0100
0020
0000
0000
,
1000
0000
0000
0130
0000
0000
0001
0000
0010
0100
0000
0000
,
1000
0000
0000
0001
0000
0000
1100
0000
1000
0001
0000
0001
,
0100
0000
0001
0100
0000
0001
0010
0000
0001
0100
0000
0001
,
0010
0000
0001
0100
0000
0001
1000
0000
1000
0100
0000
0100
,
1000
0000
1000
0001
0000
0001
0100
0000
0100
0001
0000
0001
,
0010
0000
0010
0001
0000
0001
2000
0000
0000
3010
0000
0010
,
0000
0000
0010
0000
0000
0000
0002
0000
0000
0103
0000
0100
,
0000
0000
0100
0000
0000
0000
1100
0000
1000
0100
0000
1000
,
0100
0000
1000
0100
0000
1000
0010
0000
1000
0100
0000
1000
,
0001
0000
0010
0000
0001
0000
1000
0000
0100
0000
1000
0000
0001
0000
0000
0000
0000
0000
0000
0100
0000
0001
0000
0000
,
0000
0000
0000
0000
1000
0000
0010
0000
0000
0000
0000
0000
0000
1000
0000
1010
0000
0000
0000
0000
0000
0000
1000
0000
,
0100
0000
0000
0000
0000
0000
0000
0010
0000
0001
0000
0000
0000
0000
0000
0000
1000
0000
0100
0000
0000
0000
0000
0000
,
0000
0010
0000
0011
0000
0000
0000
0000
0000
0000
0000
0000
1001
0000
0000
0000
0000
0000
0000
0001
0000
0100
0000
0000
,
0000
0000
0000
0000
0010
0000
1000
0000
0000
0000
0000
0000
0000
0001
0000
0101
0000
0000
0000
0000
0000
0000
1000
0000
,
0100
0000
0000
0000
0000
0000
0000
0010
0000
0001
0000
0000
0000
0000
0000
0000
1000
0000
0100
0000
0000
0000
0000
0000
,
0000
0010
0000
0011
0000
0000
0000
0000
0000
0000
0000
0000
2100
0000
0000
0000
0000
0000
3010
0000
0000
0001
0000
0000
,
0001
0001
0100
0000
2100
0000
3001
0010
,
0010
0010
0100
0000
0102
0000
1003
0100
,
0100
0000
0000
0100
0000
0000
0010
0000
0000
0000
0000
0000
0110
0000
0000
0000
0000
0000
0010
0000
0000
0000
0100
0000
,
0010
0000
0000
0000
0100
0000
0010
0000
0000
0000
0100
0000
0001
0000
0000
0000
0000
0000
0000
0100
0000
0001
0000
0000
,
0000
0000
0000
0000
1000
0000
0010
0000
0000
0000
0000
0000
0000
1000
0000
1010
0000
0000
0000
0000
0000
0000
1000
0000
,
0100
0000
0000
0000
0000
0000
0000
0010
0000
0001
0000
0000
0000
0000
0000
0000
1000
0000
0100
0000
0000
0000
0000
0000
,
0000
0010
0000
0011
0000
0000
0000
0000
0000
0000
0000
0000
1001
0000
0000
0000
0000
0000
0000
0001
0000
0100
0000
0000
,
0000
0000
0000
0000
0010
0000
1000
0000
0000
0000
0000
0000
0000
0001
0000
0101
0000
0000
0000
0000
0000
0000
1000
0000
,
0100
0000
0000
0000
0000
0000
0000
0010
0000
0001
0000
0000
0000
0000
0000
0000
1000
0000
0100
0000
0000
0000
0000
0000
,
0000
0000
0000
0000
0000
0000
0000
0000
0010
0000
0000
0000
0000
0000
0000
0000
0000
0000
0000
0000
0000
0000
0000
0000
0011
0000
0000
0000
0000
0000
0000
0000
0000
0000
0000
0000
0000
0000
0000
0000
0000
0000
0000
0000
0000
0000
0000
0000
0000
0000
0000
0000
0000
0000
0000
0000
0000
0000
0000
0000
0000
0000
0000
0000
0000
0000
0000
0000
0000
0000
0000
0000
0000
0000
0000
0000
0000
0000
0000
0000
0000
0000
0000
0000
0000
0000
0000
0000
0000
0000
0000
0000
0000
0000
0000
0000
2200
3000
0000
0000
0000
0000
0000
0000
0000
0000
0000
0000
0000
0000
0000
0000
0000
0000
0000
0000
0000
0000
0000
0000
0000
0000
0000
0000
0000
0000
0000
0000
0000
0000
0000
0000
0000
0000
0000
0000
0000
0000
0000
0000
0000
0000
0000
0000
1300
0000
0000
0000
0000
0000
0000
0000
0000
0000
0000
0000
0000
0000
0000
0000
0000
0000
0000
0000
0000
0000
0000
0000
0010
0000
0000
0000
0000
0000
0000
0000
0000
0000
0000
0000
0000
0000
0000
0000
0000
0000
0000
0000
0000
0000
0000
0000
,
0010
0010
0001
0000
0201
0000
0310
1000
,
1000
1000
0001
0000
0021
0000
0130
0001
,
0001
0000
0000
0001
0000
0000
1000
0000
0000
0000
0000
0000
1000
0000
0000
0000
0100
0000
1000
0000
0000
0000
0001
0000
,
1000
0000
0010
1000
0000
0000
0010
0000
0000
0100
0000
0000
,
0001
0000
0010
0100
0000
0010
0100
0000
0000
1000
0000
0000
,
0100
0000
0000
0010
0000
0000
1000
0000
0000
0001
0000
0000
0001
0000
0000
0000
0100
0000
1000
0000
0000
0000
0100
0000
,
1000
0000
0100
1000
0000
0100
1000
0000
0100
1000
0000
0100
,
1000
0000
0100
1000
0000
0100
1000
0000
0000
0001
0000
0000
,
1000
0000
0100
0010
0000
0001
0100
0000
0010
1000
0000
0001
,
0100
0000
0001
0010
0000
0100
1000
0000
0000
0010
0000
0100
,
0010
0000
1000
0001
0000
0001
1000
0000
0000
1000
0000
0000
,
0001
0000
1000
0000
0001
0000
0100
0000
0001
0000
0100
0000
0001
0000
1000
1000
0000
0001
0100
0000
0001
0100
0000
0001
,
0010
0000
0001
0100
0000
0001
0010
0000
0001
0100
0000
0001
0001
0000
1000
1000
0000
0100
1000
0000
0010
1000
0000
0001
,
0001
0000
0100
0001
0000
0100
0010
0000
0100
0001
0000
1000
1000
0000
0000
0010
0000
0010
0000
0000
0010
0000
0000
0000
,
1002
0000
0000
0103
0000
0100
0000
0000
0100
0000
0000
0000
1100
0000
1000
0100
0000
1000
0100
0000
1000
0100
0000
1000
,
0010
0000
1000
0100
0000
1000
0001
0000
0010
0000
0001
0000
1000
0000
0100
0000
1000
0000
0001
0000
0000
0000
0000
0000
,
0000
0100
0000
0001
0000
0000
0000
0000
0000
0000
1000
0000
0010
0000
0000
0000
0000
0000
0000
1000
0000
1010
0000
0000
,
0000
0000
0000
0000
1000
0000
0100
0000
0000
0000
0000
0000
0000
0010
0000
0001
0000
0000
0000
0000
0000
0000
1000
0000
,
0100
0000
0000
0000
0000
0000
0000
0010
0000
0011
0000
0000
0000
0000
0000
0000
0000
0000
1001
0000
0000
0000
0000
0000
,
0000
0001
0000
0100
0000
0000
0000
0000
0000
0000
0010
0000
1000
0000
0000
0000
0000
0000
0000
0001
0000
0101
0000
0000
,
0000
0000
0000
0000
1000
0000
0100
0000
0000
0000
0000
0000
0000
0010
0000
0001
0000
0000
0000
0000
0000
0000
1000
0000
,
0100
0000
0000
0000
0000
0000
0000
0010
0000
0011
0000
0000
0000
0000
0000
0000
0000
0000
2100
0000
0000
0000
0000
0000
,
3010
0001
0001
0001
0100
0000
2100
0000
,
3001
0010
0010
0010
0100
0000
0102
0000
,
1003
0100
0100
0100
0010
0000
0100
0000
,
0010
0000
0100
0010
0000
0100
0010
0000
0100
0001
0000
0000
,
0000
0100
0000
0001
0000
0000
0000
0000
0000
0000
1000
0000
0010
0000
0000
0000
0000
0000
0000
1000
0000
1010
0000
0000
,
0000
0000
0000
0000
1000
0000
0100
0000
0000
0000
0000
0000
0000
0010
0000
0001
0000
0000
0000
0000
0000
0000
1000
0000
,
0100
0000
0000
0000
0000
0000
0000
0010
0000
0011
0000
0000
0000
0000
0000
0000
0000
0000
1001
0000
0000
0000
0000
0000
,
0000
0001
0000
0100
0000
0000
0000
0000
0000
0000
0010
0000
1000
0000
0000
0000
0000
0000
0000
0001
0000
0101
0000
0000
,
0000
0000
0000
0000
1000
0000
0100
0000
0000
0000
0000
0000
0000
0010
0000
0001
0000
0000
0000
0000
0000
0000
1000
0000
,
0100
0000
0000
0000
0000
0000
0000
0000
0000
0000
0000
0000
0000
0000
0000
0000
0000
0000
0000
0000
0000
0000
0000
0000
0000
0000
0000
0000
0000
0000
0000
0000
0000
0000
0000
0000
0000
0000
0000
0000
0000
0000
0000
0000
0000
0000
0000
0000
0000
0000
0000
0000
0000
0000
0000
0000
0010
0000
0000
0000
0000
0000
0000
0000
0000
0000
0000
0000
0000
0000
0000
0000
0011
0000
0000
0000
0000
0000
0000
0000
0000
0000
0000
0000
0000
0000
0000
0000
0000
0000
0000
0000
0000
0000
0000
0000
0000
0000
0000
0000
0000
0000
0000
0000
0000
0000
0000
0000
0000
0000
0000
0000
0000
0000
0000
0000
0000
0000
0000
0000
0000
0000
0000
0000
0000
0000
0000
0000
0000
0000
0000
0000
0000
0000
0000
0000
0000
0000
0000
0000
0000
0000
0000
0000
2200
3000
0000
0000
0000
0000
0000
0000
0000
0000
0000
0000
0000
0000
0000
0000
0000
0000
0000
0000
0000
0000
0000
0000
0000
0000
0000
0000
0000
0000
0000
0000
0000
0000
0000
0000
0000
0000
0000
0000
0000
0000
0000
0000
0000
0000
0000
0000
,
1300
0010
0010
0010
0001
0000
0201
0000
,
0310
1000
1000
1000
0001
0000
0021
0000
,
0130
0001
0001
0001
1000
0000
0102
0000
,
1003
0000
0100
1000
0000
0100
1000
0000
0000
0001
0000
0100
,
0001
0000
1000
0010
0000
0001
0010
0000
1000
0100
0000
0010
,
0100
0000
0010
0100
0000
1000
0100
0000
0000
1001
0000
0001
,
0010
0000
0001
1000
0000
0001
0100
0000
1000
0100
0000
0010
,
0100
0000
1000
0010
0000
1000
0100
0000
0000
0101
0000
0001
,
0100
0000
0001
0100
0000
0001
0100
0000
0001
0100
0000
0010
,
1000
0000
0010
1000
0000
0010
1000
0000
0010
0200
0000
0301
,
0100
0000
0001
0100
0000
0001
0200
0000
0300
1001
0000
0100
,
0010
0000
0100
0010
0000
0100
0010
0000
2002
0000
0000
0000
,
0000
3003
0000
0000
;

//---------------dance-single - Copied from Copied f----------------
#NOTEDATA:;
#CHARTNAME:Copied from Copied f;
#STEPSTYPE:dance-single;
#DESCRIPTION:Copied from Copied f;
#CHARTSTYLE:;
#DIFFICULTY:Medium;
#METER:7;
#RADARVALUES:0.542,0.735,0.481,0.221,0.465,476.000,74.000,34.000,0.000,2.000,0.000,0.000,0.000,0.542,0.735,0.481,0.221,0.465,476.000,74.000,34.000,0.000,2.000,0.000,0.000,0.000;
#CREDIT:Copied from Copied f;
#NOTES:
0000
0000
0000
0000
,
0000
2010
0000
0000
,
3000
2100
0000
0000
,
3000
2001
0000
0000
,
3000
2010
0000
0000
,
3000
0102
0000
0000
,
0003
0012
0000
0000
,
0003
0210
0000
0000
,
0300
0120
0000
1031
,
0100
0001
0100
0001
0000
0000
0110
0000
0000
1000
0000
0000
,
0001
1100
1100
1100
,
1100
0000
0000
0001
0000
0010
0100
0000
0000
0100
0000
0000
,
1000
0101
0101
0101
,
0101
1010
1000
1000
,
0010
0010
1100
1100
,
0101
0000
0000
0101
0000
0001
0010
0000
0000
1000
0000
0000
,
0110
0000
0000
1000
0000
0001
0100
0000
0000
0001
0000
0000
,
0101
0000
0000
0000
1000
0000
0001
1000
0001
0000
0000
0000
1002
0000
0000
0000
,
0000
1103
0101
0001
,
0101
0001
1001
0100
,
0110
0001
0110
0100
,
0110
0100
1001
0110
,
0101
1001
1100
1010
,
1001
1100
0011
0120
,
1000
0000
0000
0130
0000
0000
0001
0000
0010
0100
0000
0000
,
1000
0000
0000
0001
0000
0000
1100
0000
0000
1001
0000
0001
,
0100
0000
0000
0100
0000
0001
0010
0000
0000
0010
0000
0001
,
0100
0000
0000
0100
0000
1000
0100
0000
0000
0100
0000
0010
,
0001
0000
0000
0001
0000
0010
0100
0000
0000
0100
0000
0100
,
1000
1000
2000
3010
,
0010
0010
0002
0103
,
0100
0000
0000
0100
0000
0000
1100
0000
1000
0100
0000
0000
,
0100
0000
1000
0100
0000
0000
0010
0000
1000
0100
0000
0000
,
0001
0000
0000
0000
0000
0000
1000
0000
0100
0000
1000
0000
0001
0000
0000
0000
0000
0000
0000
0001
0000
0001
0000
0000
,
0000
0000
0000
0000
1000
0000
1000
0000
0000
0000
0000
0000
0000
0010
0000
0010
0000
0000
0000
0000
0000
0000
0100
0000
,
0100
0000
0000
0000
0000
0000
0000
0001
0000
0001
0000
0000
0000
0000
0000
0000
0100
0000
0100
0000
0000
0000
0000
0000
,
0000
0010
0000
0010
0000
0000
0000
0000
0000
0000
0000
0000
1001
0000
0000
0000
0000
0000
0000
0001
0000
0001
0000
0000
,
0000
0000
0000
0000
1000
0000
1000
0000
0000
0000
0000
0000
0000
0001
0000
0001
0000
0000
0000
0000
0000
0000
1000
0000
,
1000
0000
0000
0000
0000
0000
0000
0001
0000
0001
0000
0000
0000
0000
0000
0000
0100
0000
0100
0000
0000
0000
0000
0000
,
0000
0010
0000
0010
0000
0000
0000
0000
0000
0000
0000
0000
2100
0000
0000
0000
0000
0000
3010
0000
0000
0000
0000
0000
,
0001
0100
2100
3001
,
0010
0020
0130
0000
0102
0000
1003
0000
,
0100
0010
0110
0010
,
0010
0000
0000
0000
0000
0000
0010
0000
0000
0000
0000
0000
0001
0000
0000
0000
0000
0000
0000
0001
0000
0001
0000
0000
,
0000
0000
0000
0000
0010
0000
0010
0000
0000
0000
0000
0000
0000
1000
0000
1000
0000
0000
0000
0000
0000
0000
0100
0000
,
0100
0000
0000
0000
0000
0000
0000
0001
0000
0001
0000
0000
0000
0000
0000
0000
0100
0000
0100
0000
0000
0000
0000
0000
,
0000
0010
0000
0010
0000
0000
0000
0000
0000
0000
0000
0000
1001
0000
0000
0000
0000
0000
0000
0001
0000
0001
0000
0000
,
0000
0000
0000
0000
0010
0000
0010
0000
0000
0000
0000
0000
0000
0100
0000
0100
0000
0000
0000
0000
0000
0000
1000
0000
,
1000
0000
0000
0000
0000
0000
0000
0010
0000
0010
0000
0000
0000
0000
0000
0000
0001
0000
0001
0000
0000
0000
0000
0000
,
0000
0000
0000
0000
0000
0000
0000
0000
0010
0000
0000
0000
0000
0000
0000
0000
0000
0000
0000
0000
0000
0000
0000
0000
0010
0000
0000
0000
0000
0000
0000
0000
0000
0000
0000
0000
0000
0000
0000
0000
0000
0000
0000
0000
0000
0000
0000
0000
0000
0000
0000
0000
0000
0000
0000
0000
0000
0000
0000
0000
0000
0000
0000
0000
0000
0000
0000
0000
0000
0000
0000
0000
0000
0000
0000
0000
0000
0000
0000
0000
0000
0000
0000
0000
0000
0000
0000
0000
0000
0000
0000
0000
0000
0000
0000
0000
2200
3000
0000
0000
0000
0000
0000
0000
0000
0000
0000
0000
0000
0000
0000
0000
0000
0000
0000
0000
0000
0000
0000
0000
0000
0000
0000
0000
0000
0000
0000
0000
0000
0000
0000
0000
0000
0000
0000
0000
0000
0000
0000
0000
0000
0000
0000
0000
1300
0000
0000
0000
0000
0000
0000
0000
0000
0000
0000
0000
0000
0000
0000
0000
0000
0000
0000
0000
0000
0000
0000
0000
0000
0000
0000
0000
0000
0000
0000
0000
0000
0000
0000
0000
0000
0000
0000
0000
0000
0000
0000
0000
0000
0000
0000
0000
,
0010
0001
0201
0310
,
1000
0001
0021
0130
,
0001
0000
0000
1000
0000
0000
1000
0000
0100
1000
0000
0001
,
1000
0000
0010
1000
0000
0000
0010
0000
0000
0100
0000
0000
,
0001
0010
0100
0010
0100
0000
1000
0000
,
0100
0010
1000
0001
0001
0000
1100
0000
,
1100
1100
1100
1100
,
1100
1100
1100
0001
,
1000
0000
0100
0010
0000
0001
0100
0000
0010
1000
0000
0001
,
0100
0000
0001
0010
0000
0100
1000
0000
0000
0010
0000
0100
,
0010
0000
1000
0001
0000
0001
1000
0000
0000
1000
0000
0000
,
0001
0000
0000
0000
0000
0000
0100
0000
0001
0000
0100
0000
0001
0000
0000
1000
0000
0001
0100
0000
0001
0100
0000
0001
,
0010
0000
0001
0100
0000
0001
0010
0000
0001
0100
0000
0000
0001
0000
0000
1000
0000
0100
1000
0000
0010
1000
0000
0000
,
0001
0000
0100
0001
0000
0100
0010
0000
0100
0001
0000
0000
1000
0000
0000
0010
0000
0010
0000
0000
0010
0000
0000
0000
,
0002
0000
0000
0103
0000
0100
0000
0000
0100
0000
0000
0000
0100
0000
1000
0100
0000
1000
0100
0000
1000
0100
0000
1000
,
0010
0000
1000
0100
0000
1000
0001
0000
0000
0000
0000
0000
1000
0000
0100
0000
1000
0000
0001
0000
0000
0000
0000
0000
,
0000
0001
0000
0001
0000
0000
0000
0000
0000
0000
1000
0000
1000
0000
0000
0000
0000
0000
0000
0010
0000
0010
0000
0000
,
0000
0000
0000
0000
0100
0000
0100
0000
0000
0000
0000
0000
0000
0001
0000
0001
0000
0000
0000
0000
0000
0000
0100
0000
,
0100
0000
0000
0000
0000
0000
0000
0010
0000
0010
0000
0000
0000
0000
0000
0000
0000
0000
1001
0000
0000
0000
0000
0000
,
0000
0001
0000
0001
0000
0000
0000
0000
0000
0000
1000
0000
1000
0000
0000
0000
0000
0000
0000
0001
0000
0001
0000
0000
,
0000
0000
0000
0000
1000
0000
1000
0000
0000
0000
0000
0000
0000
0001
0000
0001
0000
0000
0000
0000
0000
0000
0100
0000
,
0100
0000
0000
0000
0000
0000
0000
0010
0000
0010
0000
0000
0000
0000
0000
0000
0000
0000
2100
0000
0000
0000
0000
0000
,
3010
0001
0100
2100
,
3001
0000
0010
0020
0130
0000
0102
0000
,
1003
0100
0010
0110
,
0010
0010
0010
0001
,
0000
0001
0000
0001
0000
0000
0000
0000
0000
0000
0010
0000
0010
0000
0000
0000
0000
0000
0000
1000
0000
1000
0000
0000
,
0000
0000
0000
0000
0100
0000
0100
0000
0000
0000
0000
0000
0000
0001
0000
0001
0000
0000
0000
0000
0000
0000
0100
0000
,
0100
0000
0000
0000
0000
0000
0000
0010
0000
0010
0000
0000
0000
0000
0000
0000
0000
0000
1001
0000
0000
0000
0000
0000
,
0000
0001
0000
0001
0000
0000
0000
0000
0000
0000
0010
0000
0010
0000
0000
0000
0000
0000
0000
0100
0000
0100
0000
0000
,
0000
0000
0000
0000
1000
0000
1000
0000
0000
0000
0000
0000
0000
0010
0000
0010
0000
0000
0000
0000
0000
0000
0001
0000
,
0001
0000
0000
0000
0000
0000
0000
0000
0000
0000
0000
0000
0000
0000
0000
0000
0000
0000
0000
0000
0000
0000
0000
0000
0000
0000
0000
0000
0000
0000
0000
0000
0000
0000
0000
0000
0000
0000
0000
0000
0000
0000
0000
0000
0000
0000
0000
0000
0000
0000
0000
0000
0000
0000
0000
0000
0010
0000
0000
0000
0000
0000
0000
0000
0000
0000
0000
0000
0000
0000
0000
0000
0010
0000
0000
0000
0000
0000
0000
0000
0000
0000
0000
0000
0000
0000
0000
0000
0000
0000
0000
0000
0000
0000
0000
0000
0000
0000
0000
0000
0000
0000
0000
0000
0000
0000
0000
0000
0000
0000
0000
0000
0000
0000
0000
0000
0000
0000
0000
0000
0000
0000
0000
0000
0000
0000
0000
0000
0000
0000
0000
0000
0000
0000
0000
0000
0000
0000
0000
0000
0000
0000
0000
0000
2200
3000
0000
0000
0000
0000
0000
0000
0000
0000
0000
0000
0000
0000
0000
0000
0000
0000
0000
0000
0000
0000
0000
0000
0000
0000
0000
0000
0000
0000
0000
0000
0000
0000
0000
0000
0000
0000
0000
0000
0000
0000
0000
0000
0000
0000
0000
0000
,
1300
0010
0001
0201
,
0310
1000
0001
0021
,
0130
0001
1000
0102
,
1003
0000
0100
1000
0000
0100
1000
0000
0000
0001
0000
0100
,
0001
0000
1000
0010
0000
0001
0010
0000
1000
0100
0000
0010
,
0100
0000
0010
0100
0000
1000
0100
0000
0000
1000
0000
0001
,
0010
0000
0001
1000
0000
0001
0100
0000
1000
0100
0000
0010
,
0100
0000
1000
0010
0000
1000
0100
0000
0000
0100
0000
0001
,
0100
0000
0001
0100
0000
0001
0100
0000
0001
0100
0000
0010
,
1000
0000
0010
1000
0000
0010
1000
0000
0010
0200
0000
0301
,
0100
0000
0001
0100
0000
0001
0200
0000
0300
0001
0000
0100
,
0010
0000
0100
0010
0000
0100
0010
0000
2002
0000
0000
0000
,
0000
3003
0000
0000
;

//---------------dance-single - Copied from Copied f----------------
#NOTEDATA:;
#CHARTNAME:Copied from Copied f;
#STEPSTYPE:dance-single;
#DESCRIPTION:Copied from Copied f;
#CHARTSTYLE:;
#DIFFICULTY:Easy;
#METER:5;
#RADARVALUES:0.471,0.521,0.851,0.227,0.039,341.000,131.000,35.000,0.000,1.000,0.000,0.000,0.000,0.471,0.521,0.851,0.227,0.039,341.000,131.000,35.000,0.000,1.000,0.000,0.000,0.000;
#CREDIT:Copied from Copied f;
#NOTES:
// measure 0
0000
0000
0000
0000
,  // measure 1
0000
2010
0000
0000
,  // measure 2
3000
2100
0000
0000
,  // measure 3
3000
2001
0000
0000
,  // measure 4
3000
2010
0000
0000
,  // measure 5
3000
0102
0000
0000
,  // measure 6
0003
0012
0000
0000
,  // measure 7
0003
0210
0000
0000
,  // measure 8
0300
0120
0000
1031
,  // measure 9
0100
0001
0110
1000
,  // measure 10
0001
1100
1100
1100
,  // measure 11
1100
0001
0100
0100
,  // measure 12
1000
0101
0101
0101
,  // measure 13
0101
1010
1000
1000
,  // measure 14
0010
0010
1100
1100
,  // measure 15
0101
0101
0010
1000
,  // measure 16
0110
1000
0100
0001
,  // measure 17
0101
0000
0000
0000
1000
0000
0001
1000
0001
0000
0000
0000
1002
0000
0000
0000
,  // measure 18
0000
1003
0101
0001
,  // measure 19
0101
0001
1001
0100
,  // measure 20
0110
0001
0110
0100
,  // measure 21
0110
0100
1001
0110
,  // measure 22
0101
1001
1100
1010
,  // measure 23
1001
1100
0011
0120
,  // measure 24
1000
0000
0000
0130
0000
0000
0001
0000
0010
0100
0000
0000
,  // measure 25
1000
0000
0000
0001
0000
0000
1100
0000
0001
1000
0000
0000
,  // measure 26
0100
0100
0010
0100
,  // measure 27
0010
0100
1000
0200
,  // measure 28
1300
0000
0000
0200
0000
0000
0310
0000
0000
0001
0000
0001
,  // measure 29
0010
0001
2000
3010
,  // measure 30
0010
0010
0002
0103
,  // measure 31
0100
0000
0000
0100
0000
0000
0100
0000
1000
0100
0000
0000
,  // measure 32
0100
0100
0010
0100
,  // measure 33
0001
0000
1000
0000
0001
0000
0000
0101
,  // measure 34
0000
0000
1010
0000
0000
0110
0000
0000
,  // measure 35
0101
0000
0000
0011
0000
0000
0110
0000
,  // measure 36
0000
1010
0000
0000
1001
0000
0000
0101
,  // measure 37
0000
0000
1100
0000
0000
0011
0000
0000
,  // measure 38
1100
0000
0000
0011
0000
0000
0110
0000
,  // measure 39
0000
1010
0000
0000
2100
0000
3010
0000
,  // measure 40
0001
0100
2100
3001
,  // measure 41
0010
0100
0102
1003
,  // measure 42
0100
0010
0110
0010
,  // measure 43
0010
0000
0010
0000
0001
0000
0000
0011
,  // measure 44
0000
0000
0110
0000
0000
1100
0000
0000
,  // measure 45
1100
0000
0000
0011
0000
0000
0101
0000
,  // measure 46
0000
1010
0000
0000
1001
0000
0000
0101
,  // measure 47
0000
0000
0110
0000
0000
1100
0000
0000
,  // measure 48
1100
0000
0000
0110
0000
0000
0101
0000
,  // measure 49
0000
0000
0000
0000
0000
0000
0000
0000
0000
0000
0000
0000
0000
0000
0000
0000
0000
0000
0000
0000
0000
0000
0000
0000
0110
0000
0000
0000
0000
0000
0000
0000
0000
0000
0000
0000
0000
0000
0000
0000
0000
0000
0000
0000
0000
0000
0000
0000
0000
0000
0000
0000
0000
0000
0000
0000
0000
0000
0000
0000
0000
0000
0000
0000
0000
0000
0000
0000
0000
0000
0000
0000
0000
0000
0000
0000
0000
0000
0000
0000
0000
0000
0000
0000
0000
0000
0000
0000
0000
0000
0000
0000
0000
0000
0000
0000
2200
3000
0000
0000
0000
0000
0000
0000
0000
0000
0000
0000
0000
0000
0000
0000
0000
0000
0000
0000
0000
0000
0000
0000
0000
0000
0000
0000
0000
0000
0000
0000
0000
0000
0000
0000
0000
0000
0000
0000
0000
0000
0000
0000
0000
0000
0000
0000
1300
0000
0000
0000
0000
0000
0000
0000
0000
0000
0000
0000
0000
0000
0000
0000
0000
0000
0000
0000
0000
0000
0000
0000
0000
0000
0000
0000
0000
0000
0000
0000
0000
0000
0000
0000
0000
0000
0000
0000
0000
0000
0000
0000
0000
0000
0000
0000
,  // measure 50
0010
0001
1100
0010
,  // measure 51
1000
0001
0011
0100
,  // measure 52
0001
1000
1100
1000
,  // measure 53
1000
1000
0010
0100
,  // measure 54
0001
0010
0100
0000
0100
0000
1000
0000
,  // measure 55
0100
0010
1000
0000
0001
0000
1100
0000
,  // measure 56
1100
1100
1100
1100
,  // measure 57
1100
1100
1100
0001
,  // measure 58
1000
0010
0100
1000
,  // measure 59
0100
0010
1000
0010
,  // measure 60
0010
0001
1000
1000
,  // measure 61
0001
0000
0100
0000
0001
1000
0100
0100
,  // measure 62
0010
0100
0010
0100
0001
1000
1000
1000
,  // measure 63
0001
0000
0000
0001
0000
0000
0010
0000
0000
0001
0000
0000
1000
0000
0000
0010
0000
0010
0000
0000
0010
0000
0000
0000
,  // measure 64
0002
0000
0000
0103
0000
0100
0000
0000
0100
0000
0000
0000
0100
0000
0000
0100
0000
0000
0100
0000
0000
0100
0000
0000
,  // measure 65
0010
0100
0001
0000
1000
0000
0001
0000
,  // measure 66
0000
0101
0000
0000
1010
0000
0000
0110
,  // measure 67
0000
0000
0101
0000
0000
0011
0000
0000
,  // measure 68
0110
0000
0000
1010
0000
0000
1001
0000
,  // measure 69
0000
0101
0000
0000
1100
0000
0000
0011
,  // measure 70
0000
0000
1100
0000
0000
0011
0000
0000
,  // measure 71
0110
0000
0000
1010
0000
0000
2100
0000
,  // measure 72
3010
0001
0100
2100
,  // measure 73
3001
0010
0100
0102
,  // measure 74
1003
0100
0010
0110
,  // measure 75
0010
0010
0010
0001
,  // measure 76
0000
0011
0000
0000
0110
0000
0000
1100
,  // measure 77
0000
0000
1100
0000
0000
0011
0000
0000
,  // measure 78
0101
0000
0000
1010
0000
0000
1001
0000
,  // measure 79
0000
0101
0000
0000
0110
0000
0000
1100
,  // measure 80
0000
0000
1100
0000
0000
0110
0000
0000
,  // measure 81
0101
0000
0000
0000
0000
0000
0000
0000
0000
0000
0000
0000
0000
0000
0000
0000
0000
0000
0000
0000
0000
0000
0000
0000
0000
0000
0000
0000
0000
0000
0000
0000
0000
0000
0000
0000
0000
0000
0000
0000
0000
0000
0000
0000
0000
0000
0000
0000
0000
0000
0000
0000
0000
0000
0000
0000
0000
0000
0000
0000
0000
0000
0000
0000
0000
0000
0000
0000
0000
0000
0000
0000
0110
0000
0000
0000
0000
0000
0000
0000
0000
0000
0000
0000
0000
0000
0000
0000
0000
0000
0000
0000
0000
0000
0000
0000
0000
0000
0000
0000
0000
0000
0000
0000
0000
0000
0000
0000
0000
0000
0000
0000
0000
0000
0000
0000
0000
0000
0000
0000
0000
0000
0000
0000
0000
0000
0000
0000
0000
0000
0000
0000
0000
0000
0000
0000
0000
0000
0000
0000
0000
0000
0000
0000
2200
3000
0000
0000
0000
0000
0000
0000
0000
0000
0000
0000
0000
0000
0000
0000
0000
0000
0000
0000
0000
0000
0000
0000
0000
0000
0000
0000
0000
0000
0000
0000
0000
0000
0000
0000
0000
0000
0000
0000
0000
0000
0000
0000
0000
0000
0000
0000
,  // measure 82
1300
0010
0001
0201
,  // measure 83
0310
1000
0001
0021
,  // measure 84
0130
0000
0000
0000
0000
0000
0000
0000
0000
0000
0000
0000
0000
0000
0000
0000
0000
0000
0000
0000
0000
0000
0000
0000
0000
0000
0000
0000
0000
0000
0000
0000
0000
0000
0000
0000
0000
0000
0000
0000
0000
0000
0000
0000
0000
0000
0000
0000
0001
0000
0000
0000
0000
0000
0000
0000
0000
0000
0000
0000
0000
0000
0000
0000
0000
0000
0000
0000
0000
0000
0000
0000
0000
0000
0000
0000
0000
0000
0000
0000
0000
0000
0000
0000
0000
0000
0000
0000
0000
0000
0000
0000
0000
0000
0000
0000
1000
0000
0000
0000
0000
0000
0000
0000
0000
0000
0000
0000
0000
0000
0000
0000
0000
0000
0000
0000
0000
0000
0000
0000
0000
0000
0000
0000
0000
0000
0000
0000
0000
0000
0000
0000
0000
0000
0000
0000
0000
0000
0000
0000
0000
0000
0000
0000
1200
0300
0000
0000
0000
0000
0000
0000
0000
0000
0000
0000
0000
0000
0000
0000
0000
0000
0000
0000
0000
0000
0000
0000
0000
0000
0000
0000
0000
0000
0000
0000
0000
0000
0000
0000
0000
0000
0000
0000
0000
0000
0000
0000
0000
0000
0000
0000
,  // measure 85
1000
0000
0100
1000
0000
0100
1000
0000
0000
0201
0000
0000
,  // measure 86
0301
2010
3010
0120
,  // measure 87
0130
0100
0100
1000
,  // measure 88
0010
1000
0100
0100
,  // measure 89
0100
0010
0100
0100
,  // measure 90
0100
0100
0100
0100
,  // measure 91
1000
0000
0000
1000
0000
0000
1000
0000
0000
0200
0000
0300
,  // measure 92
0100
0000
0000
0100
0000
0000
0200
0000
0300
0001
0000
0000
,  // measure 93
0010
0000
0000
0010
0000
0000
0010
0000
2002
0000
0000
0000
,  // measure 94
0000
3003
0000
0000
;
