#TITLE:Wishmaster;
#SUBTITLE:(End Of An Era);
#ARTIST:Nightwish;
#TITLETRANSLIT:;
#SUBTITLETRANSLIT:;
#ARTISTTRANSLIT:;
#GENRE:;
#CREDIT:;
#BANNER:W-BN.png;
#BACKGROUND:Wishmaster-bg.png;
#LYRICSPATH:;
#CDTITLE:;
#MUSIC:Wishmaster.mp3;
#OFFSET:-0.140;
#SAMPLESTART:63.740;
#SAMPLELENGTH:13.080;
#SELECTABLE:YES;
#BPMS:0.000=174.040
,5.000=348.040
,5.500=174.020
,8.000=348.040
,8.500=174.020
,10.000=348.040
,10.500=174.020
,12.000=348.040
,12.500=174.020
,14.000=348.040
,14.500=174.020
,23.000=348.040
,23.500=174.020
,173.000=348.040
,175.000=174.020
;
#STOPS:5.000=0.086,
6.000=0.690,
8.000=0.086,
9.000=0.345,
10.000=0.086,
11.000=0.345,
12.000=0.086,
14.000=0.086,
15.000=0.345,
17.000=1.034,
19.000=0.345,
21.000=0.345,
23.000=0.086,
173.000=0.020,
175.000=0.020
;
#BGCHANGES:0.000=Wishmaster.avi=1.000=1=0=0=StretchNoLoop==CrossFade==,
99999=-nosongbg-=1.000=0=0=0 // don't automatically add -songbackground-
;
#KEYSOUNDS:;
#ATTACKS:;

//---------------dance-single - ----------------
#NOTES:
     dance-single:
     :
     Challenge:
     12:
     1.000,1.000,0.837,1.000,1.000,1253.000,178.000,291.000,0.000,18.000,0.000,1.000,1.000,0.837,1.000,1.000,1253.000,178.000,291.000,0.000,18.000,0.000:
1000
0000
1000
0000
1000
0000
2000
3000
,
0000
0000
1001
0000
0101
0000
0000
0100
,
1001
1100
0011
0011
,
2010
0100
3110
0110
,
1000
0100
1000
0100
0000
0000
0010
0100
0010
0100
0000
0000
,
0001
0100
0001
0100
0000
0000
0001
1000
0001
1000
0000
0000
,
0010
1000
0010
1000
0100
0010
0001
0010
0100
0001
0010
0100
,
2002
3003
0000
2002
3003
0000
1000
0100
0010
1000
0100
0010
,
2002
3003
0000
2002
3003
0000
0100
0010
0001
0100
0010
0001
,
2200
3300
0000
2200
3300
0000
0001
0010
0001
0100
0001
0010
,
2200
3300
0000
2200
3300
0000
0001
0010
0100
0001
0010
0100
,
2020
3030
0100
2020
3030
0000
0001
1000
0100
0001
1000
0100
,
0022
0033
0000
0022
0033
0000
1000
0100
0010
1000
0100
0010
,
2200
3300
0000
2200
3300
0000
0001
0100
0001
0010
0100
0010
,
2002
3003
0000
2002
3003
0000
1000
0100
1000
0100
1000
0010
,
0100
0001
0100
0001
0010
0100
2000
0000
0000
3000
0010
0100
,
1001
0000
0011
0000
0101
0000
1001
0010
0001
0010
0100
1000
,
0010
0100
0010
1000
0100
0010
0002
0000
0000
0003
0100
1000
,
1010
0000
0110
0000
0101
0000
1001
0000
1000
0100
1000
0010
,
0100
0000
0001
0100
0001
0010
0001
0000
1000
0010
1000
0010
,
0100
0000
0001
0100
0001
0100
0010
0000
1000
0010
1000
0100
,
0010
0000
0001
0010
0001
0010
0100
0000
1000
0100
0010
0100
,
1001
0000
0101
0000
0011
0000
1001
0000
0010
0100
0010
1000
,
0010
0000
0100
0001
0100
0010
0100
0000
0001
0010
0100
0010
,
0001
0000
1000
0001
1000
0100
1000
0000
0010
0100
1000
0100
,
0010
0000
0100
0001
0100
0010
0100
0000
0001
1000
0001
0010
,
0001
0000
1000
0100
1000
0100
1000
0001
1000
0010
0100
0001
,
0010
0001
0100
0010
1000
0100
1000
0010
1000
0100
0010
0001
,
0120
0000
0000
1230
0000
0000
1301
0100
0010
0100
1000
0100
,
0001
0100
1000
0100
1000
0010
0001
0010
1000
0100
0010
0001
,
1100
0000
1100
0000
1010
0000
1100
0001
0010
0100
0010
0001
,
1000
0010
0100
0001
0010
0001
1000
0001
0100
0010
1000
0100
,
1020
0000
0000
0231
0000
0000
1301
0010
0100
0001
0010
0001
,
0010
0000
0100
1000
0100
1000
0100
0000
0001
0100
0001
0100
,
0001
0000
0100
0010
0100
0010
0100
0001
0010
0100
1000
0100
,
1000
0010
0100
0001
0100
0010
0100
0001
0010
0001
1000
0001
,
0010
0100
1000
0100
0010
0001
0100
0010
0010
1000
0100
0100
,
0010
0001
0001
1000
0010
0010
0100
0001
0001
0010
0100
1000
,
0200
2000
0000
0000
0000
0000
3310
0000
0010
1000
0000
0100
,
1000
0000
0100
0010
0000
0001
0100
0000
0001
0010
0000
0100
,
0010
0000
0100
1000
0000
1000
0100
0000
0001
0010
0000
0001
,
0100
0000
0010
1000
0100
1000
0110
0000
0000
0011
0000
0000
,
1100
0000
0000
1010
0000
0000
1001
0000
0000
0001
0100
0001
,
0200
1320
0000
1031
,
0220
0330
0000
0220
0330
0000
1000
0100
1000
0010
0100
0001
,
0010
0100
1000
0202
0303
0000
0202
0303
0000
0100
0010
0100
,
2020
3030
0000
2020
3030
0000
0100
0000
0000
2020
3030
0000
,
2020
3030
0000
0202
0303
0000
2002
3003
0000
1001
0000
0000
,
0202
0303
0010
0202
1303
0100
0010
0001
0010
0100
1000
0010
,
0100
0001
0010
2200
3300
0000
2200
3301
0010
0001
0100
0010
,
2002
3003
0000
2002
3103
0010
0100
0010
1000
2200
3300
0000
,
0220
0330
0000
0022
0033
0000
0220
0330
0000
1100
0000
0100
,
0100
0100
0100
0220
0330
0000
0220
0330
0000
1001
0000
0001
,
0001
0001
0001
0202
0303
0000
0202
0303
0000
1010
0000
0010
,
0010
0010
0010
0220
0330
0000
0220
0330
0000
2200
3300
0000
,
2020
3030
0000
2200
3300
0000
2002
3003
0000
1000
0100
0010
,
1000
0100
0010
2002
3003
0000
2002
3003
0000
0001
0010
0100
,
0001
0010
0100
2020
3030
0000
2020
3030
0000
0100
0010
0001
,
0100
0010
0001
0202
0303
0000
0202
0303
0000
2020
3030
1000
,
0100
1000
0100
0010
0001
0010
0001
0100
0010
2000
0000
0100
,
0001
0000
0100
0010
0000
0100
0001
0000
0100
0010
0000
0100
,
0001
0000
0100
0010
0000
0100
0001
0000
0100
0010
0000
0100
,
0001
0000
0100
0010
0000
0100
0001
0000
0100
0010
0000
0100
,
0001
0000
0100
0010
0000
0100
3001
0100
0001
1000
0000
1000
,
0100
0010
0001
1000
0000
1000
0100
0010
0001
1000
0000
1000
,
0100
0010
0001
1000
0000
1000
0100
0010
0001
1000
0000
1000
,
0100
0010
0001
1000
0000
1000
0100
0010
0001
1000
0000
1000
,
0010
0100
0001
0010
0001
0100
0010
1000
0100
0001
0000
0001
,
0010
0100
1000
0001
0000
0001
0010
0100
1000
0001
0000
0001
,
0010
0100
1000
0001
0000
0001
0010
0100
1000
0001
0000
0001
,
0010
0100
1000
0001
0000
0001
0010
0100
1000
0001
0000
0001
,
0010
0100
0010
0001
0100
0010
1000
0100
0010
0001
0000
0001
,
0010
0100
0010
0001
0000
0001
0100
0010
0100
0001
0000
0001
,
0010
0100
1000
0002
0000
0000
0103
1000
0100
0010
0000
0010
,
0001
0100
0010
1000
0000
1000
0010
0100
0001
0010
0000
0010
,
0100
1000
0010
0201
0000
0000
0302
0000
0000
1003
0000
1000
,
0100
0010
0001
1000
0000
1000
0010
0100
0001
1000
0000
1000
,
0100
0010
0001
1000
0000
1000
0010
0100
0001
1000
0100
1000
,
0010
1000
0100
0010
0001
0010
0100
1000
0100
0010
0001
0010
,
0001
1000
0100
1000
0010
0100
0001
0010
0100
1000
0000
1000
,
0100
0010
0100
1000
0000
1000
0010
0100
0010
1000
0000
1000
,
0100
0010
0100
1000
0000
1000
0010
0100
0010
1000
0000
1000
,
0100
0010
0100
1000
0000
1000
0010
0100
0010
1000
0000
1000
,
0100
1000
0100
0010
0001
0010
0001
0010
0001
0100
0000
0100
,
0010
0100
0001
0100
0000
0100
0010
1000
0010
0100
0000
0100
,
0001
0100
0010
0100
0000
0100
0010
1000
0010
0100
0000
0100
,
0001
0100
0010
0100
0000
0100
0010
1000
0010
0100
0000
0100
,
0001
0010
0100
1000
0010
0100
0001
0010
0100
2000
0000
0001
,
0100
0001
0100
0001
0000
0010
3100
0000
2000
0100
0000
0010
,
3001
0010
0001
2000
0000
0010
3100
0000
0001
2000
0000
0010
,
0100
0010
0100
0010
0000
0100
3001
0000
0010
2000
0000
0100
,
3001
0100
0001
2000
0000
0001
3100
0000
0001
2000
0000
0001
,
0100
0001
0100
0001
0000
0010
3100
0000
0010
2000
0000
0001
,
3010
0001
0010
2000
0000
0001
3100
0000
0010
2000
0000
0100
,
3001
0100
0001
2000
0000
0010
0100
0010
0100
0010
0000
0100
,
0001
0100
0001
3100
0000
0010
2000
0000
3010
2000
0000
0001
,
3100
0001
0100
2000
0000
0010
3100
0000
0010
2000
0000
0010
,
3001
0010
0001
2000
0000
0010
3100
0000
0001
2000
0000
0100
,
0001
0100
0001
0100
0000
0001
3010
0000
0001
2000
0000
0100
,
3001
0100
0001
2000
0000
0100
3010
0000
0100
2000
0000
0001
,
0100
0001
0100
0001
0000
0010
3100
0000
0001
2000
0000
0010
,
3001
0010
0001
2000
0000
0001
3100
0000
0010
2000
0000
0010
,
0100
0010
0100
0010
0000
0100
3001
0100
0001
0200
0000
0010
,
1000
0010
1000
0310
0000
1000
0001
1000
0001
2001
0010
3100
,
1000
0100
0010
0001
0010
0100
1000
0010
0100
0020
0000
0000
,
0030
1000
0100
1001
0000
0110
0000
0101
0000
2001
0000
0000
,
0000
0000
0000
3020
,
0000
0230
0000
0302
,
0000
0000
0000
0000
0000
0000
0000
0000
0000
0000
0000
0000
0000
0000
0000
0000
0000
0000
0203
0010
0000
0000
0000
0010
,
0000
0000
0000
0000
0000
0000
0000
0000
0000
0000
0000
0000
0000
0000
0000
0000
0000
0000
0000
0000
0000
0000
0000
0000
0010
0000
0000
0000
0000
0000
0000
0000
0000
0000
0000
0000
0000
0000
0000
0000
0000
0000
0000
0000
0000
0000
0000
0000
0010
0000
0000
0000
0000
0000
0000
0000
0000
0000
0000
0000
0000
0000
0000
0000
0000
0000
0000
0000
0000
0000
0000
0000
0000
0000
0000
0000
0000
0000
0000
0000
0010
0000
0000
0000
0000
0000
0000
0000
0000
0000
0000
0000
0000
0000
0000
0000
0000
0000
0000
0000
0000
0000
0000
0000
0000
0000
0000
0000
0000
0000
0000
0000
0310
0000
0000
0000
0000
0000
0000
0000
0000
0000
0000
0000
0000
0000
0000
0000
0000
0000
0000
0000
0000
0000
0000
0000
0000
0000
0100
0000
0000
0000
0000
0000
2000
0000
0000
0000
0000
0000
0000
0000
0000
0000
0000
0000
0000
0000
0000
0000
0000
0000
0000
0000
0000
0000
0000
0000
0000
0000
0000
0000
0000
0000
0000
0000
0000
0000
0000
0000
0000
0000
0000
0000
0000
0000
0000
0000
0000
0000
0000
0000
,
0000
0000
0000
0000
0000
0000
3010
0000
0100
0020
0000
0000
,
0000
0000
0000
2030
0000
0000
3200
0000
0000
1320
0000
0001
,
0130
0001
0100
0001
0000
0010
0100
0010
0100
0010
0000
1000
,
0100
1000
0100
1000
0000
0001
0010
0001
0010
0100
1000
0010
,
0100
0010
1000
0100
0010
0001
0010
0100
0010
0001
1000
0010
,
0100
0010
1000
0100
1000
0010
0100
0001
0010
0100
1000
0100
,
0010
0001
0010
0100
1000
0010
0200
0000
0000
0301
0010
0100
,
1000
0100
0010
0001
0100
0001
0010
0100
0010
0002
0000
0000
,
0000
0000
0003
2000
0000
0000
0000
0000
3100
0020
0000
0000
,
1230
0000
0000
0320
0000
0000
0100
0000
0130
1000
0001
0100
,
0010
0001
0010
1000
0100
0010
0100
0010
0001
0220
0330
0000
,
2002
3003
0000
0220
0330
0000
2002
3003
0000
0202
0303
0000
,
1000
0100
1000
0100
0000
0100
0010
0100
0010
0100
0000
0000
,
0220
0330
0000
0220
0330
0000
0001
0010
0001
0100
0010
1000
,
0100
0010
0001
2020
3030
0000
2020
3030
0000
0010
0100
0010
,
0202
0303
0000
0202
0303
0000
0010
0000
0000
0202
0303
0000
,
0202
0303
0000
2020
3030
0000
2002
3003
0000
1001
0000
0000
,
2020
3030
0100
2020
3031
0010
0100
1000
0100
0010
0001
0100
,
0010
1000
0100
0022
0033
0000
0022
1033
0100
1000
0010
0100
,
2002
3003
0000
2002
3013
0100
0010
0100
0001
0022
0033
0000
,
0220
0330
0000
2200
3300
0000
0220
0330
0000
0011
0000
0010
,
0010
0010
0010
0220
0330
0000
0220
0330
0000
1001
0000
1000
,
1000
1000
1000
2020
3030
0000
2020
3030
0000
0101
0000
0100
,
0100
0100
0100
0220
0330
0000
0220
0330
0000
0022
0033
0000
,
0202
0303
0000
0022
0033
0000
2200
3300
0000
1000
0100
0010
,
1000
0100
0010
2002
3003
0100
2002
3003
0000
0001
0010
0100
,
0001
0010
0100
2020
3030
0000
2020
3030
0000
0100
0010
0001
,
0100
0010
0001
0202
0303
0000
0202
0303
0000
2020
3030
1000
,
0100
0000
0000
0000
0000
0000
0000
0000
0000
0000
0000
0000
0000
0000
0000
0000
1000
0000
0000
0000
0000
0000
0000
0000
0000
0000
0000
0000
0000
0000
0000
0000
0100
0000
0000
0000
0000
0000
0000
0000
0000
0000
0000
0000
0000
0000
0000
0000
0010
0000
0000
0000
0000
0000
0000
0000
0000
0000
0000
0000
0000
0000
0000
0000
0001
0000
0000
0000
0000
0000
0000
0000
0000
0000
0000
0000
0000
0000
0000
0000
0010
0000
0000
0000
0000
0000
0000
0000
0000
0000
0000
0000
0000
0000
0000
0000
0001
0000
0000
0000
0000
0000
0000
0000
0000
0000
0000
0000
0000
0000
0000
0000
0100
0000
0000
0000
0000
0000
0000
0000
0000
0000
0000
0000
0000
0000
0000
0000
0010
0000
0000
0000
0000
0000
0000
0000
0000
0000
0000
0000
0000
0000
0000
0000
2000
3000
0000
0000
0000
0000
0000
0000
0000
0000
0000
0000
0000
0000
0000
0000
0100
0000
0000
0000
0000
0000
0000
0000
0000
0000
0000
0000
0000
0000
0000
0000
0010
0000
0000
0000
0000
0000
0000
0000
0000
0000
0000
0000
0000
0000
0000
0000
,
1000
0100
0010
2002
3003
0000
2002
3003
0000
0001
0010
0100
,
0001
0010
0100
2020
3030
0000
2020
3030
0000
0010
0100
1000
,
0010
0100
1000
0220
0330
0000
0220
0330
0000
0202
0303
0000
,
0220
0330
0000
2200
3300
0000
0220
0330
0000
0100
0010
0001
,
0100
0010
0001
2020
3030
0100
2020
3030
0000
1000
0000
1000
,
1000
1000
1000
2002
3003
0000
2002
3003
0000
0001
0010
0100
,
0001
0010
0100
2002
3003
0000
2020
3030
0000
0202
0303
0000
,
2002
3003
0000
0022
0033
0000
2200
3300
0000
0101
0000
0101
,
0000
0001
0010
0100
0000
0000
0001
0000
0000
0000
0001
0000
0000
1000
0100
0010
0000
0000
1000
0000
0000
1000
0000
0000
,
0001
0010
0100
0000
0000
0000
1100
0000
0000
0000
0110
0000
0000
0101
0000
0000
0110
0000
0000
1002
0000
0000
0000
0000
,
0000
0000
0100
0000
1000
0000
0100
1000
0000
0000
0000
0110
0000
0000
0000
1200
0000
0000
0000
0000
0000
0000
0000
0000
,
0303
0000
0000
0000
;

//---------------dance-single - Copied from----------------
#NOTES:
     dance-single:
     Copied from:
     Hard:
     9:
     0.878,0.953,0.602,1.000,0.755,886.000,128.000,293.000,0.000,3.000,0.000,0.878,0.953,0.602,1.000,0.755,886.000,128.000,293.000,0.000,3.000,0.000:
1000
0000
1000
0000
1000
0000
2000
3000
,
0000
1001
0101
0000
,
1001
1100
0011
0011
,
2010
3100
0110
0110
,
1000
0100
1000
0100
0000
0000
0010
0100
0010
0100
0000
0000
,
0001
0100
0001
0100
0000
0000
0001
1000
0001
1000
0000
0000
,
0010
1000
0010
1000
0000
0000
0001
0010
0100
0001
0000
0000
,
2002
3003
0000
2002
3003
0000
1000
0100
0010
1000
0000
0000
,
2002
3003
0000
2002
3003
0000
0100
0010
0001
0100
0000
0000
,
2200
3300
0000
2200
3300
0000
0001
0010
0001
0100
0000
0000
,
2200
3300
0000
2200
3300
0000
0001
0010
0100
0001
0000
0000
,
2020
3030
0000
2020
3030
0000
0001
1000
0100
0001
0000
0000
,
0022
0033
0000
0022
0033
0000
1000
0100
0010
1000
0000
0000
,
2200
3300
0000
2200
3300
0000
0001
0100
0001
0010
0000
0000
,
2002
3003
0000
2002
3003
0000
1000
0100
1000
0100
0000
0100
,
0010
0000
0010
0001
0000
0001
2000
0000
0000
3000
0010
0100
,
0001
0000
0010
0000
0001
0000
1001
0000
0100
0010
0000
0100
,
1000
0000
0100
0010
0000
0010
0002
0000
0000
0003
0000
1000
,
0010
0000
0100
0000
0001
0000
1001
0000
1000
0100
0000
0100
,
0010
0000
0010
0001
0000
0001
0100
0000
0100
0010
0000
0010
,
0200
0000
0302
0000
0203
0000
0310
0000
0010
1000
0000
1000
,
0100
0000
0100
0010
0000
0010
0001
0000
0001
0100
0000
0100
,
1000
0000
0100
0000
0010
0000
1001
0000
0001
0010
0000
0010
,
0100
0000
0100
1000
0000
1000
0001
0000
0001
0100
0000
0100
,
0020
0000
2030
0000
3200
0000
0310
0000
0010
0001
0000
0001
,
0010
0000
0010
0100
0000
0100
1000
0000
1000
0001
0000
0001
,
0010
0000
0000
0000
1000
0000
0100
0000
1000
0000
0100
0000
1000
0000
0000
0000
0000
0000
0010
0000
0000
0100
0000
0000
,
0002
0000
0000
0000
0003
0000
1100
0000
0000
0000
0000
0000
1010
0000
0000
0000
0000
0000
0100
0000
0000
0010
0000
0000
,
0000
0010
0200
0000
0301
0000
0100
1000
,
0100
0000
0000
0000
0000
0000
0020
0000
0000
0000
0000
0000
0031
0000
0000
0000
0000
0000
0200
0000
0000
0002
0300
0000
,
0000
0000
0003
0200
0000
0000
0000
0000
0000
1320
0000
0000
0000
0000
0030
0000
0000
0000
0000
0000
0000
0000
0100
0000
,
1000
0000
1000
0200
0000
0300
0020
0000
,
0130
0000
0000
0000
0001
0000
0000
0000
0000
0200
0000
0000
0000
0000
0000
0000
0301
0000
0010
0000
0001
0000
0010
0000
,
0001
0000
1000
0100
1000
0100
1000
0000
0001
1000
0001
1000
,
0001
0000
0000
0000
0100
0000
0010
0000
0100
0000
0010
0000
0100
0000
0000
0000
0000
0000
0001
0000
0000
0100
0000
0000
,
0020
0000
1030
0000
0100
0000
0010
0100
,
0000
0100
0020
0000
1030
0000
0001
0100
,
0002
0013
0100
0010
,
0100
0000
1000
0000
0000
2100
0000
0000
3020
0000
0000
0230
,
0000
0000
0000
0000
0320
0000
0030
0000
0000
0101
0000
0000
,
0010
0000
0000
0100
0000
0100
0020
0000
0000
0100
0000
0000
,
1030
0000
0100
1000
0100
1000
0001
0000
0000
0011
0000
0000
,
1000
0000
0000
1010
0000
0000
1001
0000
0000
0001
0100
0001
,
0200
1320
0000
1031
,
0220
0330
0000
0220
0330
0000
1000
0000
0010
0100
0000
0010
,
1000
0000
0001
0200
0300
0000
0202
0303
0000
0100
0000
0000
,
2020
3030
0000
2020
3030
0000
0001
0000
0000
2020
3030
0000
,
2020
3030
0000
0202
0303
0000
2002
3003
0000
1001
0000
0000
,
0202
0303
0010
0002
0003
0000
1000
0000
0001
0100
0000
0001
,
0010
0000
0100
2000
3000
0000
2200
3300
0000
0001
0000
0100
,
0002
0003
0000
2002
3003
0000
0100
0000
0000
2200
3300
0000
,
0220
0330
0000
0022
0033
0000
0220
0330
0000
1100
0000
0010
,
0010
0000
0010
0020
0030
0000
0220
0330
0000
1001
0000
0001
,
0001
0000
0001
0002
0003
0000
0202
0303
0000
1010
0000
0010
,
0010
0000
0010
0020
0030
0000
0220
0330
0000
2200
3300
0000
,
2020
3030
0000
2200
3300
0000
2002
3003
0000
0100
0000
0010
,
1000
0000
0010
0200
0300
0000
2002
3003
0000
0001
0000
0100
,
0001
0000
0100
0020
0030
0000
2020
3030
0000
0100
0000
0001
,
0100
0000
0001
0200
0300
0000
0202
0303
0000
2020
3030
0000
,
2200
3300
0000
2020
3030
0000
0101
0000
0000
2000
0000
0000
,
0001
0100
0001
0010
,
0001
0100
0001
0010
,
0001
0100
0001
0010
,
0001
0000
0000
0100
0000
0000
3001
0100
0001
1000
0000
1000
,
0100
0000
0001
1000
0000
1000
0100
0000
0001
1000
0000
1000
,
0100
0000
0001
1000
0000
1000
0100
0000
0001
1000
0000
1000
,
0100
0000
0001
1000
0000
1000
0100
0000
0001
1000
0000
1000
,
0010
0000
0010
0100
0000
0100
1000
0000
1000
0001
0000
0001
,
0010
0000
1000
0001
0000
0001
0010
0000
1000
0001
0000
0001
,
0010
0000
1000
0001
0000
0001
0010
0000
1000
0001
0000
0001
,
0010
0000
1000
0001
0000
0001
0010
0000
1000
0001
0000
0001
,
0010
0000
0010
0100
0000
0100
1000
0000
1000
0001
0000
0001
,
0010
0000
0010
0001
0000
0001
0100
0000
0100
0001
0000
0001
,
0010
0000
1000
0002
0000
0000
0103
0000
0100
0010
0000
0010
,
0100
0000
0100
0001
0000
0001
0010
0000
0010
0100
0000
0100
,
1000
0000
1000
0200
0000
0000
0302
0000
0000
1003
0000
1000
,
0100
0000
0001
1000
0000
1000
0010
0000
0001
1000
0000
1000
,
0100
0000
0001
1000
0000
1000
0010
0000
0001
1000
0100
1000
,
0100
0000
0000
0010
0001
0010
0001
0000
0000
0100
0001
0100
,
0001
0000
0000
1000
0010
1000
0010
0000
0000
1000
0000
1000
,
0100
0000
0100
1000
0000
1000
0010
0000
0010
1000
0000
1000
,
0100
0000
0100
1000
0000
1000
0010
0000
0010
1000
0000
1000
,
0100
0000
0100
1000
0000
1000
0010
0000
0010
1000
0000
1000
,
0100
0000
0100
0010
0000
0010
0001
0000
0001
0100
0000
0100
,
0010
0000
0001
0100
0000
0100
0010
0000
0010
0100
0000
0100
,
0001
0000
0010
0100
0000
0100
0010
0000
0010
0100
0000
0100
,
0001
0000
0010
0100
0000
0100
0010
0000
0010
0100
0000
0100
,
0001
0000
0100
1000
0000
0100
0001
0000
0100
2000
0000
0000
,
0100
0000
0000
0001
0000
0000
3100
0000
2000
0000
0000
0000
,
3001
0000
0001
2000
0000
0000
3100
0000
0001
2000
0000
0000
,
0100
0000
0000
0010
0000
0000
3001
0000
0010
2000
0000
0000
,
3001
0000
0001
2000
0000
0000
3100
0000
0001
2000
0000
0000
,
0100
0000
0000
0001
0000
0000
3100
0000
0010
2000
0000
0000
,
3010
0000
0010
2000
0000
0000
3100
0000
0010
2000
0000
0000
,
3001
0000
0001
2000
0000
0000
0100
0000
0000
0010
0000
0000
,
0001
0000
0000
3100
0000
0010
2000
0000
3010
2000
0000
0000
,
3100
0000
0100
2000
0000
0000
3100
0000
0010
2000
0000
0000
,
3001
0000
0001
2000
0000
0000
3100
0000
0001
2000
0000
0000
,
0001
0000
0000
0100
0000
0000
3010
0000
0001
2000
0000
0000
,
3001
0000
0001
2000
0000
0000
3010
0000
0100
2000
0000
0000
,
0100
0000
0000
0001
0000
0000
3100
0000
0001
2000
0000
0000
,
3001
0000
0001
2000
0000
0000
3100
0000
0010
2000
0000
0000
,
0100
0000
0000
0010
0000
0000
3001
0000
0001
0200
0000
0310
,
1000
0010
1000
0010
0000
1000
0001
1000
0001
2000
0000
3000
,
1000
0100
0010
0001
0000
0000
1000
0000
0100
0020
0000
0000
,
0030
0000
0000
1001
0000
0110
0000
0101
0000
2001
0000
0000
,
0000
0000
0000
3020
,
0000
0230
0000
0302
,
0000
0000
0000
0000
0000
0000
0000
0000
0000
0000
0000
0000
0000
0000
0000
0000
0000
0000
0203
0010
0000
0000
0000
0010
,
0000
0000
0000
0010
0000
0000
0010
0000
0000
0000
0010
0000
0000
0000
0310
0000
0000
0000
2000
0000
0000
0000
0000
0000
,
0000
0000
0000
0000
0000
0000
3010
0000
0100
0020
0000
0000
,
0000
2030
3200
0320
,
0030
0000
0010
0002
0000
0000
0023
0000
0000
0230
0000
0000
,
0000
0000
0000
1300
0000
0000
0001
0000
0000
0010
0100
1000
,
0100
0000
0000
0100
0000
0001
0010
0000
0000
0001
0000
0000
,
0100
0010
0100
0001
0000
0000
0100
0000
0010
0100
0000
0000
,
0010
0000
0000
0100
1000
0010
0200
0000
0000
0301
0000
0100
,
1000
0000
0000
0001
0000
0000
0010
0100
0010
0002
0000
0000
,
0000
0000
0003
2000
0000
0000
0000
0000
3100
0020
0000
0000
,
0230
0000
0000
0320
0000
0000
0000
0000
0030
2000
0000
0000
,
3010
0000
0010
1000
0000
0010
0100
0010
0100
0020
0030
0000
,
2002
3003
0000
0220
0330
0000
2002
3003
0000
0202
0303
0000
,
1000
0100
1000
0100
0000
0000
0010
0100
0010
0100
0000
0000
,
0220
0330
0000
0220
0330
0000
1000
0000
0010
0100
0000
0010
,
1000
0000
0001
0200
0300
0000
0202
0303
0000
0100
0000
0000
,
2020
3030
0000
2020
3030
0000
0001
0000
0000
2020
3030
0000
,
2020
3030
0000
0202
0303
0000
2002
3003
0000
1001
0000
0000
,
0202
0303
0010
0002
0003
0000
1000
0000
0001
0100
0000
0001
,
0010
0000
0100
2000
3000
0000
2200
3300
0000
0001
0000
0100
,
0002
0003
0000
2002
3003
0000
0100
0000
0000
2200
3300
0000
,
0220
0330
0000
0022
0033
0000
0220
0330
0000
1100
0000
0010
,
0010
0000
0010
0020
0030
0000
0220
0330
0000
1001
0000
0001
,
0001
0000
0001
0002
0003
0000
0202
0303
0000
1010
0000
0010
,
0010
0000
0010
0020
0030
0000
0220
0330
0000
2200
3300
0000
,
2020
3030
0000
2200
3300
0000
2002
3003
0000
0100
0000
0010
,
1000
0000
0010
0200
0300
0000
2002
3003
0000
0001
0000
0100
,
0001
0000
0100
0020
0030
0000
2020
3030
0000
0100
0000
0001
,
0100
0000
0001
0200
0300
0000
0202
0303
0000
2020
3030
0000
,
2200
0000
0000
0000
0000
0000
0000
0000
0000
0000
0000
0000
0000
0000
0000
0000
3300
0000
0000
0000
0000
0000
0000
0000
0000
0000
0000
0000
0000
0000
0000
0000
0000
0000
0000
0000
0000
0000
0000
0000
0000
0000
0000
0000
0000
0000
0000
0000
2020
0000
0000
0000
0000
0000
0000
0000
0000
0000
0000
0000
0000
0000
0000
0000
3030
0000
0000
0000
0000
0000
0000
0000
0000
0000
0000
0000
0000
0000
0000
0000
0000
0000
0000
0000
0000
0000
0000
0000
0000
0000
0000
0000
0000
0000
0000
0000
0101
0000
0000
0000
0000
0000
0000
0000
0000
0000
0000
0000
0000
0000
0000
0000
0000
0000
0000
0000
0000
0000
0000
0000
0000
0000
0000
0000
0000
0000
0000
0000
0000
0000
0000
0000
0000
0000
0000
0000
0000
0000
0000
0000
0000
0000
0000
0000
2000
3000
0000
0000
0000
0000
0000
0000
0000
0000
0000
0000
0000
0000
0000
0000
0000
0000
0000
0000
0000
0000
0000
0000
0000
0000
0000
0000
0000
0000
0000
0000
0010
0000
0000
0000
0000
0000
0000
0000
0000
0000
0000
0000
0000
0000
0000
0000
,
1000
0000
0010
2000
3000
0000
2002
3003
0000
0001
0000
0100
,
0001
0000
0100
0020
0030
0000
2020
3030
0000
0010
0000
1000
,
0010
0000
1000
0020
0030
0000
0220
0330
0000
0202
0303
0000
,
0220
0330
0000
2200
3300
0000
0220
0330
0000
0100
0000
0001
,
0100
0000
0001
0020
0030
0100
2000
3000
0000
1000
0000
1000
,
1000
0000
1000
2000
3000
0000
2002
3003
0000
0001
0000
0100
,
0001
0000
0100
0002
0003
0000
2020
3030
0000
0202
0303
0000
,
2002
3003
0000
0022
0033
0000
2200
3300
0000
0100
0000
0100
,
0000
0001
0010
0100
0000
0000
0001
0000
0000
0000
0001
0000
0000
1000
0100
0010
0000
0000
1000
0000
0000
1000
0000
0000
,
0001
0010
0100
0000
0000
0000
1000
0000
0000
0000
0100
0000
0000
0001
0000
0000
0100
0000
0000
1002
0000
0000
0000
0000
,
0000
0000
0000
0000
0000
0000
0100
0000
0000
0000
0000
0010
0000
0000
0000
0200
0000
0000
0000
0000
0000
0000
0000
0000
,
0303
0000
0000
0000
;

//---------------dance-single - Copied from Copied f----------------
#NOTES:
     dance-single:
     Copied from Copied f:
     Medium:
     7:
     0.687,0.776,0.400,1.000,0.176,680.000,85.000,257.000,0.000,1.000,0.000,0.687,0.776,0.400,1.000,0.176,680.000,85.000,257.000,0.000,1.000,0.000: // measure 0
1000
0000
1000
0000
1000
0000
2000
3000
,  // measure 1
0000
0001
0101
0000
,  // measure 2
1000
1100
0001
0011
,  // measure 3
2000
3100
0010
0110
,  // measure 4
1000
0000
1000
0100
0000
0000
0010
0000
0010
0100
0000
0000
,  // measure 5
0001
0000
0001
0100
0000
0000
0001
0000
0001
1000
0000
0000
,  // measure 6
0010
0000
0000
1000
0000
0000
0001
0000
0100
0001
0000
0000
,  // measure 7
2002
3003
0000
2002
3003
0000
1000
0000
0010
1000
0000
0000
,  // measure 8
2002
3003
0000
2002
3003
0000
0100
0000
0001
0100
0000
0000
,  // measure 9
2200
3300
0000
2200
3300
0000
0001
0000
0001
0100
0000
0000
,  // measure 10
2200
3300
0000
2200
3300
0000
0001
0000
0100
0001
0000
0000
,  // measure 11
2020
3030
0000
2020
3030
0000
0001
0000
0100
0001
0000
0000
,  // measure 12
0022
0033
0000
0022
0033
0000
1000
0000
0010
1000
0000
0000
,  // measure 13
2200
3300
0000
2200
3300
0000
0001
0000
0001
0010
0000
0000
,  // measure 14
2002
3003
0000
2002
3003
0000
1000
0000
1000
0100
0000
0000
,  // measure 15
0010
0000
0000
0001
0000
0001
2000
0000
0000
3000
0000
0100
,  // measure 16
0001
0000
0010
0000
0001
0000
0001
0000
0000
0010
0000
0000
,  // measure 17
1000
0000
0000
0010
0000
0010
0002
0000
0000
0003
0000
0000
,  // measure 18
0010
0000
0100
0000
0001
0000
0001
0000
0000
0100
0000
0100
,  // measure 19
0010
0000
0000
0001
0000
0000
0100
0000
0000
0010
0000
0010
,  // measure 20
0200
0000
0000
0000
0000
0300
0010
0000
0000
1000
0000
0000
,  // measure 21
0100
0000
0000
0010
0000
0010
0001
0000
0000
0100
0000
0000
,  // measure 22
1000
0000
0100
0000
0010
0000
0001
0000
0000
0010
0000
0000
,  // measure 23
0100
0000
0000
1000
0000
1000
0001
0000
0000
0100
0000
0000
,  // measure 24
0020
0000
0130
0001
,  // measure 25
0010
0000
0000
0100
0000
0100
1000
0000
0000
0001
0000
0000
,  // measure 26
0010
0000
0000
0000
0000
0000
0100
0000
0000
0000
0100
0000
1000
0000
0000
0000
0000
0000
0010
0000
0000
0100
0000
0000
,  // measure 27
0002
0000
0000
0000
0003
0000
0100
0000
0000
0000
0000
0000
1000
0000
0000
0000
0000
0000
0100
0000
0000
0010
0000
0000
,  // measure 28
0000
0010
0200
0000
0300
0000
0100
1000
,  // measure 29
0100
0000
0000
0000
0000
0000
0020
0000
0000
0000
0000
0000
0031
0000
0000
0000
0000
0000
0200
0000
0000
0002
0300
0000
,  // measure 30
0000
0000
0003
0200
0000
0000
0000
0000
0000
0320
0000
0000
0000
0000
0030
0000
0000
0000
0000
0000
0000
0100
0000
0000
,  // measure 31
1000
0000
1000
0200
0000
0300
0020
0000
,  // measure 32
0130
0000
0001
0000
0100
0000
0010
0001
,  // measure 33
0010
0000
0100
1000
0100
0000
0001
0100
,  // measure 34
0001
0000
1001
0000
0100
0000
0001
0100
,  // measure 35
0020
0000
1030
0000
0100
0000
0010
0100
,  // measure 36
0000
0100
0020
0000
0030
0000
0001
0100
,  // measure 37
0002
0013
0100
0010
,  // measure 38
0100
0000
1000
0000
0000
2000
0000
0000
3020
0000
0000
0230
,  // measure 39
0000
0000
0000
0000
0320
0000
0030
0000
0000
0100
0000
0000
,  // measure 40
0010
0100
0020
0100
,  // measure 41
1030
0000
0000
1000
0000
1000
0001
0000
0000
0010
0000
0000
,  // measure 42
1000
0000
1010
0000
1001
0000
0001
0100
,  // measure 43
0002
0023
0000
1031
,  // measure 44
0010
0000
0000
0220
0330
0000
1000
0000
0000
0100
0000
0000
,  // measure 45
1000
0000
0001
0200
0300
0000
0202
0303
0000
0100
0000
0000
,  // measure 46
0020
0030
0000
2020
3030
0000
0001
0000
0000
0020
0030
0000
,  // measure 47
2020
3030
0000
0200
0300
0000
2002
3003
0000
1001
0000
0000
,  // measure 48
0202
0303
0000
0002
0003
0000
1000
0000
0000
0100
0000
0000
,  // measure 49
0010
0000
0100
2000
3000
0000
2200
3300
0000
0001
0000
0100
,  // measure 50
0002
0003
0000
2002
3003
0000
0100
0000
0000
2000
3000
0000
,  // measure 51
0220
0330
0000
0020
0030
0000
0220
0330
0000
1100
0000
0000
,  // measure 52
0010
0000
0010
0020
0030
0000
0220
0330
0000
1001
0000
0000
,  // measure 53
0001
0000
0001
0002
0003
0000
0202
0303
0000
1010
0000
0000
,  // measure 54
0010
0000
0010
0020
0030
0000
0220
0330
0000
2000
3000
0000
,  // measure 55
2020
3030
0000
2000
3000
0000
2002
3003
0000
0100
0000
0000
,  // measure 56
1000
0000
0010
0200
0300
0000
2002
3003
0000
0001
0000
0000
,  // measure 57
0001
0000
0100
0020
0030
0000
2020
3030
0000
0100
0000
0000
,  // measure 58
0100
0000
0001
0200
0300
0000
0202
0303
0000
2020
3030
0000
,  // measure 59
0200
0300
0000
2020
3030
0000
0001
0000
0000
2000
0000
0000
,  // measure 60
0001
0000
0001
0000
,  // measure 61
0001
0000
0001
0000
,  // measure 62
0001
0000
0001
0000
,  // measure 63
0001
0000
0000
0000
3010
0100
1000
0000
,  // measure 64
1000
0100
1000
0000
0100
1000
0100
0000
,  // measure 65
1000
0100
1000
0000
0100
1000
0100
0000
,  // measure 66
1000
0100
1000
0000
0100
1000
0100
0000
,  // measure 67
0001
0010
0001
0010
0100
0000
1001
0000
,  // measure 68
0001
0100
0001
0000
0001
0010
0001
0000
,  // measure 69
0001
0100
0001
0000
0001
0010
0001
0000
,  // measure 70
0001
0100
0001
0000
0001
0010
0100
1000
,  // measure 71
0010
0001
0101
0010
,  // measure 72
0010
0100
0010
0000
0010
0100
0010
0000
,  // measure 73
0010
0100
0001
0000
0001
0010
0100
0000
,  // measure 74
0100
1000
0010
0000
0010
0100
0010
0000
,  // measure 75
0010
0100
0001
0000
1000
0000
0010
0000
,  // measure 76
0010
0100
0010
0000
0010
0100
0010
0000
,  // measure 77
0010
1000
0010
0000
0010
0100
0001
0000
,  // measure 78
0001
0010
0100
0000
0100
1000
0010
0000
,  // measure 79
0010
0100
0001
0000
0010
0000
0001
0000
,  // measure 80
0001
1000
0001
0000
0001
1000
0001
0000
,  // measure 81
0001
1000
0001
0000
0001
1000
0001
0000
,  // measure 82
0001
1000
0001
0000
0001
1000
0001
0000
,  // measure 83
0001
0010
0100
0000
1000
0000
0001
0000
,  // measure 84
0001
0100
0001
0000
0100
0001
0100
0000
,  // measure 85
0001
0100
0001
0000
0100
0001
0100
0000
,  // measure 86
0001
0100
0001
0000
0100
0001
0100
0010
,  // measure 87
0100
0000
0000
1000
0000
0000
0001
0000
0000
0000
0000
0000
0010
0000
0000
0000
0100
0000
2000
0000
0000
0000
0000
0000
,  // measure 88
0000
0000
0000
0010
0000
0000
3100
0000
2000
0000
0000
0000
,  // measure 89
3001
2000
3100
2000
,  // measure 90
0100
0010
3001
2000
,  // measure 91
3001
2000
3100
2000
,  // measure 92
0100
0001
3100
2000
,  // measure 93
3010
2000
3100
2000
,  // measure 94
3001
2000
0100
0010
,  // measure 95
0001
0000
0000
3100
0000
0000
2000
0000
3000
2000
0000
0000
,  // measure 96
3100
2000
3100
2000
,  // measure 97
3001
2000
3100
2000
,  // measure 98
0001
0100
3010
2000
,  // measure 99
3001
2000
3010
2000
,  // measure 100
0100
0001
3100
2000
,  // measure 101
3001
2000
3100
2000
,  // measure 102
0100
0000
0000
0010
0000
0000
3001
0000
0000
0200
0000
0300
,  // measure 103
1000
0000
1000
0010
0000
0000
0001
0000
0001
2000
0000
3000
,  // measure 104
1000
0100
0001
0000
1000
0100
0020
0000
,  // measure 105
0030
0000
0000
1001
0000
0100
0000
0100
0000
2000
0000
0000
,  // measure 106
0000
0000
0000
3020
,  // measure 107
0000
0230
0000
0302
,  // measure 108
0000
0000
0000
0203
,  // measure 109
0000
0000
0000
0000
0000
0000
0000
0300
0000
2000
0000
0000
,  // measure 110
0000
0000
0000
0000
0000
0000
3010
0000
0100
0020
0000
0000
,  // measure 111
0000
2030
3200
0320
,  // measure 112
0030
0002
0023
0230
,  // measure 113
0000
0000
1300
0000
0001
0000
0010
0100
,  // measure 114
1000
0000
0000
0010
0100
0000
0000
0001
,  // measure 115
0010
0000
0000
0001
0100
0100
0001
0000
,  // measure 116
0011
0000
0010
0000
0200
0000
0301
0100
,  // measure 117
1000
0000
0000
0001
0000
0000
0010
0000
0010
0002
0000
0000
,  // measure 118
0000
0000
0003
2000
0000
0000
0000
0000
3000
0020
0000
0000
,  // measure 119
0230
0000
0000
0320
0000
0000
0000
0000
0030
2000
0000
0000
,  // measure 120
3010
0000
0000
1000
0000
0000
0100
0000
0100
0020
0030
0000
,  // measure 121
2000
3000
0000
0020
0030
0000
0002
0003
0000
0200
0300
0000
,  // measure 122
1000
0000
1000
0100
0000
0000
0010
0000
0010
0100
0000
0000
,  // measure 123
0010
0000
0000
0220
0330
0000
1000
0000
0000
0100
0000
0000
,  // measure 124
1000
0000
0001
0200
0300
0000
0202
0303
0000
0100
0000
0000
,  // measure 125
0020
0030
0000
2020
3030
0000
0001
0000
0000
0020
0030
0000
,  // measure 126
2020
3030
0000
0200
0300
0000
2002
3003
0000
1001
0000
0000
,  // measure 127
0202
0303
0000
0002
0003
0000
1000
0000
0000
0100
0000
0000
,  // measure 128
0010
0000
0100
2000
3000
0000
2200
3300
0000
0001
0000
0100
,  // measure 129
0002
0003
0000
2002
3003
0000
0100
0000
0000
2000
3000
0000
,  // measure 130
0220
0330
0000
0020
0030
0000
0220
0330
0000
1100
0000
0000
,  // measure 131
0010
0000
0010
0020
0030
0000
0220
0330
0000
1001
0000
0000
,  // measure 132
0001
0000
0001
0002
0003
0000
0202
0303
0000
1010
0000
0000
,  // measure 133
0010
0000
0010
0020
0030
0000
0220
0330
0000
2000
3000
0000
,  // measure 134
2020
3030
0000
2000
3000
0000
2002
3003
0000
0100
0000
0000
,  // measure 135
1000
0000
0010
0200
0300
0000
2002
3003
0000
0001
0000
0000
,  // measure 136
0001
0000
0100
0020
0030
0000
2020
3030
0000
0100
0000
0000
,  // measure 137
0100
0000
0001
0200
0300
0000
0202
0303
0000
2020
3030
0000
,  // measure 138
0200
0000
0000
0000
0000
0000
0000
0000
0000
0000
0000
0000
0000
0000
0000
0000
0300
0000
0000
0000
0000
0000
0000
0000
0000
0000
0000
0000
0000
0000
0000
0000
0000
0000
0000
0000
0000
0000
0000
0000
0000
0000
0000
0000
0000
0000
0000
0000
2020
0000
0000
0000
0000
0000
0000
0000
0000
0000
0000
0000
0000
0000
0000
0000
3030
0000
0000
0000
0000
0000
0000
0000
0000
0000
0000
0000
0000
0000
0000
0000
0000
0000
0000
0000
0000
0000
0000
0000
0000
0000
0000
0000
0000
0000
0000
0000
0001
0000
0000
0000
0000
0000
0000
0000
0000
0000
0000
0000
0000
0000
0000
0000
0000
0000
0000
0000
0000
0000
0000
0000
0000
0000
0000
0000
0000
0000
0000
0000
0000
0000
0000
0000
0000
0000
0000
0000
0000
0000
0000
0000
0000
0000
0000
0000
2000
3000
0000
0000
0000
0000
0000
0000
0000
0000
0000
0000
0000
0000
0000
0000
0000
0000
0000
0000
0000
0000
0000
0000
0000
0000
0000
0000
0000
0000
0000
0000
0000
0000
0000
0000
0000
0000
0000
0000
0000
0000
0000
0000
0000
0000
0000
0000
,  // measure 139
1000
0000
0010
2000
3000
0000
2002
3003
0000
0001
0000
0000
,  // measure 140
0001
0000
0100
0020
0030
0000
2020
3030
0000
0010
0000
0000
,  // measure 141
0010
0000
1000
0020
0030
0000
0220
0330
0000
0002
0003
0000
,  // measure 142
0220
0330
0000
2000
3000
0000
0220
0330
0000
0100
0000
0000
,  // measure 143
0100
0000
0001
0020
0030
0000
2000
3000
0000
1000
0000
0000
,  // measure 144
1000
0000
1000
2000
3000
0000
2002
3003
0000
0001
0000
0000
,  // measure 145
0001
0000
0100
0002
0003
0000
2020
3030
0000
0002
0003
0000
,  // measure 146
2002
3003
0000
0002
0003
0000
2200
3300
0000
0100
0000
0100
,  // measure 147
0000
0000
0000
0001
0000
0001
0000
0000
0000
1000
0000
1000
,  // measure 148
0000
0000
0000
0000
0000
0000
1000
0000
0000
0000
0100
0000
0010
0000
0000
0000
0100
0000
0000
0002
0000
0000
0000
0000
,  // measure 149
0000
0000
0000
0000
0000
0200
0000
0000
,  // measure 150
0303
0000
0000
0000
;
