#VERSION:0.81;
#TITLE:Where Them Girls At?;
#SUBTITLE:Nothing But The Beat;
#ARTIST:David Guetta Feat. Nicki Minaj & Florida;
#TITLETRANSLIT:;
#SUBTITLETRANSLIT:;
#ARTISTTRANSLIT:;
#GENRE:;
#ORIGIN:;
#CREDIT:;
#BANNER:wtga-bn.png;
#BACKGROUND:DG-bg.png;
#PREVIEWVID:;
#JACKET:;
#CDIMAGE:;
#DISCIMAGE:;
#LYRICSPATH:;
#CDTITLE:;
#MUSIC:David Guetta - Where Them Girls At ft. Nicki Minaj, Flo Rida.mp3;
#OFFSET:0.500;
#SAMPLESTART:151.800;
#SAMPLELENGTH:18.440;
#SELECTABLE:YES;
#BPMS:0.000=130.000,
36.000=260.280,
36.500=65.070,
36.750=130.140,
37.000=260.280,
37.500=65.070,
37.750=130.140,
38.000=260.280,
38.500=65.070,
38.750=130.140,
39.000=260.280,
39.500=65.070,
39.750=130.140,
40.000=260.280,
40.500=65.070,
40.750=130.140,
41.000=260.280,
41.500=65.070,
41.750=130.140,
42.000=260.280,
42.500=65.070,
42.750=130.140,
43.000=260.280,
43.500=65.070,
43.750=130.140,
44.000=260.280,
44.500=65.070,
44.750=130.140,
45.000=260.280,
45.500=65.070,
45.750=130.140,
46.000=260.280,
46.500=65.070,
46.750=130.140,
47.000=260.280,
47.500=65.070,
47.750=130.140,
48.000=260.280,
48.500=65.070,
48.750=130.140,
49.000=260.280,
49.500=65.070,
49.750=130.140,
50.000=260.280,
50.500=65.070,
50.750=130.140,
51.000=260.280,
51.500=65.070,
51.750=130.140,
52.000=260.280,
52.500=65.070,
52.750=130.140,
53.000=260.280,
53.500=65.070,
53.750=130.140,
54.000=260.280,
54.500=65.070,
54.750=130.140,
55.000=260.280,
55.500=65.070,
55.750=130.140,
56.000=260.280,
56.500=65.070,
56.750=130.140,
57.000=260.280,
57.500=65.070,
57.750=130.140,
58.000=260.280,
58.500=65.070,
58.750=130.140,
59.000=260.280,
59.500=65.070,
59.750=130.140,
60.000=260.280,
60.500=65.070,
60.750=130.140,
61.000=260.280,
61.500=65.070,
61.750=130.140,
62.000=260.280,
62.500=65.070,
62.750=130.140,
63.000=260.280,
63.500=65.070,
63.750=130.140,
64.000=260.280,
64.500=65.070,
64.750=130.140,
65.000=260.280,
65.500=65.070,
65.750=130.140,
66.000=260.280,
66.500=65.070,
66.750=130.140,
67.000=260.280,
67.500=65.070,
67.750=130.140,
98.000=65.070,
99.000=130.140,
143.500=260.280,
144.500=130.140,
226.000=260.280,
226.500=130.140,
227.000=260.280,
227.500=130.140,
228.000=65.070,
229.000=130.140,
238.000=260.280,
238.250=130.140,
240.000=260.280,
240.125=130.140,
240.250=260.280,
240.375=130.140,
240.500=260.280,
240.625=130.140,
245.000=260.280,
245.125=130.140,
245.250=260.280,
245.375=130.140,
245.500=260.280,
245.625=130.140,
245.750=260.280,
245.875=130.140,
247.000=260.280,
247.125=130.140,
247.250=260.280,
247.375=130.140,
247.500=260.280,
247.625=130.140,
247.750=260.280,
247.875=130.140,
264.000=260.280,
264.125=130.140,
264.250=260.280,
264.375=130.140,
264.500=260.280,
264.625=130.140,
264.750=260.280,
264.875=130.140,
270.750=260.280,
271.000=130.140,
285.250=260.280,
285.750=65.070,
286.000=130.140,
286.250=260.280,
286.750=65.070,
287.000=130.140,
287.250=260.280,
287.750=65.070,
288.000=130.140,
288.250=260.280,
288.750=65.070,
289.000=130.140,
368.000=260.280,
368.500=130.140;
#STOPS:61.000=0.040,
144.500=0.692,
226.500=0.115,
227.500=0.115,
238.250=0.058,
240.125=0.029,
240.375=0.029,
240.625=0.029,
245.125=0.029,
245.375=0.029,
245.625=0.029,
245.875=0.029,
247.125=0.029,
247.375=0.029,
247.625=0.029,
247.875=0.029,
264.125=0.029,
264.375=0.029,
264.625=0.029,
264.875=0.029,
271.000=0.058,
368.500=0.135,
399.500=0.461;
#DELAYS:;
#WARPS:;
#TIMESIGNATURES:0.000=4=4;
#TICKCOUNTS:0.000=4;
#COMBOS:0.000=1;
#SPEEDS:0.000=1.000=0.000=0;
#SCROLLS:0.000=1.000;
#FAKES:;
#LABELS:0.000=Song Start;
#BGCHANGES:0.063=David Guetta - Where Them Girls At ft. Nicki Minaj=1.000=0=0=1=====,
0.125=Vid.avi=1.000=1=0=1===CrossFade==,
99999=-nosongbg-=1.000=0=0=0 // don't automatically add -songbackground-
;
#KEYSOUNDS:;
#ATTACKS:
;

//---------------dance-single - ----------------
#NOTEDATA:;
#CHARTNAME:;
#STEPSTYPE:dance-single;
#DESCRIPTION:;
#CHARTSTYLE:;
#DIFFICULTY:Hard;
#METER:11;
#RADARVALUES:0.925,1.000,0.944,1.000,0.426,941.000,215.000,318.000,0.000,8.000,0.000,0.000,0.000,0.925,1.000,0.944,1.000,0.426,941.000,215.000,318.000,0.000,8.000,0.000,0.000,0.000;
#CREDIT:;
#OFFSET:-0.020;
#BPMS:0.000=130.000
,35.000=260.280
,35.500=65.070
,35.750=130.140
,36.000=260.280
,36.500=65.070
,36.750=130.140
,37.000=260.280
,37.500=65.070
,37.750=130.140
,38.000=260.280
,38.500=65.070
,38.750=130.140
,39.000=260.280
,39.500=65.070
,39.750=130.140
,40.000=260.280
,40.500=65.070
,40.750=130.140
,41.000=260.280
,41.500=65.070
,41.750=130.140
,42.000=260.280
,42.500=65.070
,42.750=130.140
,43.000=260.280
,43.500=65.070
,43.750=130.140
,44.000=260.280
,44.500=65.070
,44.750=130.140
,45.000=260.280
,45.500=65.070
,45.750=130.140
,46.000=260.280
,46.500=65.070
,46.750=130.140
,47.000=260.280
,47.500=65.070
,47.750=130.140
,48.000=260.280
,48.500=65.070
,48.750=130.140
,49.000=260.280
,49.500=65.070
,49.750=130.140
,50.000=260.280
,50.500=65.070
,50.750=130.140
,51.000=260.280
,51.500=65.070
,51.750=130.140
,52.000=260.280
,52.500=65.070
,52.750=130.140
,53.000=260.280
,53.500=65.070
,53.750=130.140
,54.000=260.280
,54.500=65.070
,54.750=130.140
,55.000=260.280
,55.500=65.070
,55.750=130.140
,56.000=260.280
,56.500=65.070
,56.750=130.140
,57.000=260.280
,57.500=65.070
,57.750=130.140
,58.000=260.280
,58.500=65.070
,58.750=130.140
,59.000=260.280
,59.500=65.070
,59.750=130.140
,60.000=260.280
,60.500=65.070
,60.750=130.140
,61.000=260.280
,61.500=65.070
,61.750=130.140
,62.000=260.280
,62.500=65.070
,62.750=130.140
,63.000=260.280
,63.500=65.070
,63.750=130.140
,64.000=260.280
,64.500=65.070
,64.750=130.140
,65.000=260.280
,65.500=65.070
,65.750=130.140
,66.000=260.280
,66.500=65.070
,66.750=130.140
,97.000=65.070
,98.000=130.140
,142.500=260.280
,143.500=130.140
,225.000=260.280
,225.500=130.140
,226.000=260.280
,226.500=130.140
,227.000=65.070
,228.000=130.140
,237.000=260.280
,237.250=130.140
,239.000=260.280
,239.125=130.140
,239.250=260.280
,239.375=130.140
,239.500=260.280
,239.625=130.140
,244.000=260.280
,244.125=130.140
,244.250=260.280
,244.375=130.140
,244.500=260.280
,244.625=130.140
,244.750=260.280
,244.875=130.140
,246.000=260.280
,246.125=130.140
,246.250=260.280
,246.375=130.140
,246.500=260.280
,246.625=130.140
,246.750=260.280
,246.875=130.140
,263.000=260.280
,263.125=130.140
,263.250=260.280
,263.375=130.140
,263.500=260.280
,263.625=130.140
,263.750=260.280
,263.875=130.140
,269.750=260.280
,270.000=130.140
,284.250=260.280
,284.750=65.070
,285.000=130.140
,285.250=260.280
,285.750=65.070
,286.000=130.140
,286.250=260.280
,286.750=65.070
,287.000=130.140
,287.250=260.280
,287.750=65.070
,288.000=130.140
,367.000=260.280
,367.500=130.140
;
#STOPS:143.500=0.692
,225.500=0.115
,226.500=0.115
,237.250=0.058
,239.125=0.029
,239.375=0.029
,239.625=0.029
,244.125=0.029
,244.375=0.029
,244.625=0.029
,244.875=0.029
,246.125=0.029
,246.375=0.029
,246.625=0.029
,246.875=0.029
,263.125=0.029
,263.375=0.029
,263.625=0.029
,263.875=0.029
,270.000=0.058
,367.500=0.135
,398.500=0.461
;
#DELAYS:;
#WARPS:;
#TIMESIGNATURES:0.000=4=4
;
#TICKCOUNTS:0.000=4
;
#COMBOS:0.000=1
;
#SPEEDS:0.000=1.000=0.000=0
;
#SCROLLS:0.000=1.000
;
#FAKES:;
#LABELS:0.000=Song Start
;
#NOTES:
0000
0000
0000
0000
,
0000
0000
0000
0000
,
0000
0000
0000
0000
,
0000
0000
0000
0000
,
0000
0000
0000
0000
,
0000
0000
0000
0000
,
0000
0000
0000
0000
,
0000
0000
0000
0000
,
0000
0000
0000
0000
0000
0000
0202
0303
,
0202
0000
0000
0000
0000
0000
0000
0000
0000
0000
0000
0000
0000
0000
0000
0000
0000
0000
0000
0000
0000
0000
0000
0000
0303
0000
0000
0000
0000
0000
0000
0000
0000
0000
0000
0000
0000
0000
0000
0000
0000
0000
0000
0000
0000
0000
0000
0000
0022
0000
0000
0000
0000
0000
0000
0000
0000
0000
0000
0000
0000
0000
0000
0000
0000
0000
0000
0000
0000
0000
0000
0000
0033
0000
0000
0000
0000
0000
0000
0000
0000
0000
0000
0000
0000
0000
0000
0000
0000
0000
0000
0000
0000
0000
0000
0000
0022
0000
0000
0000
0000
0000
0000
0000
0000
0000
0000
0000
0000
0000
0000
0000
0000
0000
0000
0000
0000
0000
0000
0000
0000
0033
0000
0000
0000
0000
0000
0000
0000
0000
0000
0000
0000
0000
0000
0000
0000
0000
0000
0000
0000
0000
0000
0000
2020
0000
0000
0000
0000
0000
0000
0000
0000
0000
0000
0000
0000
0000
0000
0000
0000
0000
0000
0000
0000
0000
0000
0000
0000
3030
0000
0000
0000
0000
0000
0000
0000
0000
0000
0000
0000
0000
0000
0000
0000
0000
0000
0000
0000
0000
0000
0000
,
2020
0000
0000
0000
0000
0000
0000
0000
0000
0000
0000
0000
0000
0000
0000
0000
0000
0000
0000
0000
0000
0000
0000
0000
3030
0000
0000
0000
0000
0000
0000
0000
0000
0000
0000
0000
0000
0000
0000
0000
0000
0000
0000
0000
0000
0000
0000
0000
2200
0000
0000
0000
0000
0000
0000
0000
0000
0000
0000
0000
0000
0000
0000
0000
0000
0000
0000
0000
0000
0000
0000
0000
0000
3300
0000
0000
0000
0000
0000
0000
0000
0000
0000
0000
0000
0000
0000
0000
0000
0000
0000
0000
0000
0000
0000
0000
2200
0000
0000
0000
0000
0000
0000
0000
0000
0000
0000
0000
0000
0000
0000
0000
0000
0000
0000
0000
0000
0000
0000
0000
0000
3300
0000
0000
0000
0000
0000
0000
0000
0000
0000
0000
0000
0000
0000
0000
0000
0000
0000
0000
0000
0000
0000
0000
0202
0000
0000
0000
0000
0000
0000
0000
0000
0000
0000
0000
0000
0000
0000
0000
0000
0000
0000
0000
0000
0000
0000
0000
0000
0303
0000
0000
0000
0000
0000
0000
0000
0000
0000
0000
0000
0000
0000
0000
0000
0000
0000
0000
0000
0000
0000
0000
,
0202
0000
0000
0000
0000
0000
0000
0000
0000
0000
0000
0000
0000
0000
0000
0000
0000
0000
0000
0000
0000
0000
0000
0000
0000
0303
0000
0000
0000
0000
0000
0000
0000
0000
0000
0000
0000
0000
0000
0000
0000
0000
0000
0000
0000
0000
0000
0000
0022
0000
0000
0000
0000
0000
0000
0000
0000
0000
0000
0000
0000
0000
0000
0000
0000
0000
0000
0000
0000
0000
0000
0000
0000
0033
0000
0000
0000
0000
0000
0000
0000
0000
0000
0000
0000
0000
0000
0000
0000
0000
0000
0000
0000
0000
0000
0000
0022
0000
0000
0000
0000
0000
0000
0000
0000
0000
0000
0000
0000
0000
0000
0000
0000
0000
0000
0000
0000
0000
0000
0000
0033
0000
0000
0000
0000
0000
0000
0000
0000
0000
0000
0000
0000
0000
0000
0000
0000
0000
0000
0000
0000
0000
0000
0000
2020
0000
0000
0000
0000
0000
0000
0000
0000
0000
0000
0000
0000
0000
0000
0000
0000
0000
0000
0000
0000
0000
0000
0000
0000
3030
0000
0000
0000
0000
0000
0000
0000
0000
0000
0000
0000
0000
0000
0000
0000
0000
0000
0000
0000
0000
0000
0000
,
2020
0000
0000
0000
0000
0000
0000
0000
0000
0000
0000
0000
0000
0000
0000
0000
0000
0000
0000
0000
0000
0000
0000
0000
0000
3030
0000
0000
0000
0000
0000
0000
0000
0000
0000
0000
0000
0000
0000
0000
0000
0000
0000
0000
0000
0000
0000
0000
2200
0000
0000
0000
0000
0000
0000
0000
0000
0000
0000
0000
0000
0000
0000
0000
0000
0000
0000
0000
0000
0000
0000
0000
0000
3300
0000
0000
0000
0000
0000
0000
0000
0000
0000
0000
0000
0000
0000
0000
0000
0000
0000
0000
0000
0000
0000
0000
2200
0000
0000
0000
0000
0000
0000
0000
0000
0000
0000
0000
0000
0000
0000
0000
0000
0000
0000
0000
0000
0000
0000
0000
3300
0000
0000
0000
0000
0000
0000
0000
0000
0000
0000
0000
0000
0000
0000
0000
0000
0000
0000
0000
0000
0000
0000
0000
0202
0000
0000
0000
0000
0000
0000
0000
0000
0000
0000
0000
0000
0000
0000
0000
0000
0000
0000
0000
0000
0000
0000
0000
0000
0303
0000
0000
0000
0000
0000
0000
0000
0000
0000
0000
0000
0000
0000
0000
0000
0000
0000
0000
0000
0000
0000
0000
,
0202
0000
0000
0000
0000
0000
0000
0000
0000
0000
0000
0000
0000
0000
0000
0000
0000
0000
0000
0000
0000
0000
0000
0000
0000
0303
0000
0000
0000
0000
0000
0000
0000
0000
0000
0000
0000
0000
0000
0000
0000
0000
0000
0000
0000
0000
0000
0000
0022
0000
0000
0000
0000
0000
0000
0000
0000
0000
0000
0000
0000
0000
0000
0000
0000
0000
0000
0000
0000
0000
0000
0000
0000
0033
0000
0000
0000
0000
0000
0000
0000
0000
0000
0000
0000
0000
0000
0000
0000
0000
0000
0000
0000
0000
0000
0000
0022
0000
0000
0000
0000
0000
0000
0000
0000
0000
0000
0000
0000
0000
0000
0000
0000
0000
0000
0000
0000
0000
0000
0000
0000
0033
0000
0000
0000
0000
0000
0000
0000
0000
0000
0000
0000
0000
0000
0000
0000
0000
0000
0000
0000
0000
0000
0000
2020
0000
0000
0000
0000
0000
0000
0000
0000
0000
0000
0000
0000
0000
0000
0000
0000
0000
0000
0000
0000
0000
0000
0000
0000
3030
0000
0000
0000
0000
0000
0000
0000
0000
0000
0000
0000
0000
0000
0000
0000
0000
0000
0000
0000
0000
0000
0000
,
2020
0000
0000
0000
0000
0000
0000
0000
0000
0000
0000
0000
0000
0000
0000
0000
0000
0000
0000
0000
0000
0000
0000
0000
0000
3030
0000
0000
0000
0000
0000
0000
0000
0000
0000
0000
0000
0000
0000
0000
0000
0000
0000
0000
0000
0000
0000
0000
2200
0000
0000
0000
0000
0000
0000
0000
0000
0000
0000
0000
0000
0000
0000
0000
0000
0000
0000
0000
0000
0000
0000
0000
0000
3300
0000
0000
0000
0000
0000
0000
0000
0000
0000
0000
0000
0000
0000
0000
0000
0000
0000
0000
0000
0000
0000
0000
2200
0000
0000
0000
0000
0000
0000
0000
0000
0000
0000
0000
0000
0000
0000
0000
0000
0000
0000
0000
0000
0000
0000
0000
0000
3300
0000
0000
0000
0000
0000
0000
0000
0000
0000
0000
0000
0000
0000
0000
0000
0000
0000
0000
0000
0000
0000
0000
0202
0000
0000
0000
0000
0000
0000
0000
0000
0000
0000
0000
0000
0000
0000
0000
0000
0000
0000
0000
0000
0000
0000
0000
0000
0303
0000
0000
0000
0000
0000
0000
0000
0000
0000
0000
0000
0000
0000
0000
0000
0000
0000
0000
0000
0000
0000
0000
,
0202
0000
0000
0000
0000
0000
0000
0000
0000
0000
0000
0000
0000
0000
0000
0000
0000
0000
0000
0000
0000
0000
0000
0000
0000
0303
0000
0000
0000
0000
0000
0000
0000
0000
0000
0000
0000
0000
0000
0000
0000
0000
0000
0000
0000
0000
0000
0000
0022
0000
0000
0000
0000
0000
0000
0000
0000
0000
0000
0000
0000
0000
0000
0000
0000
0000
0000
0000
0000
0000
0000
0000
0000
0033
0000
0000
0000
0000
0000
0000
0000
0000
0000
0000
0000
0000
0000
0000
0000
0000
0000
0000
0000
0000
0000
0000
0022
0000
0000
0000
0000
0000
0000
0000
0000
0000
0000
0000
0000
0000
0000
0000
0000
0000
0000
0000
0000
0000
0000
0000
0000
0033
0000
0000
0000
0000
0000
0000
0000
0000
0000
0000
0000
0000
0000
0000
0000
0000
0000
0000
0000
0000
0000
0000
2020
0000
0000
0000
0000
0000
0000
0000
0000
0000
0000
0000
0000
0000
0000
0000
0000
0000
0000
0000
0000
0000
0000
0000
0000
3030
0000
0000
0000
0000
0000
0000
0000
0000
0000
0000
0000
0000
0000
0000
0000
0000
0000
0000
0000
0000
0000
0000
,
2020
0000
0000
0000
0000
0000
0000
0000
0000
0000
0000
0000
0000
0000
0000
0000
0000
0000
0000
0000
0000
0000
0000
0000
0000
3030
0000
0000
0000
0000
0000
0000
0000
0000
0000
0000
0000
0000
0000
0000
0000
0000
0000
0000
0000
0000
0000
0000
2200
0000
0000
0000
0000
0000
0000
0000
0000
0000
0000
0000
0000
0000
0000
0000
0000
0000
0000
0000
0000
0000
0000
0000
0000
3300
0000
0000
0000
0000
0000
0000
0000
0000
0000
0000
0000
0000
0000
0000
0000
0000
0000
0000
0000
0000
0000
0000
2100
0000
0000
0000
0000
0000
0000
0000
0000
0000
0000
0000
0000
0000
0000
0000
0000
0000
0000
0000
0000
0000
0000
0000
0000
3000
0000
0000
0000
0000
0100
0000
0000
0000
0000
0000
0000
0000
0000
0000
0000
0000
0000
0000
0000
0000
0000
0000
0001
0000
0000
0000
0000
0000
0000
0000
0000
0000
0000
0000
0000
0000
0000
0000
0000
0000
0000
0000
0000
0000
0000
0000
0000
0000
0000
0000
0000
0000
0000
0000
0000
0000
0000
0000
0000
0000
0000
0000
0000
0000
0000
0000
0000
0000
0000
0000
,
0101
0100
0001
0000
0101
0100
0001
0000
,
0101
0100
0001
0000
0101
0100
0001
0000
,
0101
0100
0001
0000
0101
0100
0001
0000
,
0101
0100
0001
0000
0101
0100
0001
0000
,
0101
0100
0001
0000
0101
0100
0001
0000
,
0101
0100
0001
0000
0101
0100
0001
1100
,
0010
0100
0020
0000
0130
0001
0012
0023
,
0230
0000
0000
0000
2300
0000
0000
0000
0000
0000
0000
0000
0000
0000
3010
0200
0000
0000
0300
0000
0001
0000
0100
0000
0001
0000
0000
0000
0010
0000
0001
0000
,
0010
0000
1000
0100
0000
0100
0010
0000
0000
0001
0100
0000
0011
0000
0010
0000
,
0100
0000
2000
0000
0001
0000
0010
0000
3000
0100
0010
0100
0001
0010
0000
0011
,
0000
0100
0001
0000
0100
0001
0010
0100
0000
0100
0010
0000
0011
0000
0100
0000
,
0001
0000
0020
0000
0100
0000
1000
0000
0030
0001
0100
0001
1000
0010
0000
0010
,
0000
0100
0001
0010
0001
1000
0000
1000
0000
0010
0100
0000
0001
0100
0001
0000
,
0010
0000
0200
0000
0001
0000
1000
0000
0300
0000
0010
0000
0101
0000
0010
0100
,
0010
0000
1000
0000
0001
0100
1000
0100
0001
0000
0010
0000
0011
0000
0010
0100
,
1000
0000
0010
0000
0102
0000
0013
0100
0000
0100
1000
0100
0010
0001
0010
0000
,
1010
0000
0001
0000
0102
0000
0013
0100
0000
0000
1000
0000
1010
0000
0100
0010
,
0100
0000
0001
0000
2001
0000
3010
0100
0000
0000
0001
0010
0100
1000
0100
0010
,
0001
0000
2000
0000
3012
0000
0103
0010
0100
0000
0020
0000
0000
0000
0030
0000
,
0001
0010
0200
0300
0100
0010
0001
0000
1001
0000
0100
0010
0100
0001
0010
0000
,
0011
0000
0001
0100
0000
0100
0010
1000
0010
0000
0100
0001
0100
0010
0100
0001
,
0020
0000
0130
1000
0100
0001
0100
1000
0010
0000
1000
0010
0100
0000
0001
0000
,
0012
0000
0003
0210
0000
0301
0010
0001
0100
0010
1000
0100
0010
0001
0100
0010
,
2000
0000
3002
0103
0002
0103
0002
0013
,
0200
0300
0020
1030
0020
0130
0002
1003
,
0200
0310
0020
1030
0200
1300
0200
0300
,
0020
0031
2000
3001
2000
3010
0200
0301
,
0020
0000
0230
0300
0002
0013
0002
0003
,
0002
0013
0200
0310
0002
1003
0002
0003
,
2000
3100
0200
0310
0002
0013
0002
0103
,
0002
0013
0200
1300
0200
0310
0002
0003
,
1001
0000
0101
0000
2002
0000
3103
0000
0101
0000
0010
0100
0010
0000
0100
0000
,
0101
0000
0010
0100
0010
0000
0100
0001
0101
0000
0010
0000
0010
0000
0100
0001
,
0101
0000
0110
0000
2002
0000
3103
0000
0101
0000
0010
0100
0010
0000
0100
0000
,
0101
0000
0010
0100
0010
0000
0100
0001
0101
0000
0010
0000
0010
0000
0100
0001
,
0101
0000
1001
0000
0220
0330
0001
0000
0220
0330
0001
0000
0220
0330
0001
0000
,
0220
0330
0001
0000
0220
0330
0001
0000
0220
0330
0001
0000
0220
0330
0001
0000
,
0220
0330
0001
0000
0220
1330
0001
0100
0010
1000
0001
0100
0010
1000
0001
0100
,
0010
1000
0001
0100
0010
1000
0001
0100
0010
1000
0001
0100
0010
1000
0001
0100
,
0010
0000
1000
0000
0001
0000
0100
0000
0010
0000
0000
0000
1000
0000
0000
0000
0010
0000
0000
0000
1000
0000
0000
0000
0010
0000
0100
0010
0200
0000
0301
0000
,
0010
0001
0000
0001
0010
0000
0100
1000
0100
0000
0010
0000
1000
0000
1100
0000
,
0010
0100
0001
0000
0100
0000
0010
0100
0000
0001
0100
1000
0100
0000
0001
0000
,
0100
1000
0100
1000
0200
0000
0300
0001
0010
0001
0010
0001
0010
0010
0010
0000
,
2002
3003
0000
0000
2002
3003
0000
0100
0000
0100
0010
0000
0010
0000
0110
0000
,
0100
0100
0100
0100
0100
0000
0220
0330
0010
0010
0010
0010
0010
0000
0110
0000
,
1000
0100
1000
0010
0100
0010
0100
0001
0010
0000
0100
0000
1000
0000
1100
0000
,
0001
0010
0100
1000
0100
0000
0100
0001
1000
0000
0010
0000
0200
0300
0101
0000
,
0020
0000
0030
0000
0220
0000
0330
0100
0000
0100
0010
0000
0220
0000
0330
0000
,
0200
0300
0100
0010
0100
0000
0100
0010
0000
0100
0010
0000
0001
0001
0001
0001
,
0001
1000
0100
0010
0100
0000
0100
0010
0001
0100
0001
0010
0100
1000
0100
0000
,
1000
0010
0000
1000
0010
0000
0100
0010
0000
0001
0010
0100
1000
1000
0100
0100
,
0010
0010
0000
0000
1000
0000
0010
0000
0110
0000
0100
0001
0100
0000
0001
0000
,
1000
0100
0000
0000
0001
0100
0001
0010
0001
0100
0010
0000
1100
0000
0001
0000
,
1000
0100
0000
0000
0001
0010
0100
0010
0001
0100
0010
1000
0200
0000
0310
0000
,
1000
0100
0000
0000
1000
0100
0000
0000
1000
0100
0000
0000
1000
0100
0000
0000
,
0002
0103
0002
0103
0002
0013
0200
0300
,
0020
1030
0020
0130
0002
1003
0200
0310
,
0020
1030
0200
1300
0200
0300
0020
0031
,
2000
3001
2000
3010
0200
0301
0020
0000
,
0230
0300
0002
0013
0002
0003
0002
0013
,
0200
0310
0002
1003
0002
0103
2000
0000
,
3200
0310
0002
0013
0002
0103
0002
0013
,
0200
1300
0200
0310
0002
0003
1001
0101
,
2002
0000
3103
0000
0101
0000
0010
0100
0010
0000
0100
0000
0101
0000
0010
0100
,
0010
0000
0100
0001
0101
0000
0010
0000
0010
0000
0100
0001
0101
0000
0110
0000
,
2002
0000
3103
0000
0101
0000
0010
0100
0010
0000
0100
0000
0101
0000
0010
0100
,
0010
0000
0100
0001
0101
0000
0010
0000
0010
0000
0100
0001
0101
0000
1001
0000
,
0220
0330
0001
0000
0220
0330
1000
0000
0220
0330
0001
0000
0220
0330
1000
0000
,
0220
0330
0001
0000
0220
0330
1000
0000
0220
0330
0001
0000
0220
0330
1000
0000
,
0220
1330
0001
0100
0010
1000
0001
0100
0010
1000
0001
0100
0010
1000
0001
0100
,
0010
1000
0001
0100
0010
1000
0001
0100
0010
1000
0001
0100
0010
1000
0001
0100
,
0020
0000
0030
0000
0020
0000
0030
0010
0000
0010
0100
0000
0020
0000
0030
0000
,
0010
0000
0010
0010
0010
0000
0010
0100
0000
0010
0100
0000
0020
0000
0030
0000
,
0020
0000
0030
0000
0020
0000
0030
0010
0000
0010
0100
0000
0020
0000
0030
0000
,
0010
0000
0010
0010
0010
0000
0010
0100
0000
0010
0100
0000
0020
0000
0030
0000
,
0002
0000
0003
0000
0002
0000
0003
0001
0000
0001
1000
0000
0002
0000
0003
0000
,
0001
0000
0001
0001
0001
0000
0001
1000
0000
0001
1000
0000
0002
0000
0003
0000
,
2000
0000
3000
0000
2000
0000
3000
1000
0000
1000
0001
0000
2000
0000
3000
0000
,
1000
0000
1000
1000
1000
0000
1000
0001
0000
1000
0002
0000
1013
0000
0110
0000
,
1002
0003
0102
0103
0102
0003
0012
0013
,
0012
0003
0002
0003
0002
0103
1002
0013
,
1002
0003
0102
0103
0102
0003
1002
0103
,
1002
0003
0102
0103
0102
0003
1002
0103
,
1002
0013
1002
0103
1002
0013
1002
0103
,
1002
0013
1002
0103
2010
3100
0102
0003
,
0010
0102
0000
0013
0100
0001
0011
0101
,
0000
0011
0101
0000
0011
0101
2001
3010
,
2001
3100
2001
3010
2001
3100
2001
3010
,
2001
3100
2001
3010
0102
0103
1002
0103
,
1002
0013
1002
0103
1002
0013
1002
0103
,
1002
0013
1002
0103
2010
3100
2001
3010
,
2001
3100
2001
3010
2001
3100
2001
3010
,
2001
3100
2001
3010
0102
0013
1002
0103
,
1002
0013
1002
0103
1002
0013
1002
0103
,
1002
0000
0013
0000
1002
0000
0103
0000
2020
3030
0220
0330
1002
0000
0103
0000
,
1002
0013
1002
0103
1002
0013
1002
0103
,
1002
0000
0013
0000
1002
0000
0103
0000
2020
3030
0220
0330
2001
0000
3010
0000
,
2001
3100
2001
3010
2001
3100
2001
3010
,
2001
0000
3100
0000
2001
0000
3010
0000
0202
0303
0220
0330
1002
0000
0103
0000
,
1002
0013
1002
0103
1002
0013
1002
0103
,
1002
0013
1002
0103
2010
3100
0012
0103
,
0010
0100
0102
0000
0013
0100
1001
0100
,
0210
0301
0220
0330
2002
0000
3003
0000
;

//---------------dance-single - Copied from----------------
#NOTEDATA:;
#CHARTNAME:Copied from;
#STEPSTYPE:dance-single;
#DESCRIPTION:Copied from;
#CHARTSTYLE:;
#DIFFICULTY:Medium;
#METER:9;
#RADARVALUES:0.657,0.789,0.545,1.000,0.105,669.000,124.000,254.000,0.000,0.000,0.000,0.000,0.000,0.657,0.789,0.545,1.000,0.105,669.000,124.000,254.000,0.000,0.000,0.000,0.000,0.000;
#CREDIT:Copied from;
#OFFSET:-0.020;
#BPMS:0.000=130.000
,35.000=260.280
,35.500=65.070
,35.750=130.140
,36.000=260.280
,36.500=65.070
,36.750=130.140
,37.000=260.280
,37.500=65.070
,37.750=130.140
,38.000=260.280
,38.500=65.070
,38.750=130.140
,39.000=260.280
,39.500=65.070
,39.750=130.140
,40.000=260.280
,40.500=65.070
,40.750=130.140
,41.000=260.280
,41.500=65.070
,41.750=130.140
,42.000=260.280
,42.500=65.070
,42.750=130.140
,43.000=260.280
,43.500=65.070
,43.750=130.140
,44.000=260.280
,44.500=65.070
,44.750=130.140
,45.000=260.280
,45.500=65.070
,45.750=130.140
,46.000=260.280
,46.500=65.070
,46.750=130.140
,47.000=260.280
,47.500=65.070
,47.750=130.140
,48.000=260.280
,48.500=65.070
,48.750=130.140
,49.000=260.280
,49.500=65.070
,49.750=130.140
,50.000=260.280
,50.500=65.070
,50.750=130.140
,51.000=260.280
,51.500=65.070
,51.750=130.140
,52.000=260.280
,52.500=65.070
,52.750=130.140
,53.000=260.280
,53.500=65.070
,53.750=130.140
,54.000=260.280
,54.500=65.070
,54.750=130.140
,55.000=260.280
,55.500=65.070
,55.750=130.140
,56.000=260.280
,56.500=65.070
,56.750=130.140
,57.000=260.280
,57.500=65.070
,57.750=130.140
,58.000=260.280
,58.500=65.070
,58.750=130.140
,59.000=260.280
,59.500=65.070
,59.750=130.140
,60.000=260.280
,60.500=65.070
,60.750=130.140
,61.000=260.280
,61.500=65.070
,61.750=130.140
,62.000=260.280
,62.500=65.070
,62.750=130.140
,63.000=260.280
,63.500=65.070
,63.750=130.140
,64.000=260.280
,64.500=65.070
,64.750=130.140
,65.000=260.280
,65.500=65.070
,65.750=130.140
,66.000=260.280
,66.500=65.070
,66.750=130.140
,97.000=65.070
,98.000=130.140
,142.500=260.280
,143.500=130.140
,225.000=260.280
,225.500=130.140
,226.000=260.280
,226.500=130.140
,227.000=65.070
,228.000=130.140
,237.000=260.280
,237.250=130.140
,239.000=260.280
,239.125=130.140
,239.250=260.280
,239.375=130.140
,239.500=260.280
,239.625=130.140
,244.000=260.280
,244.125=130.140
,244.250=260.280
,244.375=130.140
,244.500=260.280
,244.625=130.140
,244.750=260.280
,244.875=130.140
,246.000=260.280
,246.125=130.140
,246.250=260.280
,246.375=130.140
,246.500=260.280
,246.625=130.140
,246.750=260.280
,246.875=130.140
,263.000=260.280
,263.125=130.140
,263.250=260.280
,263.375=130.140
,263.500=260.280
,263.625=130.140
,263.750=260.280
,263.875=130.140
,269.750=260.280
,270.000=130.140
,284.250=260.280
,284.750=65.070
,285.000=130.140
,285.250=260.280
,285.750=65.070
,286.000=130.140
,286.250=260.280
,286.750=65.070
,287.000=130.140
,287.250=260.280
,287.750=65.070
,288.000=130.140
,367.000=260.280
,367.500=130.140
;
#STOPS:143.500=0.692
,225.500=0.115
,226.500=0.115
,237.250=0.058
,239.125=0.029
,239.375=0.029
,239.625=0.029
,244.125=0.029
,244.375=0.029
,244.625=0.029
,244.875=0.029
,246.125=0.029
,246.375=0.029
,246.625=0.029
,246.875=0.029
,263.125=0.029
,263.375=0.029
,263.625=0.029
,263.875=0.029
,270.000=0.058
,367.500=0.135
,398.500=0.461
;
#DELAYS:;
#WARPS:;
#TIMESIGNATURES:0.000=4=4
;
#TICKCOUNTS:0.000=4
;
#COMBOS:0.000=1
;
#SPEEDS:0.000=1.000=0.000=0
;
#SCROLLS:0.000=1.000
;
#FAKES:;
#LABELS:0.000=Song Start
;
#NOTES:
0000
0000
0000
0000
,
0000
0000
0000
0000
,
0000
0000
0000
0000
,
0000
0000
0000
0000
,
0000
0000
0000
0000
,
0000
0000
0000
0000
,
0000
0000
0000
0000
,
0000
0000
0000
0000
,
0000
0000
0000
0000
0000
0000
0002
0003
,
0202
0000
0000
0000
0000
0000
0000
0000
0000
0000
0000
0000
0000
0000
0000
0000
0000
0000
0000
0000
0000
0000
0000
0000
0303
0000
0000
0000
0000
0000
0000
0000
0000
0000
0000
0000
0000
0000
0000
0000
0000
0000
0000
0000
0000
0000
0000
0000
0002
0000
0000
0000
0000
0000
0000
0000
0000
0000
0000
0000
0000
0000
0000
0000
0000
0000
0000
0000
0000
0000
0000
0000
0003
0000
0000
0000
0000
0000
0000
0000
0000
0000
0000
0000
0000
0000
0000
0000
0000
0000
0000
0000
0000
0000
0000
0000
0022
0000
0000
0000
0000
0000
0000
0000
0000
0000
0000
0000
0000
0000
0000
0000
0000
0000
0000
0000
0000
0000
0000
0000
0000
0033
0000
0000
0000
0000
0000
0000
0000
0000
0000
0000
0000
0000
0000
0000
0000
0000
0000
0000
0000
0000
0000
0000
2000
0000
0000
0000
0000
0000
0000
0000
0000
0000
0000
0000
0000
0000
0000
0000
0000
0000
0000
0000
0000
0000
0000
0000
0000
3000
0000
0000
0000
0000
0000
0000
0000
0000
0000
0000
0000
0000
0000
0000
0000
0000
0000
0000
0000
0000
0000
0000
,
2020
0000
0000
0000
0000
0000
0000
0000
0000
0000
0000
0000
0000
0000
0000
0000
0000
0000
0000
0000
0000
0000
0000
0000
3030
0000
0000
0000
0000
0000
0000
0000
0000
0000
0000
0000
0000
0000
0000
0000
0000
0000
0000
0000
0000
0000
0000
0000
2000
0000
0000
0000
0000
0000
0000
0000
0000
0000
0000
0000
0000
0000
0000
0000
0000
0000
0000
0000
0000
0000
0000
0000
0000
3000
0000
0000
0000
0000
0000
0000
0000
0000
0000
0000
0000
0000
0000
0000
0000
0000
0000
0000
0000
0000
0000
0000
2200
0000
0000
0000
0000
0000
0000
0000
0000
0000
0000
0000
0000
0000
0000
0000
0000
0000
0000
0000
0000
0000
0000
0000
0000
3300
0000
0000
0000
0000
0000
0000
0000
0000
0000
0000
0000
0000
0000
0000
0000
0000
0000
0000
0000
0000
0000
0000
0002
0000
0000
0000
0000
0000
0000
0000
0000
0000
0000
0000
0000
0000
0000
0000
0000
0000
0000
0000
0000
0000
0000
0000
0000
0003
0000
0000
0000
0000
0000
0000
0000
0000
0000
0000
0000
0000
0000
0000
0000
0000
0000
0000
0000
0000
0000
0000
,
0202
0000
0000
0000
0000
0000
0000
0000
0000
0000
0000
0000
0000
0000
0000
0000
0000
0000
0000
0000
0000
0000
0000
0000
0000
0303
0000
0000
0000
0000
0000
0000
0000
0000
0000
0000
0000
0000
0000
0000
0000
0000
0000
0000
0000
0000
0000
0000
0002
0000
0000
0000
0000
0000
0000
0000
0000
0000
0000
0000
0000
0000
0000
0000
0000
0000
0000
0000
0000
0000
0000
0000
0000
0003
0000
0000
0000
0000
0000
0000
0000
0000
0000
0000
0000
0000
0000
0000
0000
0000
0000
0000
0000
0000
0000
0000
0022
0000
0000
0000
0000
0000
0000
0000
0000
0000
0000
0000
0000
0000
0000
0000
0000
0000
0000
0000
0000
0000
0000
0000
0033
0000
0000
0000
0000
0000
0000
0000
0000
0000
0000
0000
0000
0000
0000
0000
0000
0000
0000
0000
0000
0000
0000
0000
2000
0000
0000
0000
0000
0000
0000
0000
0000
0000
0000
0000
0000
0000
0000
0000
0000
0000
0000
0000
0000
0000
0000
0000
0000
3000
0000
0000
0000
0000
0000
0000
0000
0000
0000
0000
0000
0000
0000
0000
0000
0000
0000
0000
0000
0000
0000
0000
,
2020
0000
0000
0000
0000
0000
0000
0000
0000
0000
0000
0000
0000
0000
0000
0000
0000
0000
0000
0000
0000
0000
0000
0000
0000
3030
0000
0000
0000
0000
0000
0000
0000
0000
0000
0000
0000
0000
0000
0000
0000
0000
0000
0000
0000
0000
0000
0000
2000
0000
0000
0000
0000
0000
0000
0000
0000
0000
0000
0000
0000
0000
0000
0000
0000
0000
0000
0000
0000
0000
0000
0000
0000
3000
0000
0000
0000
0000
0000
0000
0000
0000
0000
0000
0000
0000
0000
0000
0000
0000
0000
0000
0000
0000
0000
0000
2200
0000
0000
0000
0000
0000
0000
0000
0000
0000
0000
0000
0000
0000
0000
0000
0000
0000
0000
0000
0000
0000
0000
0000
3300
0000
0000
0000
0000
0000
0000
0000
0000
0000
0000
0000
0000
0000
0000
0000
0000
0000
0000
0000
0000
0000
0000
0000
0002
0000
0000
0000
0000
0000
0000
0000
0000
0000
0000
0000
0000
0000
0000
0000
0000
0000
0000
0000
0000
0000
0000
0000
0000
0003
0000
0000
0000
0000
0000
0000
0000
0000
0000
0000
0000
0000
0000
0000
0000
0000
0000
0000
0000
0000
0000
0000
,
0202
0000
0000
0000
0000
0000
0000
0000
0000
0000
0000
0000
0000
0000
0000
0000
0000
0000
0000
0000
0000
0000
0000
0000
0000
0303
0000
0000
0000
0000
0000
0000
0000
0000
0000
0000
0000
0000
0000
0000
0000
0000
0000
0000
0000
0000
0000
0000
0002
0000
0000
0000
0000
0000
0000
0000
0000
0000
0000
0000
0000
0000
0000
0000
0000
0000
0000
0000
0000
0000
0000
0000
0000
0003
0000
0000
0000
0000
0000
0000
0000
0000
0000
0000
0000
0000
0000
0000
0000
0000
0000
0000
0000
0000
0000
0000
0022
0000
0000
0000
0000
0000
0000
0000
0000
0000
0000
0000
0000
0000
0000
0000
0000
0000
0000
0000
0000
0000
0000
0000
0000
0033
0000
0000
0000
0000
0000
0000
0000
0000
0000
0000
0000
0000
0000
0000
0000
0000
0000
0000
0000
0000
0000
0000
2000
0000
0000
0000
0000
0000
0000
0000
0000
0000
0000
0000
0000
0000
0000
0000
0000
0000
0000
0000
0000
0000
0000
0000
0000
3000
0000
0000
0000
0000
0000
0000
0000
0000
0000
0000
0000
0000
0000
0000
0000
0000
0000
0000
0000
0000
0000
0000
,
2020
0000
0000
0000
0000
0000
0000
0000
0000
0000
0000
0000
0000
0000
0000
0000
0000
0000
0000
0000
0000
0000
0000
0000
0000
3030
0000
0000
0000
0000
0000
0000
0000
0000
0000
0000
0000
0000
0000
0000
0000
0000
0000
0000
0000
0000
0000
0000
2000
0000
0000
0000
0000
0000
0000
0000
0000
0000
0000
0000
0000
0000
0000
0000
0000
0000
0000
0000
0000
0000
0000
0000
0000
3000
0000
0000
0000
0000
0000
0000
0000
0000
0000
0000
0000
0000
0000
0000
0000
0000
0000
0000
0000
0000
0000
0000
2200
0000
0000
0000
0000
0000
0000
0000
0000
0000
0000
0000
0000
0000
0000
0000
0000
0000
0000
0000
0000
0000
0000
0000
0000
3300
0000
0000
0000
0000
0000
0000
0000
0000
0000
0000
0000
0000
0000
0000
0000
0000
0000
0000
0000
0000
0000
0000
0002
0000
0000
0000
0000
0000
0000
0000
0000
0000
0000
0000
0000
0000
0000
0000
0000
0000
0000
0000
0000
0000
0000
0000
0000
0003
0000
0000
0000
0000
0000
0000
0000
0000
0000
0000
0000
0000
0000
0000
0000
0000
0000
0000
0000
0000
0000
0000
,
0202
0000
0000
0000
0000
0000
0000
0000
0000
0000
0000
0000
0000
0000
0000
0000
0000
0000
0000
0000
0000
0000
0000
0000
0000
0303
0000
0000
0000
0000
0000
0000
0000
0000
0000
0000
0000
0000
0000
0000
0000
0000
0000
0000
0000
0000
0000
0000
0002
0000
0000
0000
0000
0000
0000
0000
0000
0000
0000
0000
0000
0000
0000
0000
0000
0000
0000
0000
0000
0000
0000
0000
0000
0003
0000
0000
0000
0000
0000
0000
0000
0000
0000
0000
0000
0000
0000
0000
0000
0000
0000
0000
0000
0000
0000
0000
0022
0000
0000
0000
0000
0000
0000
0000
0000
0000
0000
0000
0000
0000
0000
0000
0000
0000
0000
0000
0000
0000
0000
0000
0000
0033
0000
0000
0000
0000
0000
0000
0000
0000
0000
0000
0000
0000
0000
0000
0000
0000
0000
0000
0000
0000
0000
0000
2000
0000
0000
0000
0000
0000
0000
0000
0000
0000
0000
0000
0000
0000
0000
0000
0000
0000
0000
0000
0000
0000
0000
0000
0000
3000
0000
0000
0000
0000
0000
0000
0000
0000
0000
0000
0000
0000
0000
0000
0000
0000
0000
0000
0000
0000
0000
0000
,
2020
0000
0000
0000
0000
0000
0000
0000
0000
0000
0000
0000
0000
0000
0000
0000
0000
0000
0000
0000
0000
0000
0000
0000
0000
3030
0000
0000
0000
0000
0000
0000
0000
0000
0000
0000
0000
0000
0000
0000
0000
0000
0000
0000
0000
0000
0000
0000
2000
0000
0000
0000
0000
0000
0000
0000
0000
0000
0000
0000
0000
0000
0000
0000
0000
0000
0000
0000
0000
0000
0000
0000
0000
3000
0000
0000
0000
0000
0000
0000
0000
0000
0000
0000
0000
0000
0000
0000
0000
0000
0000
0000
0000
0000
0000
0000
2100
0000
0000
0000
0000
0000
0000
0000
0000
0000
0000
0000
0000
0000
0000
0000
0000
0000
0000
0000
0000
0000
0000
0000
0000
3000
0000
0000
0000
0000
0100
0000
0000
0000
0000
0000
0000
0000
0000
0000
0000
0000
0000
0000
0000
0000
0000
0000
0001
0000
0000
0000
0000
0000
0000
0000
0000
0000
0000
0000
0000
0000
0000
0000
0000
0000
0000
0000
0000
0000
0000
0000
0000
0000
0000
0000
0000
0000
0000
0000
0000
0000
0000
0000
0000
0000
0000
0000
0000
0000
0000
0000
0000
0000
0000
0000
,
0001
0100
0001
0000
0001
0100
0001
0000
,
0001
0100
0001
0000
0001
0100
0001
0000
,
0001
0100
0001
0000
0001
0100
0001
0000
,
0001
0100
0001
0000
0001
0100
0001
0000
,
0001
0100
0001
0000
0001
0100
0001
0000
,
0001
0100
0001
0000
0001
0100
0001
1000
,
0010
0100
0020
0000
0130
0001
0002
0023
,
0230
0000
0000
0000
2300
0000
0000
0000
0000
0000
0000
0000
0000
0000
3000
0200
0000
0000
0300
0000
0001
0000
0100
0000
0001
0000
0000
0000
0010
0000
0000
0000
,
0001
1000
0100
0010
0001
0100
0001
0010
,
0100
0000
2000
0000
3002
0000
0023
0000
0030
0000
0010
0000
0001
0000
0000
0011
,
0000
0000
0001
0000
0100
0000
0000
0101
0000
0000
0010
0000
0001
0000
0100
0000
,
0001
0000
0020
0000
0230
0000
2300
0000
3000
0000
0100
0000
1000
0000
0000
1100
,
0000
0000
1000
0000
0010
0000
0000
1010
0000
0000
0100
0000
1000
0000
0010
0000
,
1000
0200
0320
0032
0003
0010
0101
0000
,
0010
0000
1000
0000
0001
0000
1000
0000
0001
0000
0010
0000
0001
0000
0010
0100
,
1000
0010
0002
0023
0032
1003
0100
1000
,
0010
0000
0100
0000
0002
0000
0003
0010
0000
0000
1000
0000
0010
0000
1000
0000
,
0100
0000
0010
0000
0200
0000
0300
0100
0000
0000
0001
0000
0100
0000
0001
0100
,
0001
2000
3002
0103
0100
0020
0000
0030
,
0001
0010
0200
0300
0100
0000
0001
0000
1000
0000
0100
0000
0010
0000
0000
0000
,
0011
0000
0000
0100
0000
0000
0010
0000
1010
0000
0000
0001
0000
0000
0100
0000
,
0101
0000
0000
1000
0000
0000
0100
0000
1010
0000
0000
0100
0000
0000
0001
0000
,
0012
0000
0003
0100
0000
0000
0010
0000
0110
0000
1000
0000
0010
0000
0100
0010
,
2000
0000
0000
0000
0000
0000
0000
0000
3000
0000
0000
0000
0000
0100
0000
0000
0000
0001
0000
0000
0000
0100
0000
0000
0000
0001
0000
0000
0000
0010
0000
0000
,
0000
0001
0000
0000
0000
0000
0000
0000
0010
0000
0000
0000
1000
0000
0000
0000
0010
0000
0000
0000
0100
0000
0000
0000
0020
0000
0000
0000
0000
0000
0000
0000
,
0230
0000
0300
0010
0010
1000
0200
0300
,
0000
0001
0001
0100
1000
0100
0000
0001
,
0200
0000
0300
0000
0001
0010
0001
0000
,
0000
0010
0010
0100
0001
1000
0000
0000
,
1000
0200
0000
0310
0010
0001
0010
0001
,
0000
0010
0100
0100
1000
0100
0000
0000
,
0001
0100
1002
0000
0103
0001
0201
0000
,
0000
0000
0320
0230
2300
3200
2300
0000
,
3001
0100
1002
0000
0103
0001
0201
0000
,
0000
0000
0302
0023
0230
2300
3200
0300
,
0001
0100
1002
0000
0103
0001
0201
0000
,
0000
0000
0000
0000
0020
0300
0230
0000
2300
0000
3200
0000
0320
0000
0030
0000
,
0220
0330
0000
0000
0220
0330
0001
0000
1000
0000
0001
0000
1002
0000
0000
0000
,
0103
0010
1000
0010
0100
0001
0012
0000
,
0003
0000
0000
0000
0000
0000
0000
0000
0010
0000
0000
0000
1000
0000
0000
0000
0010
0000
0000
0000
1000
0000
0000
0000
0010
0000
0100
0010
0200
0000
0301
0000
,
0010
0001
0100
0001
0100
0010
1000
1000
,
0010
0100
0001
0000
0100
0000
0010
0000
0001
0000
0100
0000
0001
0000
0001
0000
,
0100
0000
0100
0000
0200
0000
0300
0000
0010
0000
0010
0000
0010
0100
0010
0000
,
2000
3000
0000
0000
2002
3003
0000
0000
0100
0000
0010
0000
0010
0000
0110
0000
,
0200
0000
0000
0300
0100
0000
0220
0330
0020
0000
0000
0030
0010
0000
0110
0000
,
1000
0100
1000
0010
0100
0001
1000
1000
,
0001
0000
0100
0000
0100
0000
0010
0000
0001
0000
0010
0000
0200
0300
0100
0000
,
0020
0030
0020
0030
0100
0010
0020
0030
,
0100
0000
0100
0010
0100
0000
0100
0000
0010
0000
0100
0000
0002
0000
0000
0003
,
0001
0100
0001
0000
0010
0000
0100
0000
0001
0000
1000
0000
0100
0000
0010
0000
,
0000
0010
0010
0100
0001
0010
1000
0100
,
0010
0001
0000
0000
1000
0000
0010
0000
0100
0000
0001
0000
0100
0000
0001
0000
,
1000
0100
0000
0000
0001
0000
0010
0000
0001
0000
0010
0000
0100
0000
1000
0000
,
1000
0100
0000
0000
0001
0000
0100
0000
0001
0000
0010
0000
0200
0000
0310
0000
,
1000
0100
0000
0000
1000
0100
0000
0000
1000
0100
0000
0000
1000
0100
0000
0000
,
0000
0000
0000
0000
0000
0100
0000
0000
0000
0001
0000
0000
0000
0100
0000
0000
0000
0001
0000
0000
0000
0010
0000
0000
0000
0001
0000
0000
0000
0000
0000
0000
,
0010
1000
0010
0100
0020
0000
0230
0000
,
0300
0010
0010
1000
0200
0300
0000
0001
,
0001
0100
1000
0100
0000
0001
0200
0000
,
0300
0000
0001
0010
0001
0000
0000
0010
,
0010
0100
0001
1000
0000
0100
2000
0000
,
3000
0010
0010
0001
0010
0001
0000
0010
,
0100
0100
1000
0100
0000
0000
0001
0100
,
1002
0000
0103
0001
0201
0000
0000
0000
,
0320
0230
2300
3200
2300
0000
3001
0100
,
1002
0000
0103
0001
0201
0000
0000
0000
,
0302
0023
0230
2300
3200
0300
0001
0100
,
1002
0000
0103
0001
0201
0000
0000
0000
,
0020
0300
0230
0000
2300
0000
3200
0000
0320
0000
0030
0000
0220
0330
0000
0000
,
0220
0330
0001
0000
1000
0000
0001
0000
1002
0000
0000
0000
0103
0000
0010
0000
,
1000
0010
0100
0001
0012
0000
0003
0000
,
0020
0030
0020
0030
0100
0010
0020
0030
,
0100
0000
0100
0010
0100
0000
0100
0000
0010
0000
0100
0000
0020
0000
0030
0000
,
0020
0030
0020
0030
0100
0010
0020
0030
,
0100
0000
0100
0010
0100
0000
0100
0000
0010
0000
0100
0000
0020
0000
0030
0000
,
0002
0003
0002
0003
1000
0001
0002
0003
,
1000
0000
1000
0001
1000
0000
1000
0000
0001
0000
1000
0000
0002
0000
0003
0000
,
0002
0003
0002
0003
1000
0001
0002
0003
,
1000
0000
1000
0001
1000
0000
1000
0000
0001
0000
1000
0000
0001
0000
0100
0000
,
1002
0003
0100
0000
0102
0003
0002
0003
,
0012
0003
0002
0003
0002
0103
0002
0013
,
1002
0003
0002
0003
0102
0003
0002
0003
,
1002
0003
0002
0003
0102
0003
1002
0003
,
1002
0003
1002
0003
1002
0003
1002
0003
,
1002
0003
1002
0003
2010
3100
0002
0003
,
0010
0002
0000
0013
0100
0001
0010
0101
,
0000
0010
0101
0000
0010
0101
2001
3010
,
2001
3000
2001
3000
2100
3000
2001
3000
,
2100
3000
2001
3000
0102
0003
1002
0103
,
1002
0003
0012
0003
1002
0003
0012
0003
,
1002
0003
0012
0003
2010
3000
2001
3010
,
2001
3000
2100
3000
2001
3000
2100
3000
,
2001
3000
2100
3000
0102
0003
1002
0103
,
1002
0003
0012
0003
1002
0003
0012
0003
,
1002
0000
0003
0000
0012
0000
0003
0000
2000
3000
0200
0300
1002
0000
0003
0000
,
0102
0003
1002
0003
0012
0003
1002
0003
,
0102
0000
0003
0000
1002
0000
0003
0000
0001
0000
0200
0300
2001
0000
3000
0000
,
2100
3000
2001
3000
2010
3000
2001
3000
,
2100
0000
3000
0000
2001
0000
3010
0000
0200
0300
0200
0300
1002
0000
0103
0000
,
1002
0013
1002
0103
1002
0013
1002
0103
,
1002
0013
1002
0103
2001
3100
0010
0100
,
0010
0100
0002
0000
0013
0100
1000
0100
,
0010
0001
0220
0330
2002
0000
3003
0000
;

//---------------dance-single - Copied from Copied f----------------
#NOTEDATA:;
#CHARTNAME:Copied from Copied f;
#STEPSTYPE:dance-single;
#DESCRIPTION:Copied from Copied f;
#CHARTSTYLE:;
#DIFFICULTY:Easy;
#METER:7;
#RADARVALUES:0.496,0.605,0.316,0.971,0.051,497.000,72.000,221.000,0.000,0.000,0.000,0.000,0.000,0.496,0.605,0.316,0.971,0.051,497.000,72.000,221.000,0.000,0.000,0.000,0.000,0.000;
#CREDIT:Copied from Copied f;
#OFFSET:-0.020;
#BPMS:0.000=130.000
,35.000=260.280
,35.500=65.070
,35.750=130.140
,36.000=260.280
,36.500=65.070
,36.750=130.140
,37.000=260.280
,37.500=65.070
,37.750=130.140
,38.000=260.280
,38.500=65.070
,38.750=130.140
,39.000=260.280
,39.500=65.070
,39.750=130.140
,40.000=260.280
,40.500=65.070
,40.750=130.140
,41.000=260.280
,41.500=65.070
,41.750=130.140
,42.000=260.280
,42.500=65.070
,42.750=130.140
,43.000=260.280
,43.500=65.070
,43.750=130.140
,44.000=260.280
,44.500=65.070
,44.750=130.140
,45.000=260.280
,45.500=65.070
,45.750=130.140
,46.000=260.280
,46.500=65.070
,46.750=130.140
,47.000=260.280
,47.500=65.070
,47.750=130.140
,48.000=260.280
,48.500=65.070
,48.750=130.140
,49.000=260.280
,49.500=65.070
,49.750=130.140
,50.000=260.280
,50.500=65.070
,50.750=130.140
,51.000=260.280
,51.500=65.070
,51.750=130.140
,52.000=260.280
,52.500=65.070
,52.750=130.140
,53.000=260.280
,53.500=65.070
,53.750=130.140
,54.000=260.280
,54.500=65.070
,54.750=130.140
,55.000=260.280
,55.500=65.070
,55.750=130.140
,56.000=260.280
,56.500=65.070
,56.750=130.140
,57.000=260.280
,57.500=65.070
,57.750=130.140
,58.000=260.280
,58.500=65.070
,58.750=130.140
,59.000=260.280
,59.500=65.070
,59.750=130.140
,60.000=260.280
,60.500=65.070
,60.750=130.140
,61.000=260.280
,61.500=65.070
,61.750=130.140
,62.000=260.280
,62.500=65.070
,62.750=130.140
,63.000=260.280
,63.500=65.070
,63.750=130.140
,64.000=260.280
,64.500=65.070
,64.750=130.140
,65.000=260.280
,65.500=65.070
,65.750=130.140
,66.000=260.280
,66.500=65.070
,66.750=130.140
,97.000=65.070
,98.000=130.140
,142.500=260.280
,143.500=130.140
,225.000=260.280
,225.500=130.140
,226.000=260.280
,226.500=130.140
,227.000=65.070
,228.000=130.140
,237.000=260.280
,237.250=130.140
,239.000=260.280
,239.125=130.140
,239.250=260.280
,239.375=130.140
,239.500=260.280
,239.625=130.140
,244.000=260.280
,244.125=130.140
,244.250=260.280
,244.375=130.140
,244.500=260.280
,244.625=130.140
,244.750=260.280
,244.875=130.140
,246.000=260.280
,246.125=130.140
,246.250=260.280
,246.375=130.140
,246.500=260.280
,246.625=130.140
,246.750=260.280
,246.875=130.140
,263.000=260.280
,263.125=130.140
,263.250=260.280
,263.375=130.140
,263.500=260.280
,263.625=130.140
,263.750=260.280
,263.875=130.140
,269.750=260.280
,270.000=130.140
,284.250=260.280
,284.750=65.070
,285.000=130.140
,285.250=260.280
,285.750=65.070
,286.000=130.140
,286.250=260.280
,286.750=65.070
,287.000=130.140
,287.250=260.280
,287.750=65.070
,288.000=130.140
,367.000=260.280
,367.500=130.140
;
#STOPS:143.500=0.692
,225.500=0.115
,226.500=0.115
,237.250=0.058
,239.125=0.029
,239.375=0.029
,239.625=0.029
,244.125=0.029
,244.375=0.029
,244.625=0.029
,244.875=0.029
,246.125=0.029
,246.375=0.029
,246.625=0.029
,246.875=0.029
,263.125=0.029
,263.375=0.029
,263.625=0.029
,263.875=0.029
,270.000=0.058
,367.500=0.135
,398.500=0.461
;
#DELAYS:;
#WARPS:;
#TIMESIGNATURES:0.000=4=4
;
#TICKCOUNTS:0.000=4
;
#COMBOS:0.000=1
;
#SPEEDS:0.000=1.000=0.000=0
;
#SCROLLS:0.000=1.000
;
#FAKES:;
#LABELS:0.000=Song Start
;
#NOTES:
// measure 0
0000
0000
0000
0000
,  // measure 1
0000
0000
0000
0000
,  // measure 2
0000
0000
0000
0000
,  // measure 3
0000
0000
0000
0000
,  // measure 4
0000
0000
0000
0000
,  // measure 5
0000
0000
0000
0000
,  // measure 6
0000
0000
0000
0000
,  // measure 7
0000
0000
0000
0000
,  // measure 8
0000
0000
0000
0000
0000
0000
0002
0003
,  // measure 9
0002
0000
0000
0000
0000
0000
0000
0000
0000
0000
0000
0000
0000
0000
0000
0000
0000
0000
0000
0000
0000
0000
0000
0000
0003
0000
0000
0000
0000
0000
0000
0000
0000
0000
0000
0000
0000
0000
0000
0000
0000
0000
0000
0000
0000
0000
0000
0000
0020
0000
0000
0000
0000
0000
0000
0000
0000
0000
0000
0000
0000
0000
0000
0000
0000
0000
0000
0000
0000
0000
0000
0000
0030
0000
0000
0000
0000
0000
0000
0000
0000
0000
0000
0000
0000
0000
0000
0000
0000
0000
0000
0000
0000
0000
0000
0000
0020
0000
0000
0000
0000
0000
0000
0000
0000
0000
0000
0000
0000
0000
0000
0000
0000
0000
0000
0000
0000
0000
0000
0000
0030
0000
0000
0000
0000
0000
0000
0000
0000
0000
0000
0000
0000
0000
0000
0000
0000
0000
0000
0000
0000
0000
0000
0000
2000
0000
0000
0000
0000
0000
0000
0000
0000
0000
0000
0000
0000
0000
0000
0000
0000
0000
0000
0000
0000
0000
0000
0000
0000
3000
0000
0000
0000
0000
0000
0000
0000
0000
0000
0000
0000
0000
0000
0000
0000
0000
0000
0000
0000
0000
0000
0000
,  // measure 10
2000
0000
0000
0000
0000
0000
0000
0000
0000
0000
0000
0000
0000
0000
0000
0000
0000
0000
0000
0000
0000
0000
0000
0000
3000
0000
0000
0000
0000
0000
0000
0000
0000
0000
0000
0000
0000
0000
0000
0000
0000
0000
0000
0000
0000
0000
0000
0000
0200
0000
0000
0000
0000
0000
0000
0000
0000
0000
0000
0000
0000
0000
0000
0000
0000
0000
0000
0000
0000
0000
0000
0000
0300
0000
0000
0000
0000
0000
0000
0000
0000
0000
0000
0000
0000
0000
0000
0000
0000
0000
0000
0000
0000
0000
0000
0000
0200
0000
0000
0000
0000
0000
0000
0000
0000
0000
0000
0000
0000
0000
0000
0000
0000
0000
0000
0000
0000
0000
0000
0000
0000
0300
0000
0000
0000
0000
0000
0000
0000
0000
0000
0000
0000
0000
0000
0000
0000
0000
0000
0000
0000
0000
0000
0000
0002
0000
0000
0000
0000
0000
0000
0000
0000
0000
0000
0000
0000
0000
0000
0000
0000
0000
0000
0000
0000
0000
0000
0000
0003
0000
0000
0000
0000
0000
0000
0000
0000
0000
0000
0000
0000
0000
0000
0000
0000
0000
0000
0000
0000
0000
0000
0000
,  // measure 11
0002
0000
0000
0000
0000
0000
0000
0000
0000
0000
0000
0000
0000
0000
0000
0000
0000
0000
0000
0000
0000
0000
0000
0000
0003
0000
0000
0000
0000
0000
0000
0000
0000
0000
0000
0000
0000
0000
0000
0000
0000
0000
0000
0000
0000
0000
0000
0000
0020
0000
0000
0000
0000
0000
0000
0000
0000
0000
0000
0000
0000
0000
0000
0000
0000
0000
0000
0000
0000
0000
0000
0000
0030
0000
0000
0000
0000
0000
0000
0000
0000
0000
0000
0000
0000
0000
0000
0000
0000
0000
0000
0000
0000
0000
0000
0000
0020
0000
0000
0000
0000
0000
0000
0000
0000
0000
0000
0000
0000
0000
0000
0000
0000
0000
0000
0000
0000
0000
0000
0000
0030
0000
0000
0000
0000
0000
0000
0000
0000
0000
0000
0000
0000
0000
0000
0000
0000
0000
0000
0000
0000
0000
0000
0000
2000
0000
0000
0000
0000
0000
0000
0000
0000
0000
0000
0000
0000
0000
0000
0000
0000
0000
0000
0000
0000
0000
0000
0000
0000
3000
0000
0000
0000
0000
0000
0000
0000
0000
0000
0000
0000
0000
0000
0000
0000
0000
0000
0000
0000
0000
0000
0000
,  // measure 12
2000
0000
0000
0000
0000
0000
0000
0000
0000
0000
0000
0000
0000
0000
0000
0000
0000
0000
0000
0000
0000
0000
0000
0000
3000
0000
0000
0000
0000
0000
0000
0000
0000
0000
0000
0000
0000
0000
0000
0000
0000
0000
0000
0000
0000
0000
0000
0000
0200
0000
0000
0000
0000
0000
0000
0000
0000
0000
0000
0000
0000
0000
0000
0000
0000
0000
0000
0000
0000
0000
0000
0000
0300
0000
0000
0000
0000
0000
0000
0000
0000
0000
0000
0000
0000
0000
0000
0000
0000
0000
0000
0000
0000
0000
0000
0000
0200
0000
0000
0000
0000
0000
0000
0000
0000
0000
0000
0000
0000
0000
0000
0000
0000
0000
0000
0000
0000
0000
0000
0000
0000
0300
0000
0000
0000
0000
0000
0000
0000
0000
0000
0000
0000
0000
0000
0000
0000
0000
0000
0000
0000
0000
0000
0000
0002
0000
0000
0000
0000
0000
0000
0000
0000
0000
0000
0000
0000
0000
0000
0000
0000
0000
0000
0000
0000
0000
0000
0000
0003
0000
0000
0000
0000
0000
0000
0000
0000
0000
0000
0000
0000
0000
0000
0000
0000
0000
0000
0000
0000
0000
0000
0000
,  // measure 13
0002
0000
0000
0000
0000
0000
0000
0000
0000
0000
0000
0000
0000
0000
0000
0000
0000
0000
0000
0000
0000
0000
0000
0000
0003
0000
0000
0000
0000
0000
0000
0000
0000
0000
0000
0000
0000
0000
0000
0000
0000
0000
0000
0000
0000
0000
0000
0000
0020
0000
0000
0000
0000
0000
0000
0000
0000
0000
0000
0000
0000
0000
0000
0000
0000
0000
0000
0000
0000
0000
0000
0000
0030
0000
0000
0000
0000
0000
0000
0000
0000
0000
0000
0000
0000
0000
0000
0000
0000
0000
0000
0000
0000
0000
0000
0000
0020
0000
0000
0000
0000
0000
0000
0000
0000
0000
0000
0000
0000
0000
0000
0000
0000
0000
0000
0000
0000
0000
0000
0000
0030
0000
0000
0000
0000
0000
0000
0000
0000
0000
0000
0000
0000
0000
0000
0000
0000
0000
0000
0000
0000
0000
0000
0000
2000
0000
0000
0000
0000
0000
0000
0000
0000
0000
0000
0000
0000
0000
0000
0000
0000
0000
0000
0000
0000
0000
0000
0000
0000
3000
0000
0000
0000
0000
0000
0000
0000
0000
0000
0000
0000
0000
0000
0000
0000
0000
0000
0000
0000
0000
0000
0000
,  // measure 14
2000
0000
0000
0000
0000
0000
0000
0000
0000
0000
0000
0000
0000
0000
0000
0000
0000
0000
0000
0000
0000
0000
0000
0000
3000
0000
0000
0000
0000
0000
0000
0000
0000
0000
0000
0000
0000
0000
0000
0000
0000
0000
0000
0000
0000
0000
0000
0000
0200
0000
0000
0000
0000
0000
0000
0000
0000
0000
0000
0000
0000
0000
0000
0000
0000
0000
0000
0000
0000
0000
0000
0000
0300
0000
0000
0000
0000
0000
0000
0000
0000
0000
0000
0000
0000
0000
0000
0000
0000
0000
0000
0000
0000
0000
0000
0000
0200
0000
0000
0000
0000
0000
0000
0000
0000
0000
0000
0000
0000
0000
0000
0000
0000
0000
0000
0000
0000
0000
0000
0000
0000
0300
0000
0000
0000
0000
0000
0000
0000
0000
0000
0000
0000
0000
0000
0000
0000
0000
0000
0000
0000
0000
0000
0000
0002
0000
0000
0000
0000
0000
0000
0000
0000
0000
0000
0000
0000
0000
0000
0000
0000
0000
0000
0000
0000
0000
0000
0000
0003
0000
0000
0000
0000
0000
0000
0000
0000
0000
0000
0000
0000
0000
0000
0000
0000
0000
0000
0000
0000
0000
0000
0000
,  // measure 15
0002
0000
0000
0000
0000
0000
0000
0000
0000
0000
0000
0000
0000
0000
0000
0000
0000
0000
0000
0000
0000
0000
0000
0000
0003
0000
0000
0000
0000
0000
0000
0000
0000
0000
0000
0000
0000
0000
0000
0000
0000
0000
0000
0000
0000
0000
0000
0000
0020
0000
0000
0000
0000
0000
0000
0000
0000
0000
0000
0000
0000
0000
0000
0000
0000
0000
0000
0000
0000
0000
0000
0000
0030
0000
0000
0000
0000
0000
0000
0000
0000
0000
0000
0000
0000
0000
0000
0000
0000
0000
0000
0000
0000
0000
0000
0000
0020
0000
0000
0000
0000
0000
0000
0000
0000
0000
0000
0000
0000
0000
0000
0000
0000
0000
0000
0000
0000
0000
0000
0000
0030
0000
0000
0000
0000
0000
0000
0000
0000
0000
0000
0000
0000
0000
0000
0000
0000
0000
0000
0000
0000
0000
0000
0000
2000
0000
0000
0000
0000
0000
0000
0000
0000
0000
0000
0000
0000
0000
0000
0000
0000
0000
0000
0000
0000
0000
0000
0000
0000
3000
0000
0000
0000
0000
0000
0000
0000
0000
0000
0000
0000
0000
0000
0000
0000
0000
0000
0000
0000
0000
0000
0000
,  // measure 16
2000
0000
0000
0000
0000
0000
0000
0000
0000
0000
0000
0000
0000
0000
0000
0000
0000
0000
0000
0000
0000
0000
0000
0000
3000
0000
0000
0000
0000
0000
0000
0000
0000
0000
0000
0000
0000
0000
0000
0000
0000
0000
0000
0000
0000
0000
0000
0000
0200
0000
0000
0000
0000
0000
0000
0000
0000
0000
0000
0000
0000
0000
0000
0000
0000
0000
0000
0000
0000
0000
0000
0000
0300
0000
0000
0000
0000
0000
0000
0000
0000
0000
0000
0000
0000
0000
0000
0000
0000
0000
0000
0000
0000
0000
0000
0000
0200
0000
0000
0000
0000
0000
0000
0000
0000
0000
0000
0000
0000
0000
0000
0000
0000
0000
0000
0000
0000
0000
0000
0000
0000
0300
0000
0000
0000
0000
0000
0000
0000
0000
0000
0000
0000
0000
0000
0000
0000
0000
0000
0000
0000
0000
0000
0000
0000
0000
0000
0000
0000
0000
0000
0000
0000
0000
0000
0000
0000
0000
0000
0000
0000
0000
0000
0000
0000
0000
0000
0000
0000
0000
0000
0000
0000
0000
0000
0000
0000
0000
0000
0000
0000
0000
0000
0000
0000
0000
0000
0000
0000
0000
0000
0000
,  // measure 17
0101
0001
0101
0001
,  // measure 18
0101
0001
0101
0001
,  // measure 19
0101
0001
0101
0001
,  // measure 20
0101
0001
0101
0001
,  // measure 21
0101
0001
0101
0001
,  // measure 22
0101
0001
0101
0001
,  // measure 23
0010
0100
0020
0000
0130
0000
0002
0003
,  // measure 24
0200
0000
0000
0000
2300
0000
0000
0000
0000
0000
0000
0000
0000
0000
3000
0200
0001
0000
0300
0000
0000
0000
0000
0000
0011
0000
0000
0000
0000
0000
0000
0000
,  // measure 25
0001
0101
0001
0011
,  // measure 26
2000
0000
3000
0000
0200
0000
0300
0000
0000
0000
0000
0000
0001
0000
0000
0001
,  // measure 27
0000
0000
0001
0000
0100
0000
0000
0100
0000
0000
0100
0000
0001
0000
0000
0000
,  // measure 28
0002
0000
0003
0000
0200
0000
0300
0000
0000
0000
0000
0000
1000
0000
0000
1000
,  // measure 29
0000
0000
1000
0000
0010
0000
0000
0010
0000
0000
0010
0000
1000
0000
0000
0000
,  // measure 30
2000
3000
0020
0030
0000
0000
0101
0000
,  // measure 31
0010
0000
1001
0000
0100
0000
0001
0100
,  // measure 32
1000
0000
0012
0003
0002
0003
0100
1000
,  // measure 33
0100
0000
0000
0000
2000
0000
3000
0010
0000
0000
0000
0000
0100
0000
1000
0000
,  // measure 34
0100
0000
0000
0000
0200
0000
0300
0100
0000
0000
0000
0000
0001
0000
0100
0000
,  // measure 35
0001
0000
0002
0003
0100
0020
0000
0030
,  // measure 36
0001
0000
0200
0300
0001
0000
0000
0000
1010
0000
0000
0000
0010
0000
0000
0000
,  // measure 37
0011
0000
0100
0010
1000
0000
0001
0100
,  // measure 38
0001
0000
1000
0100
1000
0000
0010
0001
,  // measure 39
0010
0000
0100
0010
0100
0000
0010
0100
,  // measure 40
2000
0000
0000
0000
0000
0000
0000
0000
3000
0000
0000
0000
0000
0100
0000
0000
0000
0001
0000
0000
0000
0000
0000
0000
0000
0001
0000
0000
0000
0000
0000
0000
,  // measure 41
0000
0001
0000
0000
0000
0000
0000
0000
0010
0000
0000
0000
1000
0000
0000
0000
0010
0000
0000
0000
0000
0000
0000
0000
0020
0000
0000
0000
0000
0000
0000
0000
,  // measure 42
0230
0000
0300
0000
0010
1000
0200
0300
,  // measure 43
0000
0000
0001
0000
1000
0100
0000
0000
,  // measure 44
0200
0000
0300
0000
0001
0010
0001
0000
,  // measure 45
0000
0010
0100
0000
0001
1000
0000
0000
,  // measure 46
2000
0000
0000
3010
0100
0000
0010
0100
,  // measure 47
0000
0001
0010
0000
0001
0010
0000
0000
,  // measure 48
0001
0100
0002
0000
0103
0000
0200
0000
,  // measure 49
0000
0000
0320
0230
2300
3000
2000
0000
,  // measure 50
3001
0002
0103
0200
,  // measure 51
0000
0000
0302
0023
0230
0300
0200
0300
,  // measure 52
0001
0002
0103
0200
,  // measure 53
0000
0000
0000
0000
0020
0300
0230
0000
2300
0000
3000
0000
0020
0000
0030
0000
,  // measure 54
0200
0300
0000
0000
0200
0300
0000
0000
1000
0000
0001
0000
0002
0000
0000
0000
,  // measure 55
0103
0000
1000
0000
0100
0001
0002
0000
,  // measure 56
0003
0000
0000
0000
0010
0000
1000
0000
0010
0000
1000
0000
0010
0100
0200
0301
,  // measure 57
0010
0101
0100
1000
,  // measure 58
0010
0001
0100
0000
0001
0000
0011
0000
,  // measure 59
0200
0300
0210
0300
0010
0000
0220
0330
,  // measure 60
2000
3000
0000
0000
2002
3003
0000
0000
0100
0000
0000
0000
0010
0000
0100
0000
,  // measure 61
0200
0000
0000
0300
0100
0000
0020
0030
0020
0000
0000
0030
0010
0000
0100
0000
,  // measure 62
1000
1010
0100
1010
,  // measure 63
0001
0000
0000
0000
0101
0000
0000
0000
0001
0000
0000
0000
0201
0300
0000
0000
,  // measure 64
0020
0030
0020
0030
0100
0000
0020
0030
,  // measure 65
0100
0000
0100
0000
0100
0000
0000
0000
0010
0000
0100
0000
0002
0000
0000
0003
,  // measure 66
0001
0100
0010
0000
0001
0000
0110
0000
,  // measure 67
1000
0101
0001
1100
,  // measure 68
0010
0001
1000
0000
0100
0000
0101
0000
,  // measure 69
1000
0100
0000
0000
0001
0000
0000
0000
0011
0000
0000
0000
0100
0000
0000
0000
,  // measure 70
1000
0100
0000
0000
0001
0000
0000
0000
0011
0000
0000
0000
0200
0000
0300
0000
,  // measure 71
1000
0100
0000
0000
1000
0100
0000
0000
1000
0100
0000
0000
1000
0100
0000
0000
,  // measure 72
0000
0000
0000
0000
0000
0100
0000
0000
0000
0001
0000
0000
0000
0000
0000
0000
0000
0001
0000
0000
0000
0000
0000
0000
0000
0001
0000
0000
0000
0000
0000
0000
,  // measure 73
0010
1000
0010
0000
0020
0000
0230
0000
,  // measure 74
0300
0000
0010
1000
0200
0300
0000
0000
,  // measure 75
0001
0000
1000
0100
0000
0000
0200
0000
,  // measure 76
0300
0000
0001
0010
0001
0000
0000
0010
,  // measure 77
0100
0000
0001
1000
0000
0000
2000
0000
,  // measure 78
0000
3010
0100
0000
0010
0100
0000
0001
,  // measure 79
0010
0000
0001
0010
0000
0000
0001
0100
,  // measure 80
0002
0103
0200
0000
,  // measure 81
0320
0230
2300
3000
2000
0000
3001
0000
,  // measure 82
0002
0103
0200
0000
,  // measure 83
0302
0023
0230
0300
0200
0300
0001
0000
,  // measure 84
0002
0103
0200
0000
,  // measure 85
0020
0300
0230
0000
2300
0000
3000
0000
0020
0000
0030
0000
0200
0300
0000
0000
,  // measure 86
0200
0300
0000
0000
1000
0000
0001
0000
0002
0000
0000
0000
0103
0000
0000
0000
,  // measure 87
1000
0000
0100
0001
0002
0000
0003
0000
,  // measure 88
0020
0030
0020
0030
0100
0000
0020
0030
,  // measure 89
0100
0100
0100
0000
0010
0100
0020
0030
,  // measure 90
0020
0030
0020
0030
0100
0000
0020
0030
,  // measure 91
0100
0100
0100
0000
0010
0100
0020
0030
,  // measure 92
0002
0003
0002
0003
1000
0000
0002
0003
,  // measure 93
1000
1000
1000
0000
0001
1000
0002
0003
,  // measure 94
0002
0003
0002
0003
1000
0000
0002
0003
,  // measure 95
1000
1000
1000
0000
0001
1000
0001
0000
,  // measure 96
1002
0003
0100
0000
0002
0003
0002
0003
,  // measure 97
0020
0030
0020
0030
0002
0003
0002
0013
,  // measure 98
0002
0003
0002
0003
0200
0300
0200
0300
,  // measure 99
0002
0003
0002
0003
0200
0300
0002
0003
,  // measure 100
1002
0003
0002
0003
1002
0003
0002
0003
,  // measure 101
1002
0003
0002
0003
2010
3000
0002
0003
,  // measure 102
0010
0002
0000
0003
0100
0000
0001
0001
,  // measure 103
0000
0001
0001
0000
0001
0001
2000
3000
,  // measure 104
2001
3000
2000
3000
2100
3000
2000
3000
,  // measure 105
2100
3000
2000
3000
0102
0003
0002
0003
,  // measure 106
1002
0003
0002
0003
1002
0003
0002
0003
,  // measure 107
1002
0003
0002
0003
2010
3000
2000
3010
,  // measure 108
2001
3000
2000
3000
2001
3000
2000
3000
,  // measure 109
2001
3000
2000
3000
0102
0003
0002
0003
,  // measure 110
1002
0003
0002
0003
1002
0003
0002
0003
,  // measure 111
1002
0000
0003
0000
0002
0000
0003
0000
2002
3000
0003
0000
0002
0000
0003
0000
,  // measure 112
0102
0003
0002
0003
0012
0003
0002
0003
,  // measure 113
0102
0003
0002
0003
0101
0000
2000
3000
,  // measure 114
2100
3000
2000
3000
2010
3000
2000
3000
,  // measure 115
2100
0000
3000
0000
2000
0000
3000
0000
0201
0300
0000
0000
0002
0000
0003
0000
,  // measure 116
1002
0003
0102
0003
1002
0003
0012
0003
,  // measure 117
1002
0003
0102
0003
2001
3000
0010
0100
,  // measure 118
0010
0000
0002
0000
0013
0100
1000
0000
,  // measure 119
0010
0001
0200
0300
2002
0000
3003
0000
;
