#TITLE:Tsume Tsume Tsume;
#SUBTITLE:;
#ARTIST:Maximum The Hormone;
#TITLETRANSLIT:;
#SUBTITLETRANSLIT:;
#ARTISTTRANSLIT:;
#GENRE:;
#CREDIT:;
#BANNER:tt-bn.png;
#BACKGROUND:back-bg.png;
#LYRICSPATH:;
#CDTITLE:;
#MUSIC:Tsume Tsume Tsume.mp3;
#OFFSET:-1.100;
#SAMPLESTART:75.534;
#SAMPLELENGTH:15.120;
#SELECTABLE:YES;
#BPMS:0.000=265.000
,35.000=132.500
,36.000=265.000
,65.000=251.320
,66.000=247.240
,67.000=242.640
,68.000=107.400
,76.000=110.100
,92.000=136.500
,140.000=127.700
,156.000=240.000
,157.000=120.000
,158.500=240.000
,159.500=120.000
,161.000=240.000
,162.000=120.000
,163.500=240.000
,164.500=120.000
,166.000=240.000
,167.000=120.000
,168.500=240.000
,169.500=120.000
,171.000=240.000
,172.000=120.000
,173.500=240.000
,174.500=120.000
,176.000=240.000
,177.000=120.000
,178.500=240.000
,179.500=120.000
,181.000=240.000
,182.000=120.000
,183.500=240.000
,184.500=120.000
,186.000=130.000
,190.000=126.500
,212.000=268.100
,259.000=250.600
,291.000=259.500
,355.000=236.998
,356.000=118.499
,357.500=236.998
,358.500=118.499
,360.000=236.998
,361.000=118.499
,362.500=236.998
,363.500=118.499
,365.000=236.998
,366.000=118.499
,367.500=236.998
,368.500=118.499
,370.000=236.998
,371.000=118.499
,372.500=236.998
,373.500=118.499
,375.000=124.099
,387.000=135.599
,411.000=271.198
,443.000=135.599
,451.000=271.198
,480.000=135.599
;
#STOPS:75.500=0.020,
214.000=0.224
;
#BGCHANGES:0.000=película 2.avi=1.000=0=0=1=====,
99999=-nosongbg-=1.000=0=0=0 // don't automatically add -songbackground-
;
#KEYSOUNDS:;
#ATTACKS:;

//---------------dance-single - ----------------
#NOTES:
     dance-single:
     :
     Challenge:
     12:
     1.000,1.000,1.000,0.636,0.571,894.000,329.000,103.000,0.000,22.000,0.000,1.000,1.000,1.000,0.636,0.571,894.000,329.000,103.000,0.000,22.000,0.000:
1000
0001
1000
0001
1000
0001
1000
0000
0110
0000
0000
0000
0110
0000
0000
0000
,
0011
1000
0011
1000
0011
1000
0011
1000
,
0011
1000
0011
1000
0011
1000
0011
1000
,
0101
1000
0101
1000
0101
1000
0101
1000
,
0101
1000
0101
1000
0101
1000
0101
1000
,
0101
1001
1001
0101
,
0101
0000
1001
0100
1001
0000
1001
0000
,
1001
0000
0110
1000
0110
0000
1100
0000
,
0022
0033
2200
3300
0220
0330
2001
0000
,
3011
1000
0011
1000
0011
1000
0011
1000
,
0011
1000
0011
1000
0011
1000
0011
1000
,
0101
1000
0101
1000
0101
1000
0101
1000
,
0101
1000
0101
1000
0101
1000
0101
1000
,
0101
0000
1001
0000
0101
1000
0100
0010
,
0100
0101
0000
1001
0000
1001
0001
0100
,
0101
0000
0100
0010
0100
0000
0101
0102
,
0000
0100
1003
0100
1000
0100
1000
0100
,
1001
0100
0010
0001
1000
0100
0000
0000
1001
0100
0010
0001
1000
0100
0000
0000
,
1001
0100
0010
0001
1000
0100
0000
0000
1001
0100
0010
0001
1000
0100
0000
0000
,
1001
0100
0010
0100
0001
0010
0100
0000
1001
0100
1000
0010
0100
0010
1000
0000
,
1001
0100
0010
0100
0001
0010
0100
0000
1001
0100
0010
0100
1000
0100
0010
0000
,
1001
0010
0100
1000
0100
0010
0100
0000
1001
0100
0010
0100
1000
0100
0010
0000
,
1001
0100
0001
0010
0100
1000
0100
0000
1010
0100
0001
0100
0010
0100
0001
0010
,
1001
0000
0010
1000
0000
0010
0000
1000
0000
0010
0000
0100
0001
0100
0010
1000
,
0010
0000
0100
0001
0000
0100
0000
0010
0000
1000
0000
0010
0100
0001
0100
0010
,
1000
0000
0001
0010
0000
0100
0000
1000
0000
0100
0000
0010
0001
0010
0100
1000
,
0100
0000
0010
0001
0000
0010
0000
0100
0000
1000
0010
1000
0010
1000
0010
1000
,
0001
0100
0000
0001
0100
0000
0001
0100
0000
0001
0000
1000
0010
1000
0100
0000
,
0000
0000
0100
0000
0010
0000
0100
0010
0000
0100
0000
0010
1000
0001
1000
0000
,
0010
0100
0000
0010
0100
0000
0010
0100
0000
0001
0010
0100
1000
0100
0010
0000
,
0000
0000
1000
0000
1010
0000
0001
0000
0101
0000
1000
0001
0000
1000
0002
0000
,
1103
0000
0110
0110
0000
1001
0000
0002
0023
0230
2300
3200
0320
0032
2003
3000
,
1001
0000
0110
0110
0000
1001
0000
0002
0023
0230
2300
3200
0320
0032
2003
3000
,
0011
0100
0010
0100
0001
0100
0010
0000
0000
1000
0010
0100
0010
1000
0010
0000
,
1001
0200
0320
0032
2003
3200
0320
2032
3003
0100
0000
0010
1000
0010
0100
0001
,
1001
0000
0010
1000
0000
0010
0000
1000
0000
0010
0000
0100
0001
0100
0010
1000
,
0010
0000
0100
0001
0000
0100
0000
0010
0000
1000
0000
0010
0100
0001
0100
0010
,
1000
0000
0001
0010
0000
0100
0000
1000
0000
0100
0000
0010
0001
0010
0100
1000
,
0100
0000
0010
0001
0000
0010
0000
0100
0000
1000
0010
1000
0010
1000
0010
1000
,
0001
0000
1001
1001
1001
0000
0000
1001
,
1001
1001
0000
0000
1001
1001
1001
1001
,
0000
1001
1001
1001
0000
0000
0110
0110
,
0110
0000
0000
0110
0110
0110
0000
0000
,
0110
0110
0110
0110
0000
0110
0110
0110
,
0000
0000
1111
1111
1111
0000
0000
1111
,
1111
1111
0000
0000
1111
1111
1111
1111
,
0000
1111
1111
1111
1100
2200
3300
0000
,
0011
0022
0033
0000
1100
1100
1100
1100
,
1100
1100
1100
1100
1100
1100
1100
1100
,
1100
0002
0023
0230
2300
0000
0001
0000
,
3002
0003
0000
1020
0230
0320
2030
3020
,
0131
0000
0000
0001
0100
0000
0001
0000
0201
0000
0300
0000
0002
0000
0023
0000
,
0032
0003
1100
0000
0002
0203
0320
2030
,
3001
0000
0000
0000
0000
0000
0000
0000
1000
0000
0000
0000
0000
0000
0000
0000
0001
0000
0000
0000
0000
0000
0000
0000
1000
0000
0000
0000
0000
0000
0000
0000
0002
0003
0000
0000
0000
0000
0000
0000
0000
0000
0000
0000
0000
0000
0000
0000
0011
0000
0000
0000
0000
0000
0000
0000
1000
0000
0000
0000
0000
0000
0000
0000
,
0011
1000
0011
1000
0011
1000
0011
1000
,
0011
1000
0011
1000
0011
1000
0011
1000
,
0011
1000
0011
1000
0011
1000
0011
0000
,
0110
0000
1100
0000
0110
0000
1100
0001
,
1100
0001
1100
0001
1100
0001
1100
0001
,
1100
0001
1100
0001
1100
0001
1100
0001
,
1100
0001
1100
0001
1100
0001
1000
0010
,
1000
0010
0100
0001
0100
0001
2002
0000
,
3003
0101
0110
0202
,
0303
1001
1100
1001
,
0101
1001
0100
2001
,
0001
0001
0001
0001
,
0001
0001
0001
0001
,
3001
0001
0001
0001
,
0001
0000
0001
0000
1000
0001
2000
0000
,
0001
0001
0001
0001
,
0001
0001
0001
3001
,
0001
0001
0001
0001
,
0001
2002
3003
1001
,
1001
0000
0010
0100
0000
0001
0000
0100
,
0000
0010
0100
0001
0100
0000
1010
0000
,
1010
0000
0100
1000
0100
0010
0000
0100
,
0000
1000
0100
0010
0001
0000
0110
0000
,
0101
0000
0010
1000
0010
0100
0000
0100
,
0000
0010
1000
0010
0100
0000
1010
0000
,
0101
0000
0010
1000
0001
0100
0000
0010
,
0000
1000
0100
0010
0001
0000
2020
3030
,
2020
3030
0000
0000
0101
0000
0101
0000
,
0010
1010
0000
0001
0101
0000
0220
0330
,
0220
0330
0000
0000
1010
0000
1010
0000
,
0010
0110
0000
0001
1001
0000
2020
3030
,
2020
3030
0000
0000
0101
0000
0101
0000
,
0010
1010
0000
0001
0101
0000
0220
0330
,
0202
0303
0001
1000
0100
0010
0001
1000
,
0010
0100
0001
1000
0010
0001
1001
0000
,
1001
1001
2002
3003
0000
1001
1001
2001
,
3000
0000
1001
1001
1002
0003
0000
1001
,
1001
2001
3000
0000
0110
0110
0220
0330
,
0000
0110
0110
0220
0330
0000
0110
0110
,
0220
0330
0000
0110
0110
0110
1001
0100
,
0101
0010
1000
0100
1001
0010
0100
0010
,
1001
0100
0001
0100
1010
1000
1011
2022
,
3033
0000
0000
0000
1101
0000
2202
0000
3303
0000
0000
0000
1001
0000
0010
0100
,
0000
0001
0100
0000
1001
0000
0010
1000
0000
0001
0100
0000
1001
0100
0010
0100
,
0010
0100
0010
0100
0010
0000
1100
0000
0110
0000
0011
0000
1001
0000
0100
0010
,
0000
0010
0100
0000
1001
0000
0001
0100
0000
0100
0001
0000
0101
0000
0010
1000
,
0000
1000
0010
0000
1010
0000
0100
0001
0000
0001
0100
0000
1001
0000
0100
0010
,
0000
0010
0100
0000
1001
0000
0010
1000
0000
1000
0001
0000
1001
0000
0100
0010
,
0000
0010
0100
0000
0010
0100
0010
0100
0010
0100
0010
0100
0011
0000
1000
0000
,
0011
0100
0011
1000
0011
0100
0011
1000
,
0011
0100
0011
1000
0011
0100
0011
1000
,
0011
0100
0011
1000
0011
0100
0011
1000
,
0011
0100
0011
1000
0011
0100
0011
1000
,
0011
0100
0011
1000
0011
0100
0011
1000
,
0011
0100
0011
1000
0011
0100
0011
1000
,
0011
0100
0011
1000
0011
0100
0010
1000
,
0010
0000
0000
0000
1000
0000
0000
0000
0010
0000
0000
0000
1000
0000
0000
0000
0010
0000
0000
0000
1000
0000
0000
0000
0022
0000
0000
0000
0033
0000
0000
1100
,
0000
0000
0000
1001
0000
0000
0000
2200
0000
0000
0000
3300
0000
0000
0000
0011
0000
0000
0000
1100
0000
0000
0000
1100
0000
0000
0000
0110
0000
0000
0000
0011
,
0000
0000
0000
0110
0000
0000
0000
1000
0000
0100
0000
1000
0000
0100
0000
1000
0000
0000
0000
0110
0000
0000
0000
0000
0011
0000
0000
0000
1000
0000
0000
0000
,
0011
1000
0011
1000
0011
1000
0011
1000
,
0011
1000
0011
1000
0011
1000
0101
1000
,
0101
1000
0101
1000
0101
1000
0101
1000
,
0101
1000
0101
1000
0101
1000
0011
1000
,
0011
1000
0011
1000
0011
1000
0011
1000
,
0011
1000
0011
1000
0011
0100
0000
1001
,
0000
1001
0000
1001
1001
1001
2002
0000
,
0000
0000
0000
0000
0000
0000
0000
0000
0000
0000
0000
0000
0000
0000
0000
0000
0000
0000
0000
0000
0000
0000
0000
0000
0000
0000
0000
0010
3003
0100
0010
0000
;

//---------------dance-single - ----------------
#NOTES:
     dance-single:
     :
     Hard:
     10:
     0.930,1.000,0.469,0.556,0.556,889.000,76.000,90.000,0.000,1.000,0.000,0.930,1.000,0.469,0.556,0.556,889.000,76.000,90.000,0.000,1.000,0.000: // measure 0
1000
0001
1000
0001
1000
0001
1000
0000
0010
0000
1000
0000
0100
0000
0000
0000
,  // measure 1
0001
1000
0001
1000
0001
1000
0001
1000
,  // measure 2
0001
1000
0001
1000
0001
1000
0001
1000
,  // measure 3
0100
1000
0100
1000
0100
1000
0100
1000
,  // measure 4
0100
1000
0100
1000
0100
1000
0100
1000
,  // measure 5
0100
1001
1001
0101
,  // measure 6
0101
0000
0010
0100
0010
0000
1001
0000
,  // measure 7
1001
0000
0100
1000
0100
0000
0101
0000
,  // measure 8
0022
0033
2200
3300
0220
0330
2001
0000
,  // measure 9
3010
1000
0010
1000
0010
1000
0010
1000
,  // measure 10
0010
1000
0010
1000
0010
1000
0010
1000
,  // measure 11
0001
1000
0001
1000
0001
1000
0001
1000
,  // measure 12
0001
1000
0001
1000
0001
1000
0001
1000
,  // measure 13
0001
0000
1001
0000
0001
1000
0100
0010
,  // measure 14
0100
0010
0000
0001
0000
1000
0100
1000
,  // measure 15
0001
0000
1000
0001
1000
0000
1000
0002
,  // measure 16
0000
0100
1003
0100
1000
0100
1000
0100
,  // measure 17
1000
0100
0010
0001
1000
0100
0000
0000
1000
0100
0010
0001
1000
0100
0000
0000
,  // measure 18
1000
0100
0010
0001
1000
0100
0000
0000
1000
0100
0010
0001
1000
0100
0000
0000
,  // measure 19
1000
0100
1000
0100
0010
0001
0010
0000
1000
0100
1000
0100
0010
0001
0010
0000
,  // measure 20
0001
0100
0001
0100
0010
1000
0010
0000
0001
0100
0001
0100
0010
1000
0010
0000
,  // measure 21
0001
0010
0100
1000
0100
1000
0100
0000
1000
0100
0010
0001
0010
0001
0010
0000
,  // measure 22
0001
0010
0100
1000
0100
1000
0100
0000
1000
0100
0010
0001
0010
0001
0010
0100
,  // measure 23
1000
0000
0010
1000
0000
0010
0000
1000
0000
0010
0000
0100
0001
0100
0010
1000
,  // measure 24
0010
0000
0100
0001
0000
0100
0000
0010
0000
1000
0000
0010
0100
0001
0100
0010
,  // measure 25
1000
0000
0001
0010
0000
0100
0000
1000
0000
0100
0000
0010
0001
0010
0100
1000
,  // measure 26
0100
0000
0010
0001
0000
0010
0000
0100
0000
1000
0010
1000
0010
1000
0010
1000
,  // measure 27
0001
0100
0000
0001
0100
0000
0001
0100
0000
0001
0000
1000
0010
0000
0100
0000
,  // measure 28
0000
0000
0100
0000
0010
0000
0100
0010
0000
0100
0000
0010
1000
0000
1000
0000
,  // measure 29
0010
0100
0000
0010
0100
0000
0010
0100
0000
0001
0000
0100
1000
0000
0010
0000
,  // measure 30
0000
0000
1000
0000
1010
0000
0001
0000
0101
0000
1000
0001
0000
1000
0002
0000
,  // measure 31
0103
0000
0010
0010
0000
1000
0000
0002
0023
0230
2300
3200
0320
0032
2003
3000
,  // measure 32
0001
0000
0100
0100
0000
0001
0000
0002
0023
0230
2300
3200
0320
0032
2003
3000
,  // measure 33
0001
0100
0010
0100
0001
0100
0010
0000
0000
1000
0010
0100
0010
1000
0010
0000
,  // measure 34
1000
0200
0320
0032
2003
3200
0320
0032
0003
0100
0000
0010
1000
0010
0100
0001
,  // measure 35
1000
0000
0010
1000
0000
0010
0000
1000
0000
0010
0000
0100
0001
0100
0010
1000
,  // measure 36
0010
0000
0100
0001
0000
0100
0000
0010
0000
1000
0000
0010
0100
0001
0100
0010
,  // measure 37
1000
0000
0001
0010
0000
0100
0000
1000
0000
0100
0000
0010
0001
0010
0100
1000
,  // measure 38
0100
0000
0010
0001
0000
0010
0000
0100
0000
1000
0010
1000
0010
1000
0010
1000
,  // measure 39
0001
0000
1000
1000
1000
0000
0000
0001
,  // measure 40
0001
0001
0000
0000
1001
1001
1001
1001
,  // measure 41
0000
1001
1001
1001
0000
0000
0010
0010
,  // measure 42
0010
0000
0000
0100
0100
0100
0000
0000
,  // measure 43
0110
0110
0110
0110
0000
0110
0110
0110
,  // measure 44
0000
0000
1001
1001
1001
0000
0000
0110
,  // measure 45
0110
0110
0000
0000
1001
0110
1001
0110
,  // measure 46
0000
1001
0110
1001
1100
2200
3300
0000
,  // measure 47
0011
0022
0033
0000
1100
0100
0100
0100
,  // measure 48
0100
0100
0100
0100
0100
0100
1100
1100
,  // measure 49
1100
0002
0023
0230
2300
0000
0001
0000
,  // measure 50
3002
0003
0000
1020
0230
0320
2030
3020
,  // measure 51
0131
0000
0100
0001
0201
0300
0002
0023
,  // measure 52
0032
0003
1100
0000
0002
0203
0320
2030
,  // measure 53
3001
0000
0000
0000
0000
0000
0000
0000
1000
0000
0000
0000
0000
0000
0000
0000
0001
0000
0000
0000
0000
0000
0000
0000
1000
0000
0000
0000
0000
0000
0000
0000
0002
0003
0000
0000
0000
0000
0000
0000
0000
0000
0000
0000
0000
0000
0000
0000
0001
0000
0000
0000
0000
0000
0000
0000
1000
0000
0000
0000
0000
0000
0000
0000
,  // measure 54
0001
1000
0001
1000
0001
1000
0001
1000
,  // measure 55
0001
1000
0001
1000
0001
1000
0001
1000
,  // measure 56
0001
1000
0001
1000
0001
1000
0001
0000
,  // measure 57
0110
0000
1100
0000
0110
0000
0100
0001
,  // measure 58
0100
0001
0100
0001
0100
0001
0100
0001
,  // measure 59
0100
0001
0100
0001
0100
0001
0100
0001
,  // measure 60
0100
0001
0100
0001
0100
0001
1000
0010
,  // measure 61
1000
0010
0100
0001
0100
0001
2002
0000
,  // measure 62
3003
0001
0100
0002
,  // measure 63
0000
0003
1000
0000
0100
0000
0001
0000
,  // measure 64
0001
0001
0100
2001
,  // measure 65
0001
0001
0001
0001
,  // measure 66
0001
0001
0001
0001
,  // measure 67
3001
0001
0001
0001
,  // measure 68
0001
0000
0001
0000
1000
0001
2000
0000
,  // measure 69
0001
0001
0001
0001
,  // measure 70
0001
0001
0001
3001
,  // measure 71
0001
0001
0001
0001
,  // measure 72
0001
2002
3003
1001
,  // measure 73
1001
0000
0010
0100
0000
0001
0000
0100
,  // measure 74
0000
0010
0100
0001
0100
0000
0010
0000
,  // measure 75
0010
0000
0100
0001
0100
0010
0000
0100
,  // measure 76
0000
0001
0010
0100
1000
0000
0010
0000
,  // measure 77
0100
0000
0010
1000
0010
0100
0000
0100
,  // measure 78
0000
0010
1000
0010
0100
0000
0001
0000
,  // measure 79
0100
0000
0010
1000
0001
0100
0000
0010
,  // measure 80
0000
1000
0100
0010
0001
0000
1000
0000
,  // measure 81
2000
3000
0000
0000
0001
0000
0002
0003
,  // measure 82
0010
1000
0000
0001
0100
0000
0020
0030
,  // measure 83
0020
0030
0000
0000
1000
0000
1000
0000
,  // measure 84
0010
0100
0000
0001
1000
0000
0020
0030
,  // measure 85
0020
0030
0000
0000
0001
0000
0001
0000
,  // measure 86
0010
1000
0000
0001
0100
0000
0020
0030
,  // measure 87
0200
0300
1000
0001
0010
0100
1000
0010
,  // measure 88
0100
0001
0010
0100
1000
0001
1001
0000
,  // measure 89
0001
0001
2002
3003
0000
1000
1000
2001
,  // measure 90
3000
0000
0001
0001
1002
0003
0000
1000
,  // measure 91
1000
2001
3000
0000
0010
0010
0220
0330
,  // measure 92
0000
0100
0100
0220
0330
0000
0010
0010
,  // measure 93
0220
0330
0000
0100
0100
0100
1001
0100
,  // measure 94
0001
1000
0100
1000
0001
0010
0100
0010
,  // measure 95
0001
0100
0001
0100
0010
1000
0011
0022
,  // measure 96
0033
0000
0000
0000
1100
0000
2200
0000
3300
0000
0000
0000
1000
0000
0010
0100
,  // measure 97
0000
0001
0100
0000
0001
0000
0010
1000
0000
0001
0100
0000
0001
0100
0010
0100
,  // measure 98
0010
0100
0010
0100
0010
0000
1000
0000
0100
0000
0010
0000
0001
0000
0100
0010
,  // measure 99
0000
0010
0100
0000
0001
0000
0001
0100
0000
0100
0001
0000
0100
0000
0010
1000
,  // measure 100
0000
1000
0010
0000
0010
0000
0100
0001
0000
0001
0100
0000
0001
0000
0100
0010
,  // measure 101
0000
0010
0100
0000
0001
0000
0010
1000
0000
1000
0001
0000
0001
0000
0100
0010
,  // measure 102
0000
0010
0100
0000
0010
0100
0010
0100
0010
0100
0010
0100
0001
0000
1000
0000
,  // measure 103
0001
0100
0001
1000
0001
0100
0001
1000
,  // measure 104
0001
0100
0001
1000
0001
0100
0001
1000
,  // measure 105
0001
0100
0001
1000
0001
0100
0001
1000
,  // measure 106
0001
0100
0001
1000
0001
0100
0001
1000
,  // measure 107
0001
0100
0001
1000
0001
0100
0001
1000
,  // measure 108
0001
0100
0001
1000
0001
0100
0001
1000
,  // measure 109
0001
0100
0001
1000
0001
0100
0010
1000
,  // measure 110
0010
0000
0000
0000
1000
0000
0000
0000
0010
0000
0000
0000
1000
0000
0000
0000
0010
0000
0000
0000
1000
0000
0000
0000
0022
0000
0000
0000
0033
0000
0000
1000
,  // measure 111
0000
0000
0000
0001
0000
0000
0000
2000
0000
0000
0000
3000
0000
0000
0000
0001
0000
0000
0000
1000
0000
0000
0000
1000
0000
0000
0000
0001
0000
0000
0000
0010
,  // measure 112
0000
0000
0000
0001
0000
0000
0000
1000
0000
0100
0000
1000
0000
0100
0000
1000
0000
0000
0000
0010
0000
0000
0000
0000
0010
0000
0000
0000
1000
0000
0000
0000
,  // measure 113
0010
1000
0010
1000
0010
1000
0010
1000
,  // measure 114
0010
1000
0010
1000
0010
1000
0100
1000
,  // measure 115
0100
1000
0100
1000
0100
1000
0100
1000
,  // measure 116
0100
1000
0100
1000
0100
1000
0010
1000
,  // measure 117
0010
1000
0010
1000
0010
1000
0010
1000
,  // measure 118
0010
1000
0010
1000
0010
0100
0000
1000
,  // measure 119
0000
0001
0000
1000
0001
1000
2002
0000
,  // measure 120
0000
0000
0000
0000
0000
0000
0000
0000
0000
0000
0000
0000
0000
0000
0000
0000
0000
0000
0000
0000
0000
0000
0000
0000
0000
0000
0000
0000
3003
0100
0010
0000
;

//---------------dance-single - ----------------
#NOTES:
     dance-single:
     :
     Medium:
     9:
     0.805,0.896,0.728,0.401,0.272,730.000,118.000,65.000,0.000,1.000,0.000,0.805,0.896,0.728,0.401,0.272,730.000,118.000,65.000,0.000,1.000,0.000:
1000
0001
1000
0001
0010
0000
0100
0000
,
1001
1001
1001
1001
,
1001
1001
1001
1001
,
1100
1100
1100
1100
,
1100
1100
1100
1100
,
1100
1001
1001
0101
,
0101
0010
0010
1001
,
1001
0100
0100
0101
,
0022
0033
2200
3300
0220
0330
1002
0000
,
1013
1010
1010
1010
,
1010
1010
1010
1010
,
1001
1001
1001
1001
,
1001
1001
1001
1001
,
1001
0101
1001
1100
,
0110
0000
0010
0001
0000
0000
0100
0010
,
0001
0000
1100
0000
1001
0000
1000
0002
,
0000
0000
1003
0100
1000
0100
1000
0100
,
1000
0000
0010
0000
1000
0100
0000
0000
1000
0000
0010
0000
1000
0100
0000
0000
,
1000
0000
0010
0000
1000
0100
0000
0000
1000
0000
0010
0000
1000
0100
0000
0000
,
1000
0000
1000
0000
0010
0001
0010
0000
1000
0000
1000
0000
0010
0001
0010
0000
,
0001
0000
0001
0000
0010
1000
0010
0000
0001
0000
0001
0000
0010
1000
0010
0000
,
0001
0000
0100
0000
0100
1000
0100
0000
1000
0000
0010
0000
0010
0001
0010
0000
,
1000
0000
0100
0000
0100
1000
0100
0000
1000
0000
0100
0000
0010
0001
0010
0000
,
1000
0000
0010
1000
0000
0010
0000
1000
0000
0010
0000
0100
0001
0000
0010
0000
,
0010
0000
0100
0001
0000
0100
0000
0010
0000
1000
0000
0010
0100
0000
0100
0000
,
1000
0000
0001
0010
0000
0100
0000
1000
0000
0100
0000
0010
0001
0000
0100
0000
,
0100
0000
0010
0001
0000
0010
0000
0100
0000
1000
0000
1000
0010
0000
0010
0000
,
0001
0000
0100
0000
0001
0000
0100
0000
0001
0010
0000
0001
0010
0000
0100
0000
,
0000
0100
0010
0100
0010
0100
1000
1000
,
0010
0000
0100
0000
0010
0000
0100
0000
0100
0001
0000
0100
0001
0000
0010
0000
,
0000
0000
1000
0000
0010
0000
0001
0000
0100
0000
0001
0010
0000
0010
0002
0000
,
0103
0000
0010
0010
0000
1000
0000
0002
0023
0030
2000
3000
0020
0030
2000
3000
,
0001
0000
0100
0100
0000
0001
0000
0002
0023
0030
2000
3000
0020
0030
2000
3000
,
0001
0010
0001
0010
0000
0010
0010
0010
,
0001
0200
0320
0030
2000
3200
0320
0030
0000
0100
0000
0100
0010
0000
0010
0000
,
1000
0000
0010
1000
0000
0010
0000
1000
0000
0010
0000
0100
0001
0000
0010
0000
,
0010
0000
0100
0001
0000
0100
0000
0010
0000
1000
0000
0010
0100
0000
0100
0000
,
1000
0000
0001
0010
0000
0100
0000
1000
0000
0100
0000
0010
0001
0000
0100
0000
,
0100
0000
0010
0001
0000
0010
0000
0100
0000
1000
0010
0000
0010
0000
0010
0000
,
1000
0000
1000
1000
1000
0000
0000
0001
,
0001
0001
0000
0000
1001
1001
1001
1001
,
0000
1001
1001
1001
0000
0000
0010
0010
,
0010
0000
0000
0100
0100
0100
0000
0000
,
0110
0110
0110
0110
0000
0110
0110
0110
,
0000
0000
1001
1001
1001
0000
0000
0110
,
0110
0110
0000
0000
1001
1001
1001
1001
,
0000
1001
1001
1001
1000
2000
3000
0000
,
0001
0002
0003
0000
0100
0100
0100
0100
,
0100
0100
0100
0100
0100
0100
0100
0100
,
0100
0002
0023
0230
2300
0000
0001
0000
,
3002
0003
0000
0020
0230
0320
2030
3020
,
0130
0000
0100
0001
0200
0300
0002
0023
,
0032
0003
0100
0000
0002
0203
0320
2030
,
3001
0000
0000
0000
0000
0000
0000
0000
1000
0000
0000
0000
0000
0000
0000
0000
0001
0000
0000
0000
0000
0000
0000
0000
1000
0000
0000
0000
0000
0000
0000
0000
0002
0003
0000
0000
0000
0000
0000
0000
0000
0000
0000
0000
0000
0000
0000
0000
1001
0000
0000
0000
0000
0000
0000
0000
0000
0000
0000
0000
0000
0000
0000
0000
,
1001
1001
1001
1001
,
1001
1001
1001
1001
,
1001
1001
1001
1001
,
0110
1100
0110
0101
,
0101
0101
0101
0100
,
0101
0101
0101
0101
,
0101
0101
0101
1010
,
1010
0101
0101
2002
,
3003
0001
0100
0002
,
0000
0003
1000
0000
0100
0000
0001
0000
,
0001
0001
0100
2001
,
0001
0001
0001
0001
,
0001
0001
0001
0001
,
3001
0001
0001
0001
,
0001
0000
0001
0000
1000
0001
2000
0000
,
0001
0001
0001
0001
,
0001
0001
0001
3001
,
0001
0001
0001
0001
,
0001
2002
3003
0001
,
0001
0000
0010
0100
0000
0001
0000
0100
,
0000
0010
0100
0000
0100
0000
0010
0000
,
0010
0000
0100
0000
0100
0010
0000
0100
,
0000
0001
0010
0000
1000
0000
0010
0000
,
0100
0000
0010
0000
0010
0100
0000
0100
,
0000
0010
1000
0000
0100
0000
0001
0000
,
0100
0000
0010
0000
0001
0100
0000
0010
,
0000
1000
0100
0000
0001
0000
1000
0000
,
1000
0000
0001
0000
,
0010
1000
0000
0001
0100
0000
0010
0000
,
0010
0000
1000
1000
,
0010
0100
0000
0001
1000
0000
0010
0000
,
0010
0000
0001
0001
,
0010
1000
0000
0001
0100
0000
0010
0000
,
0010
0001
0000
0001
0000
0100
0000
0010
,
0000
0001
0000
0100
0000
0001
1000
0000
,
0001
0001
2000
3000
0000
1000
1000
0001
,
0000
0000
0001
0001
1000
0000
0000
1000
,
1000
0001
0000
0000
0010
0010
0200
0300
,
0000
0100
0100
0020
0030
0000
0010
0010
,
0200
0300
0000
0100
0100
0100
0001
0100
,
0001
1000
0100
1000
0001
0010
0100
0010
,
0001
0100
0001
0100
0010
1000
0011
0022
,
0033
0000
1100
2200
3300
0000
1000
0010
,
0100
0000
0001
0000
0001
0000
0010
0000
0100
0000
0001
0000
0001
0100
0010
0100
,
0010
0100
0010
0100
0010
0000
1000
0000
0100
0000
0010
0000
0001
0000
0100
0000
,
0010
0100
0001
0001
0100
0001
0100
0010
,
1000
0010
0010
0100
0001
0100
0001
0100
,
0010
0100
0001
0010
1000
0001
0001
0100
,
0010
0000
0100
0000
0010
0000
0010
0000
0010
0100
0010
0100
0001
0000
1000
0000
,
0001
1000
0001
1000
0001
1000
0001
1000
,
0001
1000
0001
1000
0001
1000
0001
1000
,
0001
1000
0001
1000
0001
1000
0001
1000
,
0001
1000
0001
1000
0001
1000
0001
1000
,
0001
1000
0001
1000
0001
1000
0001
1000
,
0001
1000
0001
1000
0001
1000
0001
1000
,
0001
1000
0001
1000
0001
1000
0010
1000
,
0010
0000
0000
0000
1000
0000
0000
0000
0010
0000
0000
0000
1000
0000
0000
0000
0010
0000
0000
0000
1000
0000
0000
0000
0022
0000
0000
0000
0033
0000
0000
1000
,
0000
0000
0000
0001
0000
0000
0000
2000
0000
0000
0000
3000
0000
0000
0000
0001
0000
0000
0000
1000
0000
0000
0000
1000
0000
0000
0000
0001
0000
0000
0000
0010
,
0000
0000
0000
0001
0000
0000
0000
1000
0000
0000
0000
1000
0000
0000
0000
1000
0000
0000
0000
0010
0000
0000
0000
0000
0010
0000
0000
0000
1000
0000
0000
0000
,
0010
1000
0010
1000
0010
1000
0010
1000
,
0010
1000
0010
1000
0010
1000
0010
1000
,
0010
1000
0010
1000
0010
1000
0010
1000
,
0010
1000
0010
1000
0010
1000
0010
1000
,
0010
1000
0010
1000
0010
1000
0010
1000
,
0010
1000
0010
1000
0010
1000
0000
1000
,
0000
0001
0000
1000
0001
1000
2002
0000
,
0000
0000
0000
0000
0000
0000
0000
0000
0000
0000
0000
0000
0000
0000
0000
0000
0000
0000
0000
0000
0000
0000
0000
0000
0000
0000
0000
0000
3003
0100
0010
0000
;
