#TITLE:Storytime;
#SUBTITLE:Imaginaerum;
#ARTIST:Nightwish;
#TITLETRANSLIT:;
#SUBTITLETRANSLIT:;
#ARTISTTRANSLIT:;
#CREDIT:;
#BANNER:stime-bn.png;
#BACKGROUND:back-bg.png;
#LYRICSPATH:;
#CDTITLE:;
#MUSIC:01-nightwish-storytime_(radio_edit)-kalevala.mp3;
#OFFSET:-0.480;
#SAMPLESTART:66.600;
#SAMPLELENGTH:20.100;
#SELECTABLE:YES;
#BPMS:0.000=156.060,8.000=78.030,16.000=156.060,16.500=78.030,20.000=156.060,20.500=78.030,24.000=156.060,120.000=156.700,144.000=157.100,184.000=156.100,184.500=78.050,192.000=312.200,194.000=156.100,225.000=78.100,279.000=156.200,283.000=156.700,375.000=313.400,375.250=156.700,375.500=313.400,375.750=156.700;
#STOPS:16.000=0.096
,16.250=0.096
,20.000=0.096
,20.250=0.096
,184.000=0.096
,184.250=0.096
,375.000=0.048
,375.500=0.048
;
#BGCHANGES:3.500=Vid.avi=1.000=1=1=1,
99999=-nosongbg-=1.000=0=0=0 // don't automatically add -songbackground-
;

//---------------dance-single - ----------------
#NOTES:
     dance-single:
     :
     Challenge:
     10:
     1.000,1.000,1.000,1.000,0.388:
0002
0000
0000
0000
,
0000
0000
0000
0000
,
2003
3010
0100
0010
0000
0100
0010
0100
0000
0010
0100
0010
1000
0010
0100
0001
,
2000
3100
0010
0001
0000
0001
0010
0100
0000
0100
0010
0001
0010
0100
1000
0010
,
1001
1001
0100
0010
0000
0100
0010
0100
0000
0010
0100
0001
0010
0100
1000
0100
,
1001
1001
0010
0100
0000
0010
0100
0010
1000
0101
0202
0303
1000
0101
0202
0313
,
1001
0000
0011
0101
0011
0000
0011
0000
,
0011
0101
0011
0000
0011
0011
0110
0110
,
1100
0000
1100
1010
1100
0000
1100
0000
,
1100
1010
1100
0000
2100
3100
0220
0330
,
0022
0033
1001
0101
1001
0000
1001
0000
,
1001
0101
1001
0000
1001
1001
1100
1100
,
0110
0000
0110
0011
0110
0000
0110
0000
,
0001
1100
2200
3300
0001
1100
2200
3300
,
0000
0100
1001
0100
0010
0100
1010
0000
,
0010
0001
0101
1000
0010
1000
0110
0000
,
1000
1002
0023
2130
,
3200
0000
0312
0000
0103
0010
1001
0000
,
0001
0100
0011
1000
0100
1000
0011
0000
,
0010
0100
1010
0001
0100
0001
0101
0010
,
0100
0000
1010
1000
0100
1000
0101
0010
,
2100
0100
3200
0300
0021
0001
0032
0003
,
2100
0000
3011
0110
1100
0000
1100
0000
,
1100
0110
0011
0000
0101
0101
0110
0110
,
1010
0000
1010
0110
0101
0000
0101
0000
,
0101
0110
1010
0000
1020
1030
2200
3300
,
2002
3003
0101
0110
0101
0000
0101
0000
,
0101
0110
0101
0000
0101
0101
0110
0110
,
1100
0000
1100
1001
1100
0000
1100
0000
,
0001
0010
0001
0010
0100
1000
0100
1000
0001
0010
0001
0010
0100
1000
0010
0100
,
0002
1010
0010
1010
,
0010
0103
0110
0100
0001
0100
0101
0100
,
2020
3030
0202
0303
1002
0000
0103
0000
,
0001
0100
0101
0100
0001
0100
0101
0100
,
2002
3003
2200
3300
0120
0000
1030
0000
,
0100
0010
1010
0010
0100
0010
1010
0100
,
0202
0303
0220
0330
2010
0000
3010
0000
,
0001
0100
0110
0100
0001
0100
0110
0100
,
2020
3030
0202
0303
0012
0000
0013
0000
,
0100
0000
1100
0100
1000
0100
1100
0100
,
0220
0330
0202
0303
1002
0000
1003
0000
,
0100
0010
0110
0010
0100
0010
0110
0010
,
2200
3300
0220
0330
0012
0000
0013
0000
,
1000
0000
0101
0100
0001
0100
0101
0100
,
2002
3003
0220
0330
1002
0000
0103
0000
,
0100
1010
0000
0100
1010
0100
1010
0100
,
1001
1001
0100
0001
0000
0100
0001
0100
0000
0001
0100
0001
0020
0100
1000
0130
,
0020
0000
0000
0000
0000
0000
0000
0000
0000
0000
0000
0000
0001
0000
0000
0000
0000
0000
0000
0000
0000
0000
0000
0000
0100
0000
0000
0000
0000
0000
0000
0000
0000
0000
0000
0000
0001
0000
0000
0000
0000
0000
0000
0000
0000
0000
0000
0000
0000
0000
0000
0000
0000
0000
0000
0000
0000
0000
0000
0000
0100
0000
0000
0000
0000
0000
0000
0000
0000
0000
0000
0000
0001
0000
0000
0000
0000
0000
0000
0000
0000
0000
0000
0000
0100
0000
0000
0000
0000
0000
0000
0000
0000
0000
0000
0000
0031
0000
0000
0000
0000
0000
0010
0000
0000
0000
0000
0000
0100
0000
0000
0000
0000
0000
1000
0000
0000
0000
0000
0000
0100
0000
0000
0000
1000
0000
0000
0000
0100
0000
0000
0000
1000
0000
0000
0000
0100
0000
0000
0000
1000
0000
0000
0000
0100
0000
0000
0000
1000
0000
0000
0000
0100
0000
0000
0000
2000
0000
0000
0000
0000
0000
0000
0000
0000
0000
0000
0000
3000
0000
0000
0000
0000
0000
0000
0000
0000
0000
0000
0000
0100
0000
0000
0000
0000
0000
0100
0000
0000
0000
0000
0000
,
0002
0003
0000
0000
0101
0011
0101
0000
,
0101
0000
0101
0011
0101
0000
0101
0101
,
0110
0110
1010
0000
1010
0110
1010
0000
,
1010
0000
1010
0110
1010
0000
2010
3010
,
0220
0330
0202
0303
1100
1010
1100
0000
,
1100
0000
1100
1010
1100
0000
1100
1100
,
0110
0110
0011
0000
0011
0110
1100
0000
,
1100
0000
0001
1100
2200
3300
0001
1100
,
2200
0000
3300
0000
1001
0001
0011
0101
0011
0001
0101
0011
0001
0101
0011
0001
,
0101
0001
0101
0011
0101
0001
0011
0101
0011
0001
0101
0011
0001
0101
0011
0001
,
0101
0011
0101
0011
0101
0000
2000
3200
0320
0000
0030
0000
0002
0023
0230
0000
,
0300
0000
0020
2030
3200
0000
0320
0032
0203
0000
0300
0000
0020
0230
0320
0000
,
2030
3200
0312
0000
0103
0000
2000
3200
0320
0000
0032
0023
0230
0000
0300
0000
,
2000
0000
0000
3200
0000
0000
0320
0000
0000
0000
0000
0000
0030
0000
0000
0000
0000
0000
0002
0000
0000
0023
0000
0000
0230
0000
0000
0000
0000
0000
0301
0010
0100
1000
0100
0010
0002
0000
0000
0000
0000
0000
0003
0000
0000
0000
0000
0000
,
0012
0000
0123
0000
0131
0000
2010
3210
1320
0000
0030
0000
0102
0123
0231
0000
,
0300
0000
1020
2130
3210
0000
0321
0132
0213
0000
0300
0000
1020
0100
0001
0100
,
2032
3003
0022
0033
0100
0000
2001
3210
0321
0000
0132
0123
0231
0000
0300
0000
,
2010
3201
0321
0000
0030
0000
0102
0123
0231
0000
0000
0300
2001
3001
2001
3001
,
2001
3001
2001
3001
2001
3001
2001
3001
2001
3001
2001
3001
0201
0301
0201
0301
,
0201
0301
0201
0301
0201
0301
0201
0301
0201
0301
0201
0301
0021
0031
0021
0031
,
0021
0000
0031
0000
0021
0000
0031
0000
0021
0000
0031
0000
0021
0000
0031
0000
0021
0000
0031
0000
0021
0000
0031
0000
0001
0010
0001
0010
0000
0000
0100
1000
,
0100
1000
0000
0000
1001
0000
0000
0000
0100
0000
1001
0000
0000
0000
0000
0000
1001
0000
0020
0000
0030
0000
0000
0000
0011
0000
0000
0000
0110
0000
0000
0000
,
1100
0000
0120
0000
0000
0000
1030
0100
0010
0000
0000
0000
0010
0000
0100
0000
,
0110
0100
0001
0100
0101
0100
2020
3030
,
0202
0303
1002
0000
0103
0000
0001
0100
,
0101
0100
0001
0100
0101
0100
2002
3003
,
2200
3300
0120
0000
1030
0000
0100
0010
,
1010
0010
0100
0010
1010
0100
0202
0303
,
0220
0330
2010
0000
3010
0000
0001
0100
,
0110
0100
0001
0100
0110
0100
2020
3030
,
0202
0303
0012
0000
0013
0000
0100
0000
,
1100
0100
1000
0100
1100
0100
0220
0330
,
0202
0303
1002
0000
1003
0000
0100
0010
,
0110
0010
0100
0010
0110
0010
2200
3300
,
0220
0330
0012
0000
0013
0000
1000
0000
,
0101
0100
0001
0100
0101
0100
2002
3003
,
0220
0330
1002
1000
0103
0000
0100
0100
,
0102
0023
0032
0023
0032
0023
0230
2300
,
0011
0010
0010
0000
0011
0000
0001
3001
,
2001
3200
2300
3200
0011
2300
0001
3200
,
2301
0001
0001
0000
0011
0000
0001
0001
,
0011
0000
3002
0010
1010
0000
2003
0100
,
0001
0100
0100
0000
0011
0000
0010
0010
,
0101
0000
0010
0010
3101
0000
0010
0010
,
0101
0010
0010
0000
0101
0000
1001
0100
,
1001
0000
0010
0000
1001
0000
0100
0000
1001
0000
0010
0000
2002
3003
2002
0000
,
0000
3003
0000
0000
;

//---------------dance-single - Copied from----------------
#NOTES:
     dance-single:
     Copied from:
     Hard:
     9:
     0.743,1.000,0.809,1.000,0.191:
0002
0000
0000
0000
,
0000
0000
0000
0000
,
2003
3010
0100
0010
0000
0100
0010
0100
0000
0010
0100
0010
1000
0010
0100
0001
,
2000
3100
0010
0001
0000
0001
0010
0100
0000
0100
0010
0001
0010
0100
1000
0010
,
1001
1001
0000
0000
0000
0000
0000
0000
0000
0000
0000
0000
0000
0000
0000
0000
,
1001
1001
0000
0000
0000
0000
0000
0000
1000
0101
0202
0303
1000
0101
0202
0313
,
1001
0000
0011
0100
0001
0000
0001
0000
,
0011
0100
0001
0000
0011
0010
0100
0100
,
1000
0000
1100
1000
0100
0000
0100
0000
,
1100
1000
0100
0000
2100
3000
0220
0330
,
0022
0033
1001
0100
0001
0000
0001
0000
,
1001
0100
0001
0000
1001
1000
0100
0100
,
0010
0000
0110
0010
0100
0000
0100
0000
,
0001
1100
2200
3300
0001
1100
2200
3300
,
0000
0100
1001
0100
0010
0100
0010
0000
,
0010
0001
0100
1000
0010
1000
0010
0000
,
0000
1002
0023
2130
,
3200
0312
0103
1000
,
0000
0100
0001
1000
0100
1000
0001
0000
,
0000
0100
0010
0001
0100
0001
0100
0010
,
0000
0000
0010
1000
0200
0000
0301
0000
,
2000
0000
3200
0300
0020
0000
0032
0003
,
2100
0000
3011
0100
1000
0000
1000
0000
,
1100
0010
0001
0000
0101
0001
0100
0100
,
1010
0000
1010
0010
0100
0000
0100
0000
,
0101
0010
1000
0000
1020
0030
2200
3300
,
2002
3003
0101
0100
0001
0000
0001
0000
,
0101
0100
0001
0000
0101
0001
0100
0100
,
1100
0000
1100
0001
1000
0000
1000
0000
,
0001
0010
0001
0000
0100
0000
1000
0000
0001
0000
0010
0000
0100
0000
1000
0000
,
0002
1000
0010
1000
,
0000
0103
0010
0100
0001
0100
0001
0100
,
0020
0030
0200
0300
1002
0000
0003
0000
,
0001
0100
0010
0100
0001
0100
0010
0100
,
0002
0003
2000
3000
0120
0000
0030
0000
,
0100
0010
1000
0010
0100
0010
1000
0100
,
0002
0003
0200
0300
2010
0000
3000
0000
,
0001
0100
0010
0100
0001
0100
0010
0100
,
0020
0030
0200
0300
0012
0000
0003
0000
,
0100
0000
1000
0100
1000
0100
0010
0100
,
0020
0030
0002
0003
1002
0000
0003
0000
,
0100
0010
0001
0010
0100
0010
0001
0010
,
2000
3000
0200
0300
0012
0000
0003
0000
,
1000
0000
0001
0100
0001
0100
0010
0100
,
0002
0003
0200
0300
1002
0000
0003
0000
,
0100
1010
0000
0100
1010
0100
1010
0100
,
1001
1001
0000
0000
0000
0000
0000
0000
0000
0000
0000
0000
1020
0000
0000
0030
,
0120
0000
0000
0000
0000
0000
0000
0000
0000
0000
0000
0000
0000
0000
0000
0000
0031
0010
0100
1000
0200
0000
0000
0000
0000
0000
0300
0000
0000
0000
0100
0010
,
0002
0003
0000
0000
0101
0001
0100
0000
,
0100
0000
0101
0001
0100
0000
0101
0100
,
0010
0010
1010
0000
1010
0100
0010
0000
,
0010
0000
1010
0100
0010
0000
2010
3000
,
0220
0330
0202
0303
1100
0010
0100
0000
,
0100
0000
1100
0010
0100
0000
1100
0100
,
0010
0010
0011
0000
0011
0100
1000
0000
,
1000
0000
0001
1100
2200
3300
0001
1100
,
2200
0000
3300
0000
1001
0000
0011
0101
0011
0000
0101
0011
0000
0101
0011
0000
,
0101
0000
0101
0011
0101
0000
0011
0101
0011
0000
0101
0011
0000
0101
0011
0000
,
0101
0011
0101
0011
0101
0000
2000
3200
0320
0000
0030
0000
0002
0023
0230
0000
,
0300
0000
0020
2030
3200
0000
0320
0032
0203
0000
0300
0000
0020
0230
0320
0000
,
2030
3200
0302
0000
0103
0000
2000
3200
0320
0000
0032
0023
0230
0000
0300
0000
,
2000
0000
3200
0000
0320
0000
0000
0000
0030
0000
0000
0000
0002
0000
0023
0000
0230
0000
0000
0000
0300
0000
1000
0100
0002
0000
0000
0000
0003
0000
0000
0000
,
0002
0000
0023
0000
0130
0000
2000
3200
0320
0000
0030
0000
0002
0023
0230
0000
,
0300
0000
0020
2030
3200
0000
0320
0032
0203
0000
0300
0000
0010
0100
0001
0100
,
0002
0003
0020
0030
0100
0000
2000
3200
0320
0000
0032
0023
0230
0000
0300
0000
,
2000
3200
0320
0000
0030
0000
0002
0023
0230
0000
0000
0300
2001
3000
2001
3000
,
2001
3000
2001
3000
2001
3000
2001
3000
2001
3000
2001
3000
0201
0300
0201
0300
,
0201
0300
0201
0300
0201
0300
0201
0300
0201
0300
0201
0300
0021
0030
0021
0030
,
0021
0000
0030
0000
0021
0000
0030
0000
0021
0000
0030
0000
0021
0000
0030
0000
0021
0000
0030
0000
0021
0000
0030
0000
0001
0010
0001
0010
0000
0000
0100
1000
,
0100
1000
0000
0000
1001
0000
0000
0000
0100
0000
1001
0000
0000
0000
0000
0000
1001
0000
0020
0000
0030
0000
0000
0000
0011
0000
0000
0000
0100
0000
0000
0000
,
1000
0000
0020
0000
0000
0000
1030
0100
0010
0000
0000
0000
0010
0000
0100
0000
,
0010
0100
0001
0100
0001
0100
2000
3000
,
0002
0003
1002
0000
0103
0000
0000
0100
,
0001
0100
0010
0100
0001
0100
0002
0003
,
2000
3000
0120
0000
1030
0000
0000
0010
,
1000
0010
0100
0010
1000
0100
0002
0003
,
0200
0300
2010
0000
3010
0000
0000
0100
,
0010
0100
0001
0100
0010
0100
0020
0030
,
0200
0300
0012
0000
0013
0000
0000
0000
,
1000
0100
0001
0100
1000
0100
0020
0030
,
0002
0003
1002
0000
1003
0000
0000
0010
,
0100
0010
0001
0010
0100
0010
2000
3000
,
0200
0300
0012
0000
0013
0000
0000
0000
,
0001
0100
0010
0100
0001
0100
0002
0003
,
0200
0300
1002
1000
0103
0000
0100
0100
,
0002
0023
0032
0023
0032
0023
0230
2300
,
0001
0000
0010
0000
0001
0000
0001
3100
,
2001
3200
2300
3200
0001
2300
0001
3200
,
2300
0001
0001
0000
0010
0000
0001
0001
,
0010
0000
3002
0010
1000
0000
2003
0100
,
0001
0000
0100
0000
0001
0000
0010
0010
,
0100
0000
0010
0010
3100
0000
0010
0010
,
0101
0010
0010
0000
0101
0000
1001
0100
,
1001
0000
0010
0000
1001
0000
0100
0000
1001
0000
0010
0000
2002
3003
2002
0000
,
0000
3003
0000
0000
;

//---------------dance-single - Copied from Copied f----------------
#NOTES:
     dance-single:
     Copied from Copied f:
     Medium:
     7:
     0.595,0.953,0.236,1.000,0.115:
0002
0000
0000
0000
,
0000
0000
0000
0000
,
2003
3000
0100
0000
0010
0000
0010
0000
0000
0000
0100
0000
1000
0000
0100
0000
,
2000
3000
0010
0000
0000
0000
0010
0000
0100
0000
0010
0000
0010
0000
1000
0000
,
1001
1001
0000
0000
0000
0000
0000
0000
0000
0000
0000
0000
0000
0000
0000
0000
,
1001
1001
0000
0000
0000
0000
0000
0000
0000
0101
0202
0303
0000
0101
0202
0303
,
1001
0000
0001
0100
0001
0000
0001
0000
,
0001
0100
0001
0000
0001
0010
0100
0100
,
1000
0000
0100
1000
0100
0000
0100
0000
,
0100
1000
0100
0000
2000
3000
0200
0300
,
0020
0030
0001
0100
0001
0000
0001
0000
,
0001
0100
0001
0000
1000
1000
0100
0100
,
0010
0000
0100
0010
0100
0000
0100
0000
,
0000
1100
2200
3300
0000
1100
2200
3300
,
0000
0100
0001
0100
0010
0000
0010
0000
,
0010
0001
0100
0000
0010
1000
0010
0000
,
0000
0002
0023
2030
,
3200
0302
0103
0000
,
0000
0100
0001
1000
0100
0000
0001
0000
,
0000
0100
0010
0001
0100
0000
0100
0010
,
0000
0000
0010
1000
0200
0000
0301
0000
,
2000
0000
3200
0300
0020
0000
0032
0003
,
2000
0000
3001
0100
1000
0000
1000
0000
,
1000
0010
0001
0000
0001
0001
0100
0100
,
0010
0000
1000
0010
0100
0000
0100
0000
,
0100
0010
1000
0000
0020
0030
0200
0300
,
0002
0003
0100
0100
0001
0000
0001
0000
,
0100
0100
0001
0000
0001
0001
0100
0100
,
1000
0000
1000
0001
1000
0000
1000
0000
,
0001
0010
0100
0000
0001
0010
0100
0000
,
0002
1000
0010
1000
,
0000
0103
0010
0100
0001
0000
0001
0000
,
0020
0030
0200
0300
1002
0000
0003
0000
,
0001
0100
0010
0000
0001
0100
0010
0000
,
0002
0003
2000
3000
0120
0000
0030
0000
,
0100
0010
1000
0000
0100
0010
1000
0000
,
0002
0003
0200
0300
2010
0000
3000
0000
,
0001
0100
0010
0000
0001
0100
0010
0000
,
0020
0030
0200
0300
0002
0000
0003
0000
,
0100
0000
1000
0100
1000
0000
0010
0100
,
0020
0030
0002
0003
1002
0000
0003
0000
,
0100
0010
0001
0000
0100
0010
0001
0000
,
2000
3000
0200
0300
0012
0000
0003
0000
,
1000
0000
0001
0100
0001
0000
0010
0100
,
0002
0003
0200
0300
1002
0000
0003
0000
,
0000
1010
0000
0000
1010
0000
1010
0000
,
1001
1001
0000
0000
0000
0000
0000
0000
0000
0000
0000
0000
1020
0000
0000
0030
,
0120
0000
0000
0000
0000
0000
0030
0000
0001
0010
0200
0000
0000
0300
0000
0100
,
0002
0003
0000
0000
0100
0001
0100
0000
,
0100
0000
0100
0001
0100
0000
0100
0100
,
0010
0010
1000
0000
0010
0100
0010
0000
,
0010
0000
0010
0100
0010
0000
2000
3000
,
0020
0030
0200
0300
1000
0010
0100
0000
,
0100
0000
1000
0010
0100
0000
0100
0100
,
0010
0010
0001
0000
0001
0100
1000
0000
,
1000
0000
0001
1100
2200
3300
0001
1100
,
2200
0000
3300
0000
2000
3000
0001
0100
0001
0000
0010
0100
0000
0010
0100
0000
,
0001
0000
0100
0010
0100
0000
0001
0100
0001
0000
0100
0001
0000
0100
0001
0000
,
0100
0001
0010
0001
0100
0000
2000
3200
0320
0000
0030
0000
0002
0023
0230
0000
,
0300
0000
0020
2030
3200
0000
0320
0032
0203
0000
0300
0000
0020
0230
0320
0000
,
2030
3200
0302
0000
0003
0000
2000
3200
0320
0000
0032
0023
0230
0000
0300
0000
,
2000
0000
3200
0000
0320
0000
0000
0000
0030
0000
0000
0000
0002
0000
0023
0000
0230
0000
0000
0000
0300
0000
1000
0100
0002
0000
0000
0000
0003
0000
0000
0000
,
0002
0000
0023
0000
0130
0000
2000
3200
0320
0000
0030
0000
0002
0023
0230
0000
,
0300
0000
0020
2030
3200
0000
0320
0032
0203
0000
0300
0000
0010
0000
0001
0100
,
0002
0003
0020
0030
0100
0000
2000
3200
0320
0000
0032
0023
0230
0000
0300
0000
,
2000
3200
0320
0000
0030
0000
0002
0023
0230
0000
0000
0300
2000
3000
2000
3000
,
2000
3000
2000
3000
2000
3000
2000
3000
2000
3000
2000
3000
0200
0300
0200
0300
,
0200
0300
0200
0300
0200
0300
0200
0300
0200
0300
0200
0300
0020
0030
0020
0030
,
0020
0030
0020
0030
0020
0030
0020
0030
0020
0030
0020
0030
0001
0001
0000
0100
,
0100
0000
1001
0000
0000
1001
0000
0000
1001
0020
0030
0000
0001
0000
0100
0000
,
1000
0020
0000
0030
0010
0000
0010
0100
,
0010
0000
0001
0100
0001
0000
2000
3000
,
0002
0003
1002
0000
0103
0000
0000
0100
,
0001
0100
0010
0000
0001
0100
0002
0003
,
2000
3000
0120
0000
1030
0000
0000
0010
,
1000
0010
0100
0000
1000
0100
0002
0003
,
0200
0300
2010
0000
3010
0000
0000
0100
,
0010
0100
0001
0000
0010
0100
0020
0030
,
0200
0300
0012
0000
0013
0000
0000
0000
,
1000
0100
0001
0000
1000
0100
0020
0030
,
0002
0003
1002
0000
1003
0000
0000
0010
,
0100
0010
0001
0000
0100
0010
2000
3000
,
0200
0300
0012
0000
0013
0000
0000
0000
,
0001
0100
0010
0000
0001
0100
0002
0003
,
0200
0300
1002
0000
0103
0000
0100
0000
,
0002
0023
0032
0023
0032
0023
0230
2300
,
0000
0000
0000
0000
0000
0000
0000
3000
,
2000
3200
2300
3200
0000
2300
0000
3200
,
2300
0001
0010
0001
,
0010
3002
1000
2003
,
0001
0100
0001
0010
,
0100
0000
0010
0000
3100
0000
0010
0010
,
0100
0010
0010
0000
0100
0000
0001
0010
,
0001
0000
0100
0000
0001
0000
0010
0000
0001
0000
0100
0000
2002
3003
2002
0000
,
0000
3003
0000
0000
;

//---------------dance-single - Copied from Copied f----------------
#NOTES:
     dance-single:
     Copied from Copied f:
     Easy:
     5:
     0.483,0.874,0.135,0.904,0.034: // measure 1
0002
0000
0000
0000
,  // measure 2
0000
0000
0000
0000
,  // measure 3
2003
3000
0100
0000
0010
0000
0010
0000
0000
0000
0100
0000
1000
0000
0100
0000
,  // measure 4
2000
3000
0010
0000
0000
0000
0010
0000
0100
0000
0010
0000
0010
0000
1000
0000
,  // measure 5
1001
1001
0000
0000
0000
0000
0000
0000
0000
0000
0000
0000
0000
0000
0000
0000
,  // measure 6
2002
3003
0000
0000
0000
0000
0000
0000
0000
0001
0002
0003
0000
0100
0200
0300
,  // measure 7
0001
0000
0001
0100
0001
0000
0001
0000
,  // measure 8
0001
0100
0001
0000
0001
0000
0100
0000
,  // measure 9
1000
0000
0100
1000
0100
0000
0100
0000
,  // measure 10
0100
1000
0100
0000
2000
3000
0200
0300
,  // measure 11
0020
0030
0001
0100
0001
0000
0001
0000
,  // measure 12
0001
0100
0001
0000
1000
0000
0100
0000
,  // measure 13
0010
0000
0100
0010
0100
0000
0100
0000
,  // measure 14
0000
1000
2000
3000
0000
0100
0200
0300
,  // measure 15
0000
0001
0010
0010
,  // measure 16
0010
0000
0100
0000
0010
1000
0010
0000
,  // measure 17
0000
0002
0023
2030
,  // measure 18
3200
0302
0103
0000
,  // measure 19
0000
0001
0100
0001
,  // measure 20
0100
0010
0100
0100
,  // measure 21
0001
0000
0010
1000
0200
0000
0301
0000
,  // measure 22
2000
0000
3200
0300
0020
0000
0032
0003
,  // measure 23
2000
0000
3001
0100
1000
0000
1000
0000
,  // measure 24
1000
0010
0001
0000
0001
0000
0100
0000
,  // measure 25
0010
0000
1000
0010
0100
0000
0100
0000
,  // measure 26
0100
0010
1000
0000
0020
0030
0200
0300
,  // measure 27
0002
0003
0100
0100
0001
0000
0001
0000
,  // measure 28
0100
0100
0001
0000
0001
0000
0100
0000
,  // measure 29
1000
0000
1000
0001
1000
0000
1000
0000
,  // measure 30
0001
0010
0100
0000
0001
0000
0100
0000
,  // measure 31
1002
0000
0000
0000
,  // measure 32
0000
0003
0110
0000
0001
0000
0001
0000
,  // measure 33
0020
0030
0200
0300
1002
0000
0003
0000
,  // measure 34
0001
0010
0001
0010
,  // measure 35
0002
0003
2000
3000
0120
0000
0030
0000
,  // measure 36
0100
1000
0100
1000
,  // measure 37
0002
0003
0200
0300
2010
0000
3000
0000
,  // measure 38
0001
0010
0001
0010
,  // measure 39
0020
0030
0200
0300
0002
0000
0003
0000
,  // measure 40
0100
1000
1000
0010
,  // measure 41
0020
0030
0002
0003
1002
0000
0003
0000
,  // measure 42
0100
0001
0100
0001
,  // measure 43
2000
3000
0200
0300
0012
0000
0003
0000
,  // measure 44
1000
0001
0001
0010
,  // measure 45
0002
0003
0200
0300
1002
0000
0003
0000
,  // measure 46
0000
1000
0000
0000
0010
0000
0010
0000
,  // measure 47
1001
1001
0000
0000
0000
0000
0000
0000
0000
0000
0000
0000
2000
0000
0000
0000
,  // measure 48
3020
0000
0000
0000
0000
0000
0030
0000
0001
0010
0200
0000
0000
0300
0000
0100
,  // measure 49
0002
0003
0000
0000
0100
0001
0100
0000
,  // measure 50
0100
0000
0100
0001
0100
0000
0100
0000
,  // measure 51
0010
0000
1000
0000
0010
0100
0010
0000
,  // measure 52
0010
0000
0010
0100
0010
0000
2000
3000
,  // measure 53
0020
0030
0200
0300
1000
0000
0100
0000
,  // measure 54
0100
1000
0100
0100
,  // measure 55
0010
0000
0001
0000
0001
0100
1000
0000
,  // measure 56
1000
0000
0000
1000
2000
3000
0000
1000
,  // measure 57
2000
0000
3000
0000
2000
3000
0001
0000
0001
0000
0010
0000
0100
0000
1000
0000
,  // measure 58
0001
0100
0100
0001
0001
0100
0010
0001
,  // measure 59
0100
0000
0010
0000
0100
0000
2000
3000
0020
0000
0030
0000
0002
0003
0200
0000
,  // measure 60
0300
0000
0020
0030
0200
0000
0320
0030
0200
0000
0300
0000
0020
0030
0020
0000
,  // measure 61
2030
3000
0002
0000
0003
0000
2000
3000
0020
0000
0032
0003
0200
0000
0300
0000
,  // measure 62
2000
0000
3000
0000
0020
0000
0000
0000
0030
0000
0000
0000
0002
0000
0003
0000
0200
0000
0000
0000
0300
0000
1000
0100
0002
0000
0000
0000
0003
0000
0000
0000
,  // measure 63
0002
0000
0023
0000
0130
0000
2000
3000
0020
0000
0030
0000
0002
0003
0200
0000
,  // measure 64
0300
0000
0020
0030
0200
0000
0320
0030
0200
0000
0300
0000
0010
0000
0001
0000
,  // measure 65
0002
0003
0020
0030
0100
0000
2000
3000
0020
0000
0032
0003
0200
0000
0300
0000
,  // measure 66
2000
3000
0020
0000
0030
0000
0002
0003
0200
0000
0000
0300
2000
3000
2000
3000
,  // measure 67
2000
3000
2000
3000
2000
3000
2000
3000
2000
3000
2000
3000
0200
0300
0200
0300
,  // measure 68
0200
0300
0200
0300
0200
0300
0200
0300
0200
0300
0200
0300
0020
0030
0020
0030
,  // measure 69
0020
0030
0020
0030
0020
0030
0020
0030
0020
0030
0020
0030
0001
0001
0000
0100
,  // measure 70
0100
0000
0001
0000
0000
0001
0000
0000
0001
0020
0030
0000
0001
0000
0000
0000
,  // measure 71
1000
0020
0000
0030
0010
0000
0010
0100
,  // measure 72
0010
0000
0001
0000
0001
0000
2000
3000
,  // measure 73
0002
0003
1002
0000
0103
0000
0000
0000
,  // measure 74
0001
0100
0010
0000
0001
0000
0002
0003
,  // measure 75
2000
3000
0120
0000
1030
0000
0000
0000
,  // measure 76
1000
0010
0100
0000
1000
0000
0002
0003
,  // measure 77
0200
0300
2010
0000
3010
0000
0000
0000
,  // measure 78
0010
0100
0001
0000
0010
0000
0020
0030
,  // measure 79
0200
0300
0012
0000
0013
0000
0000
0000
,  // measure 80
1000
0100
0001
0000
1000
0000
0020
0030
,  // measure 81
0002
0003
1002
0000
1003
0000
0000
0000
,  // measure 82
0100
0010
0001
0000
0100
0000
2000
3000
,  // measure 83
0200
0300
0012
0000
0013
0000
0000
0000
,  // measure 84
0001
0100
0010
0000
0001
0000
0002
0003
,  // measure 85
0200
0300
1002
0000
0103
0000
0100
0000
,  // measure 86
0002
0003
0002
0003
0002
0013
0200
2300
,  // measure 87
0000
0000
0000
0000
0000
0000
0000
3000
,  // measure 88
2000
3000
2000
3200
0000
2300
0000
3200
,  // measure 89
2300
0000
0000
0000
,  // measure 90
0000
3002
0000
2003
,  // measure 91
0001
0100
0001
0010
,  // measure 92
0100
0010
3100
0010
,  // measure 93
0100
0010
0100
1001
,  // measure 94
1001
0000
0000
0000
1001
0000
0000
0000
1001
0000
0000
0000
0002
0003
0002
0000
,  // measure 95
0000
0003
0000
0000
;
