#TITLE:My Mamma Said;
#SUBTITLE:Great Hits;
#ARTIST:Aqua;
#TITLETRANSLIT:;
#SUBTITLETRANSLIT:;
#ARTISTTRANSLIT:;
#GENRE:;
#CREDIT:;
#BANNER:mms-bn.png;
#BACKGROUND:said-bg.png;
#LYRICSPATH:;
#CDTITLE:;
#MUSIC:02-aqua-my_mamma_said(2).mp3;
#OFFSET:-0.800;
#SAMPLESTART:115.520;
#SAMPLELENGTH:16.620;
#SELECTABLE:YES;
#BPMS:0.000=65.140
,29.000=53.760
,30.000=36.000
,31.000=26.060
,32.000=130.000
,88.500=260.000
,88.750=130.000
,89.000=260.000
,89.250=130.000
,89.500=260.000
,89.750=130.000
,90.000=260.000
,90.250=130.000
,91.000=260.000
,91.250=130.000
,91.500=260.000
,91.750=130.000
,92.000=260.000
,92.250=130.000
,92.500=260.000
,92.750=130.000
,93.500=260.000
,93.750=130.000
,94.500=260.000
,94.750=130.000
,95.000=260.000
,95.250=130.000
,95.500=260.000
,95.750=130.000
,96.000=260.000
,96.250=130.000
,124.000=260.000
,124.250=130.000
,125.000=260.000
,125.250=130.000
,126.000=260.000
,126.250=130.000
,127.000=260.000
,127.250=130.000
,195.000=260.000
,197.000=130.000
,200.000=260.000
,202.000=130.000
,205.000=260.000
,207.000=130.000
,211.000=65.000
,221.000=130.000
,229.500=260.000
,229.750=130.000
,230.000=260.000
,230.250=130.000
,230.500=260.000
,230.750=130.000
,231.000=260.000
,231.250=130.000
,232.000=260.000
,232.250=130.000
,232.500=260.000
,232.750=130.000
,233.000=260.000
,233.250=130.000
,233.500=260.000
,233.750=130.000
,234.500=260.000
,234.750=130.000
,235.500=260.000
,235.750=130.000
,236.000=260.000
,236.250=130.000
,236.500=260.000
,236.750=130.000
,237.000=260.000
,237.250=130.000
,237.500=260.000
,237.750=130.000
,238.000=260.000
,238.250=130.000
,238.500=260.000
,238.750=130.000
,239.000=260.000
,239.250=130.000
,240.000=260.000
,240.250=130.000
,240.500=260.000
,240.750=130.000
,241.000=260.000
,241.250=130.000
,241.500=260.000
,241.750=130.000
,242.500=260.000
,242.750=130.000
,243.500=260.000
,243.750=130.000
,244.000=260.000
,244.250=130.000
,244.500=260.000
,244.750=130.000
,245.000=260.000
,245.250=130.000
,245.500=260.000
,245.750=130.000
,246.000=260.000
,246.250=130.000
,246.500=260.000
,246.750=130.000
,247.000=260.000
,247.250=130.000
,248.000=260.000
,248.250=130.000
,248.500=260.000
,248.750=130.000
,249.000=260.000
,249.250=130.000
,249.500=260.000
,249.750=130.000
,253.000=65.000
,254.000=130.000
;
#STOPS:88.500=0.058,
89.000=0.058,
89.500=0.058,
90.000=0.058,
91.000=0.058,
91.500=0.058,
92.000=0.058,
92.500=0.058,
93.500=0.058,
94.500=0.058,
95.000=0.058,
95.500=0.058,
96.000=0.058,
124.000=0.058,
125.000=0.058,
126.000=0.058,
127.000=0.058,
192.500=0.020,
193.000=0.020,
229.500=0.058,
230.000=0.058,
230.500=0.058,
231.000=0.058,
232.000=0.058,
232.500=0.058,
233.000=0.058,
233.500=0.058,
234.500=0.058,
235.500=0.058,
236.000=0.058,
236.500=0.058,
237.000=0.058,
237.500=0.058,
238.000=0.058,
238.500=0.058,
239.000=0.058,
240.000=0.058,
240.500=0.058,
241.000=0.058,
241.500=0.058,
242.500=0.058,
243.500=0.058,
244.000=0.058,
244.500=0.058,
245.000=0.058,
245.500=0.058,
246.000=0.058,
246.500=0.058,
247.000=0.058,
248.000=0.058,
248.500=0.058,
249.000=0.058,
249.500=0.058
;
#BGCHANGES:0.250=aqua - my mamma said.mpg=1.000=1=0=1===CrossFade==,
8.833=aqua - my mamma said.mpg=1.000=0=0=1=====,
99999=-nosongbg-=1.000=0=0=0 // don't automatically add -songbackground-
;
#KEYSOUNDS:;
#ATTACKS:;

//---------------dance-single - ----------------
#NOTES:
     dance-single:
     :
     Challenge:
     10:
     0.653,0.635,0.500,0.129,0.328,552.000,70.000,18.000,0.000,1.000,0.000,0.653,0.635,0.500,0.129,0.328,552.000,70.000,18.000,0.000,1.000,0.000:
0001
0100
0001
0100
0011
0100
0001
0100
,
0001
0010
0101
0010
0101
1000
0101
0010
,
0001
0010
1001
0010
1001
0010
1001
0010
,
0001
0100
0011
1000
0011
1000
0011
1000
,
0001
0100
0001
0100
0011
0100
0011
0100
,
0001
0010
0101
0010
0101
1000
0101
0010
,
0001
0010
1001
0010
1001
0010
1001
0010
,
0011
0000
0000
0000
0000
0000
0000
0000
0000
0000
0000
0000
0000
0000
0000
0000
0000
0000
0000
0000
0000
0000
0000
0000
0100
0000
0000
0000
0000
0000
0000
0000
0000
0000
0000
0000
0000
0000
0000
0000
0000
0000
0000
0000
0000
0000
0000
0000
0011
0000
0000
0000
0000
0000
0000
0000
0000
0000
0000
0000
0000
0000
0000
0000
0000
0000
0000
0000
0000
0000
0000
0000
0000
0000
0000
0000
0000
0000
0000
0000
0000
0000
0000
0000
0000
0000
0000
0000
0000
0000
0000
0000
0000
0000
0000
0000
0011
0000
0000
0000
0000
0000
0000
0000
0000
0000
0000
0000
0000
0000
0000
0000
0000
0000
1000
0000
0000
0000
0000
0000
0000
0000
0000
0000
0000
0000
0000
0000
0000
0000
0000
0000
0000
0000
0000
0000
0000
0000
0000
0000
0000
0000
0000
0000
0011
0000
0000
0000
0000
0000
0000
0000
0011
0000
0000
0000
0000
0000
0000
0000
0000
0000
0011
0000
0000
0000
0000
0000
0000
0000
0000
0000
0000
0000
0000
0000
0000
0000
0000
0000
0000
0000
0000
0000
0000
0000
0000
0000
0000
0000
0000
0000
,
0001
0010
0100
0001
0010
0100
0001
0010
,
0001
0010
0100
0001
0010
0100
0001
0010
,
0011
0010
0100
0011
0010
0100
0011
0110
,
0011
0010
0100
0011
0010
0100
0011
0110
,
1100
0100
0010
1000
0100
0010
1000
0100
,
1000
0100
0010
1000
0100
0010
1000
0100
,
1100
0100
0010
1100
0100
0010
1100
1001
,
1100
0100
0010
1100
0100
0010
0011
0110
,
1001
0010
0100
0100
0001
0010
0001
0100
,
0001
0010
0100
1000
0001
1000
0010
0100
,
0100
0010
0010
0100
0200
0000
0301
0001
,
0010
0100
0010
0001
1000
0001
0001
0020
,
0030
0010
0100
0100
1000
0100
0010
0100
,
1000
0002
0003
0001
0000
0001
0100
0000
,
0001
0100
0010
0010
0100
0000
0100
0010
,
0010
0100
0000
0100
0000
0100
0010
0010
,
0010
0100
0010
0010
1000
0100
1000
0010
,
1000
0100
0010
0001
1000
0001
0100
0010
,
0010
0100
0100
0010
0020
0000
1030
1000
,
0100
0010
0100
1000
0001
1000
1000
0200
,
0300
0100
0010
0001
0010
0000
0210
0300
,
0000
0100
0010
0001
0010
0000
1010
2000
,
3000
0110
0200
0001
0310
0100
0001
0010
,
1001
1001
1001
1001
,
1001
0000
0100
1000
0100
0000
1000
0100
1000
0000
0100
1000
0100
0000
1000
0100
,
1000
0000
0100
1000
0100
0000
1000
0100
1000
0000
0100
1000
0100
0000
1000
0010
,
0100
0000
0010
0100
0010
0000
0100
0010
0100
0000
0010
0100
0010
0001
0010
0100
,
0001
0000
0010
0001
0010
0000
0001
0010
0001
0000
0010
0001
0010
0100
0010
0001
,
1000
0000
0100
1000
0100
0000
1000
0100
1000
0000
0100
1000
0100
0000
1000
0100
,
1000
0000
0100
1000
0100
0000
1000
0100
1000
0000
0100
1000
0100
0000
1000
0010
,
0100
0000
0010
0100
0010
0000
0100
0010
0100
0000
0010
0100
0010
1000
0010
0100
,
0001
0000
0010
0001
0010
0000
0001
0010
0001
0000
0010
0001
0010
0100
0010
0001
,
0100
0000
0001
0100
0001
0000
0100
0001
0100
0000
0001
0100
0001
0000
0100
0001
,
0100
0000
0001
0100
0001
0000
0100
0001
0100
0000
0001
0100
0001
0000
0100
0001
,
0010
0000
0100
0010
0100
0000
0010
0100
0010
0000
0100
0010
0100
1000
0100
0010
,
0100
0000
1000
0100
1000
0000
0100
1000
0100
0000
1000
0100
1000
0010
1000
0100
,
0010
0000
0001
0010
0001
0000
0010
0001
0010
0000
0001
0010
0001
0000
0010
0001
,
0010
0000
0001
0010
0001
0000
0010
0001
0010
0000
0001
0010
0001
0000
0010
0100
,
0010
0000
0100
0010
0100
0000
0010
0100
0010
0000
0100
0010
0100
0001
0100
0010
,
0100
0000
1000
0100
1000
0000
0100
1000
0100
0000
1000
0100
1000
0010
1000
0100
,
0020
0031
0100
1000
0100
0000
0210
0000
,
0000
0000
0310
0010
0001
0010
0100
0000
,
0120
0000
0000
0000
0130
1000
0010
0010
,
0100
0001
0102
0000
0000
0000
1003
0000
,
1100
0010
0100
0100
0010
0000
0220
0330
,
0000
0000
0000
0000
1001
0010
0100
0100
0001
0010
0001
0100
0001
0010
0100
1000
,
0001
1000
0010
0100
0100
0010
0010
0100
0200
0000
0301
0001
0010
0100
0010
0001
,
1000
0001
0001
0020
1030
0000
0010
0000
0110
0000
0100
0000
1000
0000
0100
0000
,
0110
0100
1000
0002
0113
0001
0000
0001
,
0110
0000
0001
0100
0110
0010
0100
0000
,
0110
0010
0010
0100
0000
0100
0000
0100
,
1010
0010
0010
0100
0110
0010
0100
0000
,
0110
0010
0010
0100
0000
0100
0000
0100
,
1010
0010
0010
0100
0110
0010
0100
0000
,
0110
0000
0100
0000
0100
0000
0010
0000
1100
0000
0001
0100
0001
0100
0001
0000
,
1001
0100
0020
0000
0030
0000
0000
0000
;

//---------------dance-single - Copied from----------------
#NOTES:
     dance-single:
     Copied from:
     Hard:
     8:
     0.522,0.612,0.393,0.236,0.064,424.000,55.000,33.000,0.000,0.000,0.000,0.522,0.612,0.393,0.236,0.064,424.000,55.000,33.000,0.000,0.000,0.000:
0001
0100
0001
0100
0001
0100
0001
0100
,
0001
0010
0001
0010
0001
1000
0001
0010
,
0001
0010
0001
0010
0001
0010
0001
0010
,
0001
0100
0001
1000
0001
1000
0001
1000
,
0001
0100
0001
0100
0001
0100
0001
0100
,
0001
0010
0001
0010
0001
1000
0001
0010
,
0001
0010
0001
0010
0001
0010
0001
0010
,
0001
0000
0000
0000
0000
0000
0000
0000
0000
0000
0000
0000
0000
0000
0000
0000
0000
0000
0000
0000
0000
0000
0000
0000
0100
0000
0000
0000
0000
0000
0000
0000
0000
0000
0000
0000
0000
0000
0000
0000
0000
0000
0000
0000
0000
0000
0000
0000
0001
0000
0000
0000
0000
0000
0000
0000
0000
0000
0000
0000
0000
0000
0000
0000
0000
0000
0000
0000
0000
0000
0000
0000
0000
0000
0000
0000
0000
0000
0000
0000
0000
0000
0000
0000
0000
0000
0000
0000
0000
0000
0000
0000
0000
0000
0000
0000
0001
0000
0000
0000
0000
0000
0000
0000
0000
0000
0000
0000
0000
0000
0000
0000
0000
0000
1000
0000
0000
0000
0000
0000
0000
0000
0000
0000
0000
0000
0000
0000
0000
0000
0000
0000
0000
0000
0000
0000
0000
0000
0000
0000
0000
0000
0000
0000
0011
0000
0000
0000
0000
0000
0000
0000
0011
0000
0000
0000
0000
0000
0000
0000
0000
0000
0011
0000
0000
0000
0000
0000
0000
0000
0000
0000
0000
0000
0000
0000
0000
0000
0000
0000
0000
0000
0000
0000
0000
0000
0000
0000
0000
0000
0000
0000
,
0001
0010
0100
0001
0010
0100
0001
0010
,
0001
0010
0100
0001
0010
0100
0001
0010
,
0001
0010
0100
0001
0010
0100
0001
0100
,
0001
0010
0100
0001
0010
0100
0001
0010
,
1000
0100
0010
1000
0100
0010
1000
0100
,
1000
0100
0010
1000
0100
0010
1000
0100
,
1000
0100
0010
0100
1000
0010
1000
0001
,
1000
0100
0010
1000
0100
0010
0001
0010
,
1000
0010
0100
0100
0001
0010
0001
0100
,
0001
0010
0100
1000
0001
1000
0010
0100
,
0100
0010
0010
0100
0200
0000
0301
0001
,
0010
0100
0010
0001
1000
0001
0001
0020
,
0030
0010
0100
0100
1000
0100
0010
0100
,
1000
0002
0003
0001
0000
0001
0100
0000
,
0001
0100
0010
0010
0100
0000
0100
0010
,
0010
0100
0000
0100
0000
0100
0010
0010
,
0010
0100
0010
0010
1000
0100
1000
0010
,
1000
0100
0010
0001
1000
0001
0100
0010
,
0010
0100
0100
0010
0020
0000
1030
1000
,
0100
0010
0100
1000
0001
1000
1000
0200
,
0300
0100
0010
0001
0010
0000
0020
0030
,
0000
0100
0010
0001
0010
0000
1000
2000
,
3000
0100
0200
0000
0310
0000
0001
0000
,
1001
1001
1001
1001
,
1001
0100
0001
0000
0020
0030
0200
0300
,
0101
0000
0200
0300
0101
0000
0200
0300
,
0101
0000
0200
0300
0101
0000
0200
0300
,
0101
0010
0101
0000
1010
0000
0101
0000
,
1010
0100
0020
0030
1010
0000
0020
0030
,
1010
0000
0010
0100
0001
0010
0001
0000
,
0101
0000
0200
0300
0101
0000
0200
0300
,
0101
0000
0101
1001
0100
1000
0020
0000
,
1030
0100
1000
0000
0010
0100
0001
0000
,
0011
0101
0011
0101
,
0001
0010
0100
0000
0100
0010
0001
0000
,
1100
1010
1100
1010
,
1001
0100
0020
0030
0110
0000
0020
0030
,
0110
0000
0020
0130
0010
1000
0010
0000
,
0101
0000
0002
0003
0101
0000
0002
0003
,
0101
0000
0101
1001
0010
0100
0101
0010
,
0010
0001
0100
0010
0100
0000
0210
0000
,
0000
0000
0300
0010
0001
0010
0100
0000
,
0120
0000
0000
0000
0030
1000
0010
0010
,
0100
0001
0102
0000
0000
0000
0003
0000
,
0000
0010
0100
0100
0010
0000
0220
0330
,
0000
0000
0000
0000
1001
0010
0100
0100
0001
0010
0001
0100
0001
0010
0100
1000
,
0001
1000
0010
0100
0100
0010
0010
0100
0200
0000
0301
0001
0010
0100
0010
0001
,
1000
0001
0001
0020
1030
0000
0010
0000
1000
0000
0100
0000
1000
0000
0100
0000
,
0010
0100
1000
0002
0103
0001
0000
0001
,
0100
0000
0001
0100
0110
0010
0100
0000
,
0110
0010
0010
0100
0000
0100
0000
0100
,
1010
0010
0010
0100
0110
0010
0100
0000
,
0110
0010
0010
0100
0000
0100
0000
0100
,
1010
0010
0010
0100
0110
0010
0100
0000
,
0110
0100
0100
0010
1100
0001
0010
0001
,
1000
0100
0020
0000
0030
0000
0000
0000
;

//---------------dance-single - Copied from Copied f----------------
#NOTES:
     dance-single:
     Copied from Copied f:
     Medium:
     6:
     0.404,0.499,0.036,0.243,0.043,357.000,5.000,34.000,0.000,0.000,0.000,0.404,0.499,0.036,0.243,0.043,357.000,5.000,34.000,0.000,0.000,0.000:
0001
0000
0001
0000
0001
0100
0001
0100
,
0001
0000
0001
0000
0001
1000
0001
0010
,
0001
0000
0001
0000
0001
0010
0001
0010
,
0001
0000
0001
0000
0001
1000
0001
1000
,
0001
0000
0001
0000
0001
0100
0001
0100
,
0001
0000
0001
0000
0001
1000
0001
0010
,
0001
0000
0001
0000
0001
0010
0001
0010
,
0001
0000
0000
0000
0000
0000
0000
0000
0000
0000
0000
0000
0000
0000
0000
0000
0000
0000
0000
0000
0000
0000
0000
0000
0000
0000
0000
0000
0000
0000
0000
0000
0000
0000
0000
0000
0000
0000
0000
0000
0000
0000
0000
0000
0000
0000
0000
0000
0001
0000
0000
0000
0000
0000
0000
0000
0000
0000
0000
0000
0000
0000
0000
0000
0000
0000
0000
0000
0000
0000
0000
0000
0000
0000
0000
0000
0000
0000
0000
0000
0000
0000
0000
0000
0000
0000
0000
0000
0000
0000
0000
0000
0000
0000
0000
0000
0001
0000
0000
0000
0000
0000
0000
0000
0000
0000
0000
0000
0000
0000
0000
0000
0000
0000
1000
0000
0000
0000
0000
0000
0000
0000
0000
0000
0000
0000
0000
0000
0000
0000
0000
0000
0000
0000
0000
0000
0000
0000
0000
0000
0000
0000
0000
0000
0001
0000
0000
0000
0000
0000
0000
0000
0001
0000
0000
0000
0000
0000
0000
0000
0000
0000
0001
0000
0000
0000
0000
0000
0000
0000
0000
0000
0000
0000
0000
0000
0000
0000
0000
0000
0000
0000
0000
0000
0000
0000
0000
0000
0000
0000
0000
0000
,
0001
0010
0100
0001
0010
0100
0001
0000
,
0001
0010
0100
0001
0010
0100
0001
0000
,
0001
0010
0100
0001
0010
0100
0001
0000
,
0001
0010
0100
0001
0010
0100
0001
0000
,
1000
0100
0010
1000
0100
0010
1000
0000
,
1000
0100
0010
1000
0100
0010
1000
0000
,
1000
0100
0010
1000
0100
0010
1000
0000
,
1000
0100
0010
1000
0100
0010
1000
0000
,
1000
0010
0100
0100
0001
0000
0001
0000
,
0001
0010
0100
0000
0001
0000
0010
0100
,
0100
0000
0010
0100
0200
0000
0301
0001
,
0010
0000
0010
0001
1000
0001
0001
0020
,
0030
0010
0100
0100
1000
0000
0010
0000
,
1000
0002
0003
0001
0000
0001
0100
0000
,
0001
0100
0020
0000
0130
0000
0100
0020
,
0000
0130
0000
0100
0000
0100
0020
0000
,
0030
0100
0010
0010
1000
0000
1000
0000
,
1000
0100
0010
0000
1000
0001
0100
0010
,
0010
0000
0100
0010
0020
0000
1030
1000
,
0100
0000
0100
1000
0001
1000
1000
0200
,
0300
0000
0010
0001
0010
0000
0020
0030
,
0000
0000
0010
1000
0010
0000
1000
2000
,
3000
0100
0200
0000
0310
0000
0001
0000
,
1000
1000
1000
1000
,
1000
0000
0001
0000
0020
0030
0200
0300
,
0001
0000
0200
0300
0001
0000
0200
0300
,
0001
0000
0200
0300
0001
0000
0200
0300
,
0001
0010
0001
0000
1000
0000
0001
0000
,
0010
0100
0020
0030
1000
0000
0020
0030
,
1000
0000
0010
0100
0001
0000
0001
0000
,
0100
0000
0200
0300
0100
0000
0200
0300
,
0100
0000
0100
0001
0100
0000
0020
0000
,
1030
0000
1000
0000
0010
0100
0001
0000
,
0010
0100
0010
0100
,
0001
0010
0100
0000
0100
0000
0001
0000
,
0100
0010
0100
0010
,
0001
0100
0020
0030
0010
0000
0020
0030
,
0010
0000
0020
0130
0010
0000
0010
0000
,
0001
0000
0002
0003
0001
0000
0002
0003
,
0001
0000
0001
1000
0010
0000
0001
0000
,
0010
0000
0100
0010
0100
0000
0200
0000
,
0000
0000
0300
0000
0001
0010
0100
0000
,
0020
0000
0000
0000
0030
0000
0010
0010
,
0100
0001
0002
0000
0000
0000
0003
0000
,
0000
0010
0100
0100
0010
0000
0020
0030
,
0000
0000
0000
0000
1001
0010
0100
0100
0001
0000
0001
0000
0001
0010
0100
0000
,
0001
1000
0010
0000
0100
0010
0010
0100
0200
0000
0301
0001
0010
0000
0010
0001
,
1000
0000
0001
0020
1030
0000
0000
0000
1100
0000
0000
0000
1000
0000
0000
0000
,
0110
1000
0101
0010
,
0101
0000
0001
0100
0010
0010
0100
0000
,
0100
0010
0010
0100
0000
0100
0000
0100
,
0010
0010
0010
0100
0010
0010
0100
0000
,
0100
0010
0010
0100
0000
0100
0000
0100
,
0010
0010
0010
0100
0010
0010
0100
0000
,
0010
0100
0100
0010
1000
0000
0001
0000
,
1000
0100
0020
0000
0030
0000
0000
0000
;

//---------------dance-single - ----------------
#NOTES:
     dance-single:
     :
     Easy:
     4:
     0.319,0.385,0.036,0.300,0.018,266.000,5.000,42.000,0.000,0.000,0.000,0.319,0.385,0.036,0.300,0.018,266.000,5.000,42.000,0.000,0.000,0.000: // measure 0
0001
0000
0001
0000
0001
0100
0001
0000
,  // measure 1
0001
0000
0001
0000
0001
1000
0001
0000
,  // measure 2
0001
0000
0001
0000
0001
0010
0001
0000
,  // measure 3
0001
0000
0001
0000
0001
1000
0001
0000
,  // measure 4
0001
0000
0001
0000
0001
0100
0001
0000
,  // measure 5
0001
0000
0001
0000
0001
1000
0001
0000
,  // measure 6
0001
0000
0001
0000
0001
0010
0001
0000
,  // measure 7
0001
0000
0000
0000
0000
0000
0000
0000
0000
0000
0000
0000
0000
0000
0000
0000
0000
0000
0000
0000
0000
0000
0000
0000
0000
0000
0000
0000
0000
0000
0000
0000
0000
0000
0000
0000
0000
0000
0000
0000
0000
0000
0000
0000
0000
0000
0000
0000
0001
0000
0000
0000
0000
0000
0000
0000
0000
0000
0000
0000
0000
0000
0000
0000
0000
0000
0000
0000
0000
0000
0000
0000
0000
0000
0000
0000
0000
0000
0000
0000
0000
0000
0000
0000
0000
0000
0000
0000
0000
0000
0000
0000
0000
0000
0000
0000
0001
0000
0000
0000
0000
0000
0000
0000
0000
0000
0000
0000
0000
0000
0000
0000
0000
0000
1000
0000
0000
0000
0000
0000
0000
0000
0000
0000
0000
0000
0000
0000
0000
0000
0000
0000
0000
0000
0000
0000
0000
0000
0000
0000
0000
0000
0000
0000
0001
0000
0000
0000
0000
0000
0000
0000
0001
0000
0000
0000
0000
0000
0000
0000
0000
0000
0001
0000
0000
0000
0000
0000
0000
0000
0000
0000
0000
0000
0000
0000
0000
0000
0000
0000
0000
0000
0000
0000
0000
0000
0000
0000
0000
0000
0000
0000
,  // measure 8
0001
0010
0001
0010
,  // measure 9
0001
0100
0001
0100
,  // measure 10
0001
0000
0000
0001
0000
0000
0001
0000
,  // measure 11
0001
0100
0010
0001
,  // measure 12
1000
0010
1000
0010
,  // measure 13
1000
0100
1000
0100
,  // measure 14
1000
0000
0000
1000
0000
0000
1000
0000
,  // measure 15
1000
0010
0100
1000
,  // measure 16
1000
0000
0100
0100
0001
0000
0001
0000
,  // measure 17
0001
0100
0001
0010
,  // measure 18
0100
0010
0200
0301
,  // measure 19
0010
0000
0010
0000
1000
0000
0001
0020
,  // measure 20
0030
0000
0100
0100
1000
0000
0010
0000
,  // measure 21
1000
0002
0003
0001
0000
0001
0100
0000
,  // measure 22
0001
0020
0000
0000
0130
0000
0020
0000
,  // measure 23
0000
0130
0000
0100
0000
0200
0000
0000
,  // measure 24
0000
0310
0010
0000
1000
0000
1000
0000
,  // measure 25
1000
0010
1000
0100
,  // measure 26
0010
0000
0100
0010
0020
0000
1030
0000
,  // measure 27
0100
0000
0100
0000
0001
0000
1000
0200
,  // measure 28
0300
0000
0010
0000
0010
0000
0020
0030
,  // measure 29
0000
0000
0010
0000
0010
0000
1000
2000
,  // measure 30
3000
0100
0200
0000
0310
0000
0001
0000
,  // measure 31
1000
1000
1000
1000
,  // measure 32
1000
0000
0001
0000
0020
0030
0200
0300
,  // measure 33
0001
0000
0200
0300
0001
0000
0200
0300
,  // measure 34
0001
0000
0200
0300
0001
0000
0200
0300
,  // measure 35
0001
0001
1000
0001
,  // measure 36
0010
0000
0020
0030
1000
0000
0020
0030
,  // measure 37
1000
0010
0001
0001
,  // measure 38
0100
0000
0200
0300
0100
0000
0200
0300
,  // measure 39
0100
0100
0100
0020
,  // measure 40
1030
1000
0010
0001
,  // measure 41
0010
0100
0010
0100
,  // measure 42
0001
0100
0100
0001
,  // measure 43
0100
0010
0100
0010
,  // measure 44
0001
0000
0020
0030
0010
0000
0020
0030
,  // measure 45
0010
0000
0020
0030
0010
0000
0010
0000
,  // measure 46
0001
0000
0002
0003
0001
0000
0002
0003
,  // measure 47
0001
0001
0010
0001
,  // measure 48
0010
0100
0100
0200
,  // measure 49
0000
0300
0001
0100
,  // measure 50
0020
0000
0030
0010
,  // measure 51
0100
0002
0000
0003
,  // measure 52
0000
0000
0100
0100
0010
0000
0020
0030
,  // measure 53
0000
0000
0000
0000
1001
0000
0100
0100
0001
0000
0001
0000
0001
0000
0100
0000
,  // measure 54
0001
0010
0100
0010
0200
0301
0010
0010
,  // measure 55
1000
0000
0001
0020
1030
0000
0000
0000
1100
0000
0000
0000
1000
0000
0000
0000
,  // measure 56
0110
1000
0101
0010
,  // measure 57
0101
0000
0001
0200
0000
0000
0310
0000
,  // measure 58
0020
0000
0000
0130
0000
0100
0000
0200
,  // measure 59
0000
0000
0310
0200
0000
0000
0310
0000
,  // measure 60
0200
0000
0000
0310
0000
0100
0000
0200
,  // measure 61
0000
0000
0310
0200
0000
0000
0310
0000
,  // measure 62
0020
0000
0000
0130
0000
0000
0001
0000
,  // measure 63
1000
0100
0020
0000
0030
0000
0000
0000
;
