#TITLE:Fly Into Your Soul;
#SUBTITLE:Robo-Z Stage;
#ARTIST:Bust-a-Groove;
#TITLETRANSLIT:;
#SUBTITLETRANSLIT:;
#ARTISTTRANSLIT:;
#GENRE:;
#CREDIT:;
#BANNER:robo-bN.PNG;
#BACKGROUND:robo-bg.PNG;
#LYRICSPATH:;
#CDTITLE:;
#MUSIC:robo z(2).mp3;
#OFFSET:6.600;
#SAMPLESTART:27.360;
#SAMPLELENGTH:12.000;
#LASTBEATHINT:4.938;
#SELECTABLE:YES;
#BPMS:0.000=60.000
,6.000=139.980
;
#STOPS:0.000=0.625
;
#BGCHANGES:0.063=get_video robo z vs frida .avi=1.000=0=0=1=====,
0.083=robo-bg.png=1.000=0=0=1===CrossFade_Faster==,
6.250=Video.avi=1.000=0=0=1===CrossFade_Faster==,
302.000=robo-bg.png=1.000=0=0=1===CrossFade_Faster==,
99999=-nosongbg-=1.000=0=0=0 // don't automatically add -songbackground-
;
#KEYSOUNDS:;
#ATTACKS:;

//---------------dance-single - ----------------
#NOTES:
     dance-single:
     :
     Challenge:
     12:
     1.000,1.000,1.000,0.243,0.754,700.000,264.000,32.000,0.000,3.000,0.000,1.000,1.000,1.000,0.243,0.754,700.000,264.000,32.000,0.000,3.000,0.000: // measure 0
0000
0000
0000
0000
,  // measure 1
0000
0000
1001
1001
,  // measure 2
1001
1001
1001
1001
,  // measure 3
1001
0000
1001
0110
1001
0000
1001
0000
,  // measure 4
1001
1001
1001
1001
,  // measure 5
1001
0000
0000
1000
0010
0000
0100
0000
1001
0000
0000
0000
1001
0000
0000
0000
,  // measure 6
1001
1001
1001
1001
,  // measure 7
1001
0000
1001
1001
0101
0101
1010
1010
,  // measure 8
0101
0101
1001
1001
0110
0000
0101
0000
,  // measure 9
1100
0000
0000
0000
0101
0000
0000
0000
0001
1000
0000
1000
0001
0000
0010
0100
,  // measure 10
1000
0000
1000
0000
0101
0000
0101
0000
1000
0001
0000
0001
0100
0000
0010
0100
,  // measure 11
1000
0000
1000
0000
0110
0000
0110
0000
0001
0010
0000
0010
0100
0000
1000
0010
,  // measure 12
0100
0000
0100
0000
1001
0000
1001
0000
0010
0100
0000
0100
0010
0000
1000
0001
,  // measure 13
0100
0000
0100
0001
0001
0000
1001
0000
0100
0010
0000
0010
1000
0000
0001
0010
,  // measure 14
0100
0000
0100
0000
1001
0000
1001
0000
0001
0010
0000
0010
0100
0000
1000
0100
,  // measure 15
0001
0000
0001
0000
1100
0000
1100
0000
0010
0100
0000
0100
0001
0000
1000
0001
,  // measure 16
0010
0000
0010
0000
1100
0000
1100
0000
0001
1000
0000
1000
0001
0000
0010
0100
,  // measure 17
0001
0010
0001
0000
1000
0010
1000
0000
2002
0000
3003
0000
0010
0000
2002
0000
,  // measure 18
3003
0100
0101
0002
0023
0000
0230
2300
,  // measure 19
3101
0000
1001
0101
2002
3003
0010
2002
,  // measure 20
3003
0100
1100
2000
3020
0000
0230
0302
,  // measure 21
1103
0000
0000
0001
1001
0000
0010
0000
2002
0000
3003
0000
0010
0000
2002
0000
,  // measure 22
3003
0100
0101
0002
0023
0000
0230
2300
,  // measure 23
3101
0000
1001
0101
2002
3003
0010
2002
,  // measure 24
3003
0000
0100
0000
1100
0000
2000
0000
3020
0000
0000
0000
0130
0000
0001
0100
,  // measure 25
0001
0100
0001
0100
0001
1000
0001
1000
1001
0000
0110
0000
1010
0000
0001
0100
,  // measure 26
0001
0010
0100
0010
1001
0000
1000
0001
1000
0010
0100
0010
1000
0100
0010
0001
,  // measure 27
0010
0100
1000
0100
1001
0000
0110
0000
0000
0000
1001
0000
0101
0000
1000
0100
,  // measure 28
1000
0010
0100
0001
0110
0000
0100
1000
0100
0010
0001
0010
0100
1000
0010
0100
,  // measure 29
0001
0010
0001
0100
1001
0000
0110
0000
0000
0000
1001
0000
0101
0000
0010
1000
,  // measure 30
0010
0100
0001
0010
0101
0000
1000
0010
0100
0001
0010
0001
0100
0010
1000
0010
,  // measure 31
0100
0001
0010
0100
1001
0000
0110
0000
0000
0000
1001
0000
0101
0000
1000
0100
,  // measure 32
1000
0010
0100
0001
1010
0000
1000
0001
0010
0100
0010
0100
1000
0100
1000
0100
,  // measure 33
0010
0001
0010
0001
0010
0001
0010
0001
1000
0001
1000
0001
1000
0001
1000
0001
1001
0000
0000
0000
0000
0000
0000
0000
1001
0000
0000
0000
0101
0000
0000
0000
,  // measure 34
1001
1100
0110
0011
0110
0000
1010
0110
,  // measure 35
1001
0000
1001
0000
0000
0011
0110
0011
,  // measure 36
0000
1001
0000
0101
1001
0110
1001
0000
,  // measure 37
1001
0110
0000
0100
1001
0011
1100
0011
,  // measure 38
0101
1010
0110
0101
1001
0110
0011
1001
,  // measure 39
0011
0000
1100
0000
0000
0110
1001
0101
,  // measure 40
0000
0101
0000
0100
1001
0011
1001
0000
,  // measure 41
0001
0010
0001
0010
0001
0010
0001
0010
0100
1000
0100
1000
0100
1000
0100
1000
1100
0000
0001
0000
0000
0000
0001
0000
1000
0000
0000
0000
0100
0000
0010
0000
,  // measure 42
0001
0000
0001
0000
1010
0000
1010
0000
0001
1000
0000
1000
0010
0000
0100
0010
,  // measure 43
0001
0000
0001
0000
0110
0000
0110
0000
1000
0100
0000
0100
0010
0000
0001
0100
,  // measure 44
0010
0000
0010
0000
1001
0000
1001
0000
0100
0010
0000
0010
0100
0000
0001
1000
,  // measure 45
0010
0000
0010
1000
1000
0000
1001
0000
0010
0100
0000
0100
0001
0000
1000
0100
,  // measure 46
0010
0000
0010
0000
1001
0000
1001
0000
1000
0100
0000
0100
0010
0000
0001
0010
,  // measure 47
1000
0000
1000
0000
0011
0000
0011
0000
0100
0010
0000
0010
1000
0000
0001
1000
,  // measure 48
0100
0000
0100
0000
0011
0000
0011
0000
1000
0001
0000
0001
1000
0000
0100
0010
,  // measure 49
1000
0100
1000
0000
0001
0100
0001
0000
1001
0000
0110
0000
1010
0000
0001
0100
,  // measure 50
0001
0010
0100
0010
1001
0000
1000
0001
1000
0010
0100
0010
1000
0100
0010
0001
,  // measure 51
0010
0100
1000
0100
1001
0000
0110
0000
0000
0000
1001
0000
0101
0000
1000
0100
,  // measure 52
1000
0010
0100
0001
0110
0000
0100
1000
0100
0010
0001
0010
0100
1000
0010
0100
,  // measure 53
0001
0010
0001
0100
1001
0000
0110
0000
0000
0000
1001
0000
0101
0000
0010
1000
,  // measure 54
0010
0100
0001
0010
0101
0000
1000
0010
0100
0001
0010
0001
0100
0010
1000
0010
,  // measure 55
0100
0001
0010
0100
1001
0000
0110
0000
0000
0000
1001
0000
0101
0000
1000
0100
,  // measure 56
1000
0010
0100
0001
1010
0000
1000
0001
0010
0100
0010
0100
1000
0100
1000
0100
,  // measure 57
0110
0110
0110
0110
1001
1001
1001
1001
1001
0000
0000
0000
1001
0000
1010
0000
,  // measure 58
1001
0011
0110
1100
0110
0000
0101
0110
,  // measure 59
1001
0000
1001
0000
0000
1100
0110
1100
,  // measure 60
0000
1001
0000
1010
1001
0110
1001
0000
,  // measure 61
1001
0110
0000
0010
1001
1100
0011
1100
,  // measure 62
1010
0101
0110
1010
1001
0110
1100
1001
,  // measure 63
1100
0000
0011
0000
0000
0110
1001
1010
,  // measure 64
0000
1010
0000
0010
1001
1100
1001
0000
,  // measure 65
1000
0100
1000
0100
1000
0100
1000
0100
0010
0001
0010
0001
0010
0001
0010
0001
1001
0000
0000
0000
0001
0000
0000
0000
0011
0000
0000
0000
1001
0000
0000
0000
,  // measure 66
0001
0110
1100
0110
1010
0001
0110
1100
,  // measure 67
0001
0010
1000
0101
1001
0100
0110
1001
,  // measure 68
0010
0101
1100
1001
0110
1000
0110
0101
,  // measure 69
1000
0000
0010
0001
1001
0000
0010
0000
1001
0000
0100
0000
0010
0000
1001
0000
,  // measure 70
0010
0101
0110
0101
1010
0001
1100
0101
,  // measure 71
1000
0010
1001
0101
1001
1001
0110
0110
,  // measure 72
0101
0000
0101
0000
1100
0000
1100
0000
0011
0100
0011
0100
0011
0100
0011
1000
,  // measure 73
0011
1000
0011
1000
0011
1000
0011
1000
1001
0100
0010
0100
0001
0000
0010
0100
,  // measure 74
1000
0001
1000
0100
0010
0000
1000
0100
1000
0010
0100
0001
0010
0000
1000
0100
,  // measure 75
1000
0100
0010
0001
0010
0001
0010
0100
2002
0000
0000
0000
3003
0000
0000
0000
;

//---------------dance-single - ----------------
#NOTES:
     dance-single:
     :
     Hard:
     9:
     0.683,0.718,0.440,0.318,0.152,531.000,58.000,42.000,0.000,0.000,0.000,0.683,0.718,0.440,0.318,0.152,531.000,58.000,42.000,0.000,0.000,0.000:
0000
0000
0000
0000
,
0000
0000
1001
1001
,
1001
1001
1001
1001
,
1001
0000
1001
0010
1001
0000
1001
0000
,
1001
1001
1001
1001
,
1001
0000
0010
0100
1001
0000
1001
0000
,
1001
1001
1001
1001
,
1001
0000
1000
1000
0001
0001
1000
1000
,
0001
0001
1000
1000
0110
0000
0110
0000
,
0110
0000
0000
0000
0110
0000
0000
0000
0001
0000
1000
0000
0001
0000
0010
0100
,
1000
0000
1000
0000
0001
0000
0001
0000
1000
0000
0010
0000
1000
0000
0010
0100
,
0001
0000
0001
0000
0100
0000
0100
0000
0001
0000
0010
0000
0001
0000
1000
0010
,
0100
0000
0100
0000
0001
0000
0001
0000
0010
0000
0100
0000
0010
0000
1000
0001
,
0100
0000
0100
0000
0001
0000
0001
0000
0100
0000
0010
0000
0100
0000
0001
0010
,
0100
0000
0100
0000
1000
0000
1000
0000
0001
0000
0010
0000
0100
0000
1000
0100
,
0010
0000
0010
0000
0100
0000
0100
0000
0010
0000
0001
0000
0100
0000
0001
0010
,
0100
0000
0100
0000
1000
0000
1000
0000
0001
0000
1000
0000
0001
0000
0010
0100
,
1000
1000
0100
0100
0002
0003
0010
0002
,
0003
0100
0001
0002
0023
0000
0230
2300
,
3000
0000
0001
0100
0002
0003
0010
0002
,
0003
0100
1000
2000
3020
0000
0230
0302
,
0003
0000
0000
0001
1000
0000
0010
0000
0002
0000
0003
0000
0010
0000
0002
0000
,
0003
0100
0001
0002
0023
0000
0230
2300
,
3000
0000
0001
0100
0002
0003
0010
0002
,
0003
0000
0100
0000
1000
0000
2000
0000
3020
0000
0000
0100
0030
0000
0100
0000
,
0000
0000
0010
0100
0010
0000
0010
0000
0010
0000
1000
0000
0001
0000
1000
0000
,
0001
0100
0001
1000
1000
0100
1000
0010
,
0010
1000
0001
0110
0000
1000
0001
1000
,
0010
0100
0001
0100
0001
0010
0100
0010
,
1000
0001
1000
0110
0000
0001
1000
0001
,
1000
0010
1000
0001
0001
0010
0001
0100
,
0100
0001
1000
0110
0000
0001
1000
0001
,
0100
0010
1000
0010
1001
1001
0110
0110
,
1000
0001
1000
0001
1000
0001
1000
0001
1000
0000
0000
0000
0001
0000
0100
0000
,
0001
0100
0010
0001
0010
0000
1000
0010
,
1000
0000
1001
0000
0000
0001
0100
0001
,
0000
0001
0000
0100
0001
0100
0001
0000
,
1001
0110
0000
0100
0001
0010
0100
0001
,
0100
0010
0100
0001
1000
0010
0001
1000
,
0001
0000
1100
0000
0000
0100
0001
0100
,
0000
0100
0000
0100
1000
0011
1001
0000
,
0001
0010
0001
0010
0100
1000
0100
1000
0010
0000
1000
0000
0001
0000
0100
0010
,
1000
0000
1000
0000
0010
0000
0010
0000
0001
0000
1000
0000
0010
0000
0100
0010
,
1000
0000
1000
0000
0010
0000
0010
0000
1000
0000
0100
0000
0010
0000
0001
0100
,
0010
0000
0010
0000
1000
0000
1000
0000
0100
0000
0010
0000
0100
0000
1000
0100
,
0010
0000
0010
0000
0001
0000
0001
0000
0010
0000
0100
0000
1000
0000
0010
0100
,
0010
0000
0010
0000
0100
0000
0100
0000
0001
0000
1000
0000
0010
0000
0001
0010
,
1000
0000
1000
0000
0001
0000
0001
0000
0100
0000
0010
0000
1000
0000
0001
1000
,
0100
0000
0100
0000
0010
0000
0010
0000
1000
0000
0001
0000
1000
0000
0100
0010
,
1000
1000
0001
0001
1000
0100
0010
0001
,
0010
0100
1000
0010
1000
0001
0010
0001
,
0100
0001
1000
0110
0000
1000
0001
0100
,
0001
0010
0001
1000
0010
0100
0001
0010
,
0001
0010
0100
1001
0000
0010
0100
1000
,
0010
0100
0001
1000
0001
0010
0100
1000
,
0100
0001
0100
1010
0000
0100
1000
0010
,
0100
0001
1000
0001
0010
0100
1000
0100
,
0110
0110
1001
1001
0110
0000
1000
0010
,
1000
0001
0010
0100
0010
0000
0001
0100
,
0001
0000
0001
0000
0000
1000
0010
1000
,
0000
1000
0000
0010
0001
0100
0001
0000
,
1000
0010
0000
0010
1000
0100
0001
0100
,
1000
0001
0100
0010
1000
0010
0100
0001
,
0100
0000
0100
0000
0000
0100
0001
1000
,
0000
1000
0000
0010
0001
0100
0001
0000
,
1000
0100
1000
0100
0010
0001
0010
0001
2000
0000
3000
0000
0010
0000
2000
0000
,
3000
0100
0001
0002
0023
0000
0230
2300
,
3001
0000
0001
0100
0002
0003
0010
0002
,
0003
0100
1000
2000
3020
0000
0230
0302
,
1003
0000
0000
0001
1000
0000
0010
0000
0002
0000
0003
0000
0010
0000
0002
0000
,
0003
0100
0001
0002
0023
0000
0230
2300
,
3001
0000
0001
0100
0001
0001
0010
0010
,
1100
0000
1100
0000
1001
0000
1001
0000
1020
0000
0000
0100
0030
0000
0100
0010
,
0100
0010
0100
0010
0100
0010
0100
0010
0100
0000
0000
0000
1001
0000
0000
0000
,
1001
1001
1001
1001
,
1001
0000
0000
0000
1000
0100
0010
0100
2000
0000
0000
0000
3000
0000
0000
0000
;

//---------------dance-single - ----------------
#NOTES:
     dance-single:
     :
     Medium:
     6:
     0.467,0.488,0.243,0.197,0.008,373.000,32.000,26.000,0.000,0.000,0.000,0.467,0.488,0.243,0.197,0.008,373.000,32.000,26.000,0.000,0.000,0.000:
0000
0000
0000
0000
,
0000
0000
1000
1000
,
1000
1000
1000
1000
,
1000
0000
1000
0010
1000
0000
1000
0000
,
1000
1000
1000
1000
,
1000
0000
0010
0100
1000
0000
1000
0000
,
1000
1000
1000
1000
,
1000
0000
1000
1000
0001
0001
1000
1000
,
0001
0001
1000
1000
0010
0000
0010
0000
,
0010
0010
0001
0101
,
1000
1000
0001
0001
1000
0000
1010
0000
,
0001
0001
0100
0100
0001
0000
1001
0000
,
0100
0100
0001
0001
0010
0000
1010
0000
,
0100
0100
0001
0001
0100
0000
0110
0000
,
0100
0100
1000
1000
0001
0000
0101
0000
,
0010
0010
0100
0100
0010
0000
0101
0000
,
0100
0100
1000
1000
0001
0000
1001
0000
,
1000
1000
0100
0100
0002
0003
0010
0002
,
0003
0100
0001
0000
0020
0000
0000
0100
,
0030
0000
0001
0000
0002
0003
0010
0002
,
0003
0010
0002
0000
0023
0000
0000
0100
,
0030
0000
1000
0000
0002
0003
0010
0002
,
0003
0100
0001
0000
0020
0000
0000
1000
,
0030
0000
0001
0000
0002
0003
0010
0002
,
0003
0000
0100
0000
1000
0000
0000
0000
0020
0000
0000
0100
0030
0000
0100
0000
,
0000
0010
0010
0010
0010
0000
0001
1000
,
0001
0001
1000
1000
,
0010
0000
0001
0100
0000
1000
0001
0000
,
0010
0001
0001
0100
,
1000
0000
1000
0010
0000
0001
1000
0000
,
1000
1000
0001
0001
,
0100
0000
1000
0010
0000
0001
1000
0000
,
0100
0000
1000
0000
0001
0001
0010
0010
,
1000
0100
0010
0001
1001
0000
0001
0000
,
0001
0000
0010
0000
0010
0000
1000
0010
,
1000
0000
1000
0000
0000
0001
0000
0001
,
0000
0001
0000
0100
0001
0000
0001
0000
,
0001
0010
0000
0100
0001
0000
0100
0000
,
0100
0100
1000
0001
,
0001
0000
1000
0000
0000
0100
0000
0100
,
0000
0100
0000
0100
1000
0001
1000
0000
,
0011
0011
1100
1100
0010
0000
0101
0000
,
1000
1000
0010
0010
0001
0000
0110
0000
,
1000
1000
0010
0010
1000
0000
0110
0000
,
0010
0010
1000
1000
0100
0000
0110
0000
,
0010
0010
0001
0001
0010
0000
1010
0000
,
0010
0010
0100
0100
0001
0000
1010
0000
,
1000
1000
0001
0001
0100
0000
1010
0000
,
0100
0100
0010
0010
1000
0000
1001
0000
,
1000
1000
0001
0001
0010
0000
0001
1000
,
0001
0001
1000
1000
,
0010
0000
0001
0100
0000
1000
0001
0000
,
0010
0001
0001
0100
,
1000
0000
1000
0010
0000
0001
1000
0000
,
1000
1000
0001
0001
,
0100
0000
1000
0010
0000
0001
1000
0000
,
0100
0000
1000
0000
0001
0001
0010
0010
,
1000
0100
0010
0001
1001
0000
1000
0010
,
1000
0010
0010
0001
,
0001
0000
0001
0000
0000
1000
0000
1000
,
0000
1000
0000
0010
0001
0000
0001
0000
,
1000
0010
0000
0000
1000
0000
0001
0000
,
1000
0100
1000
0100
,
0100
0000
0100
0000
0000
0100
0000
1000
,
0000
1000
0000
0010
0001
0000
0001
0000
,
1001
1001
0110
0110
2000
3000
0010
2000
,
3000
0100
0001
0000
0020
0000
0000
2030
,
3001
0000
0010
0000
0002
0003
0010
0002
,
0003
0100
1000
0000
0020
0000
0000
0130
,
1000
0000
1000
0010
0002
0003
0010
0002
,
0003
0100
0001
0000
0020
0000
0000
2030
,
3001
0001
0001
0010
,
0100
0000
0100
0000
1000
0000
1000
0000
0020
0000
0000
0100
0030
0000
0100
0000
,
0100
0100
0100
0100
0100
0000
1001
0000
,
1001
1001
1001
1001
,
1001
0000
1000
0010
2000
0000
3000
0000
;

//---------------dance-single - ----------------
#NOTES:
     dance-single:
     :
     Easy:
     5:
     0.404,0.431,0.129,0.553,0.000,283.000,17.000,73.000,0.000,0.000,0.000,0.404,0.431,0.129,0.553,0.000,283.000,17.000,73.000,0.000,0.000,0.000:
0000
0000
0000
0000
,
0000
0000
1000
1000
,
1000
1000
1000
1000
,
1000
1000
1000
1000
,
1000
1000
1000
1000
,
1000
0010
1000
1000
,
1000
1000
1000
1000
,
1000
0000
2000
3000
0002
0003
2000
3000
,
0002
0003
2000
3000
0010
0000
0010
0000
,
0010
0010
0001
0101
,
2000
3000
0002
0003
1000
0000
1010
0000
,
0002
0003
0200
0300
0001
0000
1001
0000
,
0200
0300
0002
0003
0010
0000
1010
0000
,
0200
0300
0002
0003
0100
0000
0110
0000
,
0200
0300
2000
3000
0001
0000
0101
0000
,
0020
0030
0200
0300
0010
0000
0101
0000
,
0200
0300
2000
3000
0001
0000
1001
0000
,
2000
3000
0200
0300
0002
0003
0000
0002
,
0003
0000
0001
0000
0020
0000
0000
0100
,
0030
0000
0100
0000
0002
0003
0000
0002
,
0003
0000
0002
0000
0023
0000
0000
0100
,
0030
0000
1000
0000
0002
0003
0000
0002
,
0003
0000
0001
0000
0020
0000
0000
1000
,
0030
0000
0001
0000
0002
0003
0000
0002
,
0003
1000
0020
0000
,
0000
0000
0031
0001
,
0001
0001
1000
1000
,
0010
0001
0100
0001
,
0010
0001
0001
0100
,
1000
1000
0010
1000
,
1000
1000
0001
0001
,
0100
1000
0010
1000
,
0100
0000
1000
0000
0002
0003
0020
0030
,
2000
3000
0200
0300
1001
0000
0001
0000
,
0001
0010
0010
1000
,
1000
0000
1000
0000
0000
0001
0000
0001
,
0000
0001
0000
0000
0001
0000
0001
0000
,
0001
0000
0001
0100
,
0100
0100
1000
0001
,
0001
0000
1000
0000
0000
0100
0000
0100
,
0000
0100
0000
0100
1000
0000
1000
0000
,
0001
0001
1000
1000
0010
0000
0001
0000
,
2000
3000
0020
0030
0001
0000
0110
0000
,
2000
3000
0020
0030
1000
0000
0110
0000
,
0020
0030
2000
3000
0100
0000
0110
0000
,
0020
0030
0002
0003
0010
0000
1010
0000
,
0020
0030
0200
0300
0001
0000
1010
0000
,
2000
3000
0002
0003
0100
0000
1010
0000
,
0200
0300
0020
0030
1000
0000
1001
0000
,
2000
3000
0002
0003
0010
0000
0001
0000
,
0001
0001
1000
1000
,
0010
0000
0001
0000
0000
1000
0001
0000
,
0010
0001
0001
0100
,
1000
0000
1000
0000
0000
0001
1000
0000
,
1000
1000
0001
0001
,
0100
0000
1000
0000
0000
0001
1000
0000
,
0100
0000
1000
0000
0002
0003
0020
0030
,
2000
3000
0020
0030
1001
0000
1000
0000
,
1000
0010
0010
0001
,
0001
0000
0001
0000
0000
1000
0000
1000
,
0000
1000
0000
0000
0001
0000
0001
0000
,
1000
0010
0000
0000
1000
0000
0001
0000
,
1000
0100
1000
0100
,
0100
0000
0100
0000
0000
0100
0000
1000
,
0000
1000
0000
0000
0001
0000
0001
0000
,
0001
0001
0100
0100
2000
3000
0000
2000
,
3000
0000
0001
0000
0020
0000
0000
2030
,
3000
0000
0010
0000
0002
0003
0000
0002
,
0003
0000
0001
0000
0020
0000
0000
0130
,
0000
0000
1000
0000
0002
0003
0000
0002
,
0003
0000
0001
0000
0020
0000
0000
2030
,
3000
0001
0001
0010
,
0200
0300
2000
3000
0020
0000
0030
0100
,
0100
0100
0100
0100
0100
0000
1000
0000
,
1000
1000
1000
1000
,
1000
1000
2000
3000
;
