#TITLE:Applause;
#SUBTITLE:Artpop;
#ARTIST:Lady Gaga;
#TITLETRANSLIT:;
#SUBTITLETRANSLIT:;
#ARTISTTRANSLIT:;
#GENRE:;
#CREDIT:;
#BANNER:Applause-bn.png;
#BACKGROUND:;
#LYRICSPATH:;
#CDTITLE:;
#MUSIC:01 Applause.mp3;
#OFFSET:-0.260;
#SAMPLESTART:109.640;
#SAMPLELENGTH:14.500;
#SELECTABLE:YES;
#BPMS:0.000=140.000
,31.000=280.000
,33.000=140.000
,97.000=70.000
,105.500=140.000
,116.500=210.000
,121.000=280.000
,123.000=140.000
,187.000=70.000
,201.250=35.000
,201.500=140.000
,230.000=210.000
,234.500=280.000
,236.500=140.000
;
#STOPS:201.500=0.857,
301.000=0.214,
302.000=0.214,
303.000=0.214
;
#BGCHANGES:1.000=Applause.avi=1.000=1=0=1===CrossFade==,
99999=-nosongbg-=1.000=0=0=0 // don't automatically add -songbackground-
;
#KEYSOUNDS:;
#ATTACKS:;

//---------------dance-single - ----------------
#NOTES:
     dance-single:
     :
     Hard:
     9:
     0.546,0.640,0.548,0.527,0.095,391.000,78.000,75.000,0.000,1.000,0.000,0.546,0.640,0.548,0.527,0.095,391.000,78.000,75.000,0.000,1.000,0.000:
0000
0000
0000
0000
,
0000
0000
0000
0000
,
0000
0000
0000
0000
,
0000
0000
0000
0000
,
0000
0000
0000
0000
,
0000
0000
0000
0000
,
0000
0000
0000
0000
,
0000
0000
0000
0200
,
0000
0000
1300
0000
0110
0000
1000
0010
,
1010
0000
0010
0000
0011
0000
1000
0010
,
0101
0000
0001
0000
1100
0000
0100
0001
,
2001
0000
3100
0000
0101
0000
0010
0100
,
0011
0000
1000
0000
1010
0000
0010
0100
,
0101
0000
0010
0000
1001
0000
0100
1000
,
1001
0000
0001
0200
2300
3200
0320
0032
,
2003
0000
3100
0000
1100
0000
0010
0001
,
0011
0000
1000
0000
1020
0030
0001
0100
,
1001
0000
0100
0000
0101
0000
0100
1000
,
0011
0000
2000
0000
3001
0010
0001
0100
,
0002
0000
0013
0000
0110
0000
1000
0100
,
1001
0000
0001
0000
1100
0000
0100
0010
,
0101
0000
0020
0030
0101
0000
0010
0100
,
1100
0000
1000
0200
0320
0032
0023
0230
,
2300
0000
3010
0000
0100
0010
0100
0001
,
0100
0000
0010
0000
1000
0000
0000
0010
1000
0000
0000
0010
1000
0000
0000
0010
,
0001
0010
0100
0010
1000
0000
1000
0000
0001
0010
0100
1000
1000
0000
1000
0000
,
1000
0010
0200
0000
0300
0000
0110
0000
0000
0000
0110
0000
0000
0000
0110
0000
,
0000
0110
0000
0110
0000
0110
0000
0110
,
0000
0001
0001
0010
0010
0100
0100
1000
,
1000
0010
0000
0010
0100
0001
1000
0010
,
0100
0001
1000
0100
1000
0100
0001
0010
,
0000
0010
0001
0000
0001
0100
0000
0100
,
0010
0000
0012
0003
1002
0000
1003
0100
,
0000
0100
0010
0000
0010
0001
0000
0001
,
0100
0000
2200
3300
1002
0000
1003
0010
,
0000
0010
0100
0000
0100
0010
0000
0010
,
1000
0000
2002
3003
0120
0000
0031
0100
,
0000
0100
0001
0000
0001
0010
0000
0010
,
0100
0000
0202
0303
0022
0033
0001
0000
,
1010
1010
0000
0000
0011
0000
0000
0000
,
1001
1001
0000
0000
0220
0330
0001
0000
,
1010
1010
0000
0000
0011
0000
0000
0000
,
1001
0000
0000
0000
0000
0000
0000
0000
0000
0000
0000
0000
0000
0000
0000
0000
0000
0000
0000
0000
0000
0000
0000
0000
1001
0000
0000
0000
0000
0000
0000
0000
0000
0000
0000
0000
0000
0000
0000
0000
0000
0000
0000
0000
0000
0000
0000
0000
0000
0000
0000
0000
0000
0000
0000
0000
0000
0000
0000
0000
0000
0000
0000
0000
0000
0000
0000
0000
0000
0000
0000
0000
0000
0000
0000
0000
0000
0000
0000
0000
0000
0000
0000
0000
0000
0000
0000
0000
0000
0000
0000
0000
0000
0000
0000
0000
0220
0330
0000
0000
0000
0000
0000
0000
0000
0000
0000
0000
0000
0000
0000
0000
0000
0000
0000
0000
0000
0000
0000
0000
0000
0000
0000
0000
0000
0000
0000
0000
0000
0000
0000
0000
0000
0000
0000
0000
0000
0000
0000
0000
0000
0000
0000
0000
0100
0000
0000
0000
0000
0000
0000
0000
0000
0000
0000
0000
0000
0000
0000
0000
0000
0000
0000
0000
0000
0000
0000
0000
0001
0000
0000
0000
0000
0000
0000
0000
0000
0000
0000
0000
0000
0000
0000
0000
0000
0000
0000
0000
0000
0000
0000
0000
,
0000
0001
0100
0000
0010
0100
0000
0002
,
0000
0103
0000
0000
1001
0000
1000
0100
,
0000
0100
1000
0000
1000
0001
0000
0010
,
0000
0000
0001
0000
0000
0000
0100
0000
1000
0000
0020
0000
0230
0300
0000
0002
,
0003
0000
0202
2303
3000
0000
0000
2000
3000
0001
0020
0000
0030
0010
0100
0020
,
0000
0000
0030
0200
0300
0000
0000
0200
0300
0000
0000
0001
0010
0100
0100
1000
,
2000
0000
3000
0001
0010
0100
0100
1000
2000
0000
3000
0001
0010
0100
0100
1000
,
2000
0000
3000
0200
0000
0310
0000
0000
2000
0000
0000
0000
0000
0000
3100
0000
,
2000
0000
0000
3100
2000
0000
0000
3001
,
0010
0001
0100
0001
0002
0003
0102
0003
,
1000
0100
1000
0000
0010
0000
2010
3000
,
0100
0010
0200
0300
1001
0000
1001
0000
,
1001
1001
1001
1001
,
1001
0000
1001
0000
0010
0010
0100
0100
,
0010
0010
0100
0100
0001
0000
0100
0001
,
1000
0010
0100
0001
0010
0100
1000
0100
,
1000
0001
0010
0001
0100
0001
0010
1000
,
1000
0001
0010
0100
1000
2000
3000
1000
,
0000
0001
0010
0001
0010
0100
1000
0100
,
0200
0310
0000
0100
0200
0320
0030
1000
,
0000
0001
0100
0001
0010
0001
0100
0010
,
1000
0001
0010
0100
1000
2000
3000
1000
,
0000
0010
0001
0010
0100
1000
0001
0100
,
0200
0310
0000
0100
0200
0320
0030
2000
,
3000
0000
0000
1100
1100
0000
0001
0101
,
0000
0000
0000
1001
1001
0000
0010
0110
,
0000
0001
0010
0100
1000
0100
0010
0001
,
0100
0010
0000
0200
0302
0023
0000
0230
,
0000
0301
0010
0000
0010
0001
0000
0001
,
0010
0100
0100
1010
,
0001
0100
0010
0000
0010
0100
0000
0100
,
0010
0000
1100
0000
2002
3003
0100
0001
,
0000
0101
0101
0110
0110
1001
2002
3003
;

//---------------dance-single - Crazy----------------
#NOTES:
     dance-single:
     Crazy:
     Challenge:
     10:
     0.843,0.826,1.000,0.927,0.105,541.000,167.000,132.000,0.000,11.000,0.000,0.843,0.826,1.000,0.927,0.105,541.000,167.000,132.000,0.000,11.000,0.000: // measure 0
1000
1000
1000
0100
0100
0100
0010
0010
,  // measure 1
0010
0010
0010
0010
0010
0010
0010
0100
,  // measure 2
0001
0001
1000
0100
0100
0010
0001
0001
,  // measure 3
0001
0001
0001
0001
0001
0001
0001
0100
,  // measure 4
0010
0010
0010
1000
1000
1000
0001
0001
,  // measure 5
0001
0001
0001
0001
0001
0001
0001
1000
,  // measure 6
0100
0100
0010
1000
1000
0001
0100
0100
,  // measure 7
0100
0100
0100
0100
0100
0100
0200
0000
,  // measure 8
0000
0000
1300
0000
0110
0001
0100
0010
,  // measure 9
1010
0000
0010
0100
0011
2000
0000
3010
,  // measure 10
0101
0000
0001
0001
1100
0010
0100
0001
,  // measure 11
2001
0100
3100
0100
0101
0010
0010
0010
,  // measure 12
0011
0100
1000
0000
1010
0100
0010
0100
,  // measure 13
0101
0000
0010
0100
1001
0010
0100
1000
,  // measure 14
1001
0000
0021
0230
2300
3200
0320
0032
,  // measure 15
2103
0100
3100
0100
1100
0010
0010
0010
,  // measure 16
0011
0100
1000
0000
1020
0130
0001
0100
,  // measure 17
1001
0000
0100
0010
0101
1000
0100
1000
,  // measure 18
0011
0000
2000
0000
3101
0010
0001
0100
,  // measure 19
2001
0010
3010
0010
0110
1000
1000
1000
,  // measure 20
1001
0100
0001
0000
1100
0001
0100
0010
,  // measure 21
0101
0000
0020
0130
0101
0001
0010
0100
,  // measure 22
1100
0000
1001
0200
0320
0032
0023
0230
,  // measure 23
2310
0010
3010
0010
0010
0010
0100
0001
,  // measure 24
0100
0000
0010
0000
1001
0000
0000
0010
1001
0000
0000
0010
1001
0000
0000
0010
,  // measure 25
0001
0010
0100
0010
1001
0000
0101
0000
0001
0010
0100
1000
1001
0000
1100
0000
,  // measure 26
1000
0010
0200
0300
0001
0000
0110
0000
0100
0000
0110
0000
0100
0000
0110
0000
,  // measure 27
0100
0110
0100
0110
0100
0110
0100
0110
,  // measure 28
0100
0101
0101
0011
0011
0110
0110
1100
,  // measure 29
1100
1001
0000
0010
0100
0001
1000
0010
,  // measure 30
0100
0001
1000
0100
1000
0100
0011
0001
,  // measure 31
0010
0100
0010
0001
1000
0001
0010
0100
,  // measure 32
0001
0010
0022
0033
1002
0000
1103
0010
,  // measure 33
0100
0001
0100
0010
1000
0002
1103
0000
,  // measure 34
0010
0002
2203
3300
1002
0000
1103
0010
,  // measure 35
0100
0001
0100
0010
0100
0001
0010
0100
,  // measure 36
1000
0100
2002
3003
0120
0000
0131
0100
,  // measure 37
0010
0100
0001
0010
0100
1000
0202
0303
,  // measure 38
0010
1000
0202
0303
0022
0033
0001
0100
,  // measure 39
1010
1010
0000
0100
0011
0000
0100
0000
,  // measure 40
1001
1001
0000
0100
0220
0330
1000
0100
,  // measure 41
1000
0010
0100
0001
0010
1100
2000
3000
,  // measure 42
0010
1100
2000
3000
1001
0000
0101
0011
,  // measure 43
0000
0011
0101
0000
1010
0110
0000
1001
,  // measure 44
0000
0110
0001
0010
2002
3003
1001
0100
,  // measure 45
0001
0010
0100
1000
0100
0011
0002
0003
,  // measure 46
0100
0000
0011
0000
0002
0000
0003
0000
1000
0000
0020
0000
0230
0300
0000
2002
,  // measure 47
3003
0000
0202
1303
2000
3000
0000
1000
2000
3001
0020
0000
0030
0010
0100
0020
,  // measure 48
0000
0000
0030
0100
2000
3000
0000
0100
2000
3000
0000
0001
0010
0100
0100
1000
,  // measure 49
2000
0200
3300
0001
0010
0100
0100
1000
2000
0200
3300
0001
0010
0100
0100
1000
,  // measure 50
2000
0200
3300
0200
0000
0310
0000
0000
2001
0000
0000
0000
0000
0000
3100
0000
,  // measure 51
2001
0000
0000
3100
2001
0000
0000
3001
,  // measure 52
0101
0001
0010
0001
1002
0003
0102
0003
,  // measure 53
1010
0100
1000
0010
2010
3000
2010
3000
,  // measure 54
0101
0010
0200
0300
1001
0001
1001
0001
,  // measure 55
1001
0001
1001
0001
1001
0001
1001
0001
,  // measure 56
1001
0001
1001
0001
1001
1001
1100
1100
,  // measure 57
0011
0011
0110
0110
1001
0000
0100
0001
,  // measure 58
1000
0010
0100
0001
0010
0100
1000
0100
,  // measure 59
1000
0102
0203
0301
0102
0203
0310
1020
,  // measure 60
2030
3001
0010
0100
1000
2002
3003
0110
,  // measure 61
0000
0012
0023
1030
0012
0023
1030
2100
,  // measure 62
3200
0310
0000
2100
3200
0320
0030
1001
,  // measure 63
0000
0102
0203
0301
0102
0203
0310
1020
,  // measure 64
2030
3001
0010
0100
1000
2002
3003
0110
,  // measure 65
0000
0012
0023
1030
0012
0023
1030
2100
,  // measure 66
3200
0310
0000
2100
3200
0320
0030
2002
,  // measure 67
3003
0010
0100
1100
1100
0000
0001
0101
,  // measure 68
0000
0000
0100
1001
1001
0000
0010
0110
,  // measure 69
0000
0201
0320
1030
0201
0320
1030
0210
,  // measure 70
0302
0023
0030
0210
0302
0023
0000
0230
,  // measure 71
0000
0311
0101
0000
0101
0011
0000
0011
,  // measure 72
1001
0000
1100
0100
1001
0020
0000
1031
,  // measure 73
0000
1002
0203
0310
1002
0203
0310
2100
,  // measure 74
3020
1030
0000
2100
3020
2030
3100
1001
,  // measure 75
0000
0101
0110
0110
1010
1010
2002
3003
;

//---------------dance-single - Copied from----------------
#NOTES:
     dance-single:
     Copied from:
     Medium:
     7:
     0.401,0.453,0.225,0.471,0.039,300.000,32.000,67.000,0.000,0.000,0.000,0.401,0.453,0.225,0.471,0.039,300.000,32.000,67.000,0.000,0.000,0.000:
0000
0000
0000
0000
,
0000
0000
0000
0000
,
0000
0000
0000
0000
,
0000
0000
0000
0000
,
0000
0000
0000
0000
,
0000
0000
0000
0000
,
0000
0000
0000
0000
,
0000
0000
0000
0200
,
0000
0000
1300
0000
0110
0000
0000
0010
,
1000
0000
0010
0000
0011
0000
0000
0010
,
0001
0000
0001
0000
1100
0000
0000
0001
,
2000
0000
3100
0000
0101
0000
0000
0100
,
0001
0000
1000
0000
1010
0000
0000
0100
,
0001
0000
0010
0000
1001
0000
0000
1000
,
0001
0000
0001
0200
2300
3000
0020
0030
,
2000
0000
3100
0000
1100
0000
0000
0001
,
0010
0000
1000
0000
1020
0030
0000
0100
,
1000
0000
0100
0000
0101
0000
0000
1000
,
0001
0000
2000
0000
3001
0010
0001
0000
,
0002
0000
0013
0000
0100
0000
0000
0100
,
1000
0000
0001
0000
1100
0000
0000
0010
,
0001
0000
0020
0030
0101
0000
0000
0100
,
1000
0000
1000
0200
0320
0030
0020
0030
,
2000
0000
3010
0000
0100
0010
0100
0000
,
0100
0000
0000
0000
1000
0000
0000
0010
1000
0000
0000
0010
1000
0000
0000
0010
,
0001
0000
0010
0000
0010
0000
1000
0000
0001
0010
0100
0000
1000
0000
1000
0000
,
1000
0200
0300
0010
0000
0010
0000
0010
,
0000
0010
0000
0010
0000
0010
0000
0010
,
0000
0001
0001
0010
0010
0100
0100
1000
,
1000
0020
0000
0000
0000
0000
0000
0000
,
0000
0000
1030
0000
1000
0000
0001
0010
,
0001
0001
1000
1000
,
0010
0000
0012
0003
1002
0000
1003
0100
,
1000
0010
0010
0001
,
0100
0000
2200
3300
1002
0000
1003
0010
,
1000
0100
0100
0010
,
1000
0000
2002
3003
0120
0000
0031
0100
,
0001
1000
1000
0010
,
0100
0000
0202
0303
0022
0033
0001
0000
,
1000
1000
0000
0000
0011
0000
0000
0000
,
0001
0001
0000
0000
0220
0330
0001
0000
,
0010
0010
0000
0000
0011
0000
0000
0000
,
1000
0000
0000
0000
0000
0000
0000
0000
0000
0000
0000
0000
0000
0000
0000
0000
0000
0000
0000
0000
0000
0000
0000
0000
1000
0000
0000
0000
0000
0000
0000
0000
0000
0000
0000
0000
0000
0000
0000
0000
0000
0000
0000
0000
0000
0000
0000
0000
0000
0000
0000
0000
0000
0000
0000
0000
0000
0000
0000
0000
0000
0000
0000
0000
0000
0000
0000
0000
0000
0000
0000
0000
0000
0000
0000
0000
0000
0000
0000
0000
0000
0000
0000
0000
0000
0000
0000
0000
0000
0000
0000
0000
0000
0000
0000
0000
0220
0330
0000
0000
0000
0000
0000
0000
0000
0000
0000
0000
0000
0000
0000
0000
0000
0000
0000
0000
0000
0000
0000
0000
0000
0000
0000
0000
0000
0000
0000
0000
0000
0000
0000
0000
0000
0000
0000
0000
0000
0000
0000
0000
0000
0000
0000
0000
0001
0000
0000
0000
0000
0000
0000
0000
0000
0000
0000
0000
0000
0000
0000
0000
0000
0000
0000
0000
0000
0000
0000
0000
0000
0000
0000
0000
0000
0000
0000
0000
0000
0000
0000
0000
0000
0000
0000
0000
0000
0000
0000
0000
0000
0000
0000
0000
,
1000
1000
0000
0000
0011
0000
0000
0000
,
0001
0001
0000
0000
0220
0330
0001
0000
,
0010
0010
0000
0000
0011
0000
0000
0000
,
1000
0000
1000
0000
0000
0000
0000
0000
0100
0000
0020
0000
0230
0300
0000
0002
,
0003
0000
0202
0303
0000
0000
0000
0000
0000
0000
0000
0000
0100
0000
0000
0002
,
0003
0000
0022
0033
0000
0000
0000
0000
0000
0000
0000
0001
0010
0000
0100
0000
,
2000
0000
3000
0001
0010
0000
0100
0000
2000
0000
3000
0001
0010
0000
0100
0000
,
2000
0000
3000
0200
0000
0310
0000
0000
2000
0000
0000
0000
3000
0000
2000
0000
,
0000
3000
2000
0000
0000
3000
0000
0010
,
0100
0000
0100
0000
0002
0003
0000
0002
,
0003
0000
0002
0000
0013
0000
2000
3000
,
0100
0010
0200
0300
0001
0000
1001
0000
,
0001
1001
0001
1001
,
0001
0000
1001
0000
0010
0010
0100
0100
,
0010
0010
0100
0100
0002
0000
0000
0000
,
0000
0000
0000
0000
0000
1000
0003
1000
,
0000
0001
0010
0000
0001
0010
0000
0001
,
0010
0000
0000
0100
0000
2000
3000
1000
,
0000
0001
0100
0000
0001
0100
0000
0001
,
0200
0300
0000
0100
0000
0020
0030
1000
,
0000
0010
0100
0000
0010
0100
0000
0010
,
0100
0000
0000
0100
0000
2000
3000
1000
,
0000
0001
0010
0000
0100
1000
0000
0100
,
1000
0000
0000
0100
0000
0020
0030
2000
,
3000
0000
0000
1000
1000
0000
0001
0100
,
0000
0000
0000
0001
0001
0000
0010
0100
,
0000
0001
0010
0100
0000
0100
0000
0001
,
0000
0010
0000
0200
0302
0023
0000
0230
,
0000
0301
0010
0000
0001
0010
0000
0001
,
0010
0000
0000
0100
0000
0100
0000
2000
,
3000
0100
0010
0000
0100
0010
0000
0100
,
0010
0000
0000
0100
0000
1000
0000
0001
,
0000
0001
0001
0100
0100
1000
2000
3000
;

//---------------dance-single - Copied from Copied f----------------
#NOTES:
     dance-single:
     Copied from Copied f:
     Easy:
     5:
     0.344,0.400,0.084,0.450,0.018,267.000,12.000,64.000,0.000,0.000,0.000,0.344,0.400,0.084,0.450,0.018,267.000,12.000,64.000,0.000,0.000,0.000:
0000
0000
0000
0000
,
0000
0000
0000
0000
,
0000
0000
0000
0000
,
0000
0000
0000
0000
,
0000
0000
0000
0000
,
0000
0000
0000
0000
,
0000
0000
0000
0000
,
0000
0000
0000
0200
,
0000
0000
1300
0000
0010
0000
0000
0010
,
1000
0000
0010
0000
0001
0000
0000
0010
,
0001
0000
0100
0000
1000
0000
0000
0001
,
2000
0000
3100
0000
0001
0000
0000
0100
,
0001
0000
1000
0000
0010
0000
0000
0100
,
0001
0000
0010
0000
1000
0000
0000
1000
,
0001
0000
0001
0000
2000
3000
0020
0030
,
2000
0000
3100
0000
1000
0000
0000
0001
,
0010
0000
1000
0000
0020
0030
0000
0100
,
1000
0000
0100
0000
0001
0000
0000
1000
,
0001
2000
3001
0001
,
0002
0000
0013
0000
0100
0000
0000
0100
,
1000
0000
0001
0000
1000
0000
0000
0010
,
0001
0000
0020
0030
0001
0000
0000
0100
,
1000
0000
1000
0000
0020
0030
0020
0030
,
2000
3010
0100
0100
,
0100
0000
0000
0000
1000
0000
0000
0010
1000
0000
0000
0010
1000
0000
0000
0000
,
0001
0010
0010
1000
0020
0130
1000
1000
,
1000
0200
0300
0010
0000
0010
0000
0010
,
0000
0010
0000
0010
0000
0010
0000
0010
,
0000
0002
0003
0020
0030
0200
0300
1000
,
1000
0020
0000
0000
0000
0000
0000
0000
,
0000
0030
1000
0001
,
0001
0001
1000
1000
,
0010
0000
0012
0003
1002
0000
1003
0000
,
1000
0010
0010
0001
,
0100
0000
2200
3300
1002
0000
1003
0000
,
1000
0100
0100
0010
,
1000
0000
2002
3003
0120
0000
0031
0000
,
0001
1000
1000
0010
,
0100
0000
0202
0303
0022
0033
0001
0000
,
1000
1000
0000
0000
0001
0000
0000
0000
,
0001
0001
0000
0000
0200
0300
0000
0000
,
0010
0010
0000
0000
0001
0000
0000
0000
,
1000
0000
0000
0000
0000
0000
0000
0000
0000
0000
0000
0000
0000
0000
0000
0000
0000
0000
0000
0000
0000
0000
0000
0000
1000
0000
0000
0000
0000
0000
0000
0000
0000
0000
0000
0000
0000
0000
0000
0000
0000
0000
0000
0000
0000
0000
0000
0000
0000
0000
0000
0000
0000
0000
0000
0000
0000
0000
0000
0000
0000
0000
0000
0000
0000
0000
0000
0000
0000
0000
0000
0000
0000
0000
0000
0000
0000
0000
0000
0000
0000
0000
0000
0000
0000
0000
0000
0000
0000
0000
0000
0000
0000
0000
0000
0000
0020
0030
0000
0000
0000
0000
0000
0000
0000
0000
0000
0000
0000
0000
0000
0000
0000
0000
0000
0000
0000
0000
0000
0000
0000
0000
0000
0000
0000
0000
0000
0000
0000
0000
0000
0000
0000
0000
0000
0000
0000
0000
0000
0000
0000
0000
0000
0000
0000
0000
0000
0000
0000
0000
0000
0000
0000
0000
0000
0000
0000
0000
0000
0000
0000
0000
0000
0000
0000
0000
0000
0000
0000
0000
0000
0000
0000
0000
0000
0000
0000
0000
0000
0000
0000
0000
0000
0000
0000
0000
0000
0000
0000
0000
0000
0000
,
1000
1000
0000
0000
0001
0000
0000
0000
,
0001
0001
0000
0000
0200
0300
0000
0000
,
0010
0010
0000
0000
0001
0000
0000
0000
,
1000
0000
1000
0000
0000
0000
0000
0000
0100
0000
0000
0000
0200
0300
0000
0002
,
0003
0000
0002
0003
0000
0000
0000
0000
0000
0000
0000
0000
0100
0000
0000
0002
,
0003
0000
0002
0003
0000
0000
0000
0000
0000
0000
0001
0000
0010
0000
0100
0000
,
2000
3001
0010
0100
2000
3001
0010
0100
,
2000
0000
3000
0200
0000
0300
0000
0000
2000
0000
0000
0000
3000
0000
2000
0000
,
0000
3000
2000
0000
0000
3000
0000
0000
,
0100
0000
0100
0000
0002
0003
0000
0002
,
0003
0000
0002
0000
0013
0000
2000
3000
,
0100
0000
0200
0300
0001
0000
1001
0000
,
0000
1001
0000
1001
,
0000
0000
1001
0000
0020
0030
0200
0300
,
0020
0030
0100
0100
0002
0000
0000
0000
,
0000
0000
0000
0000
0000
0000
0003
1000
,
0000
0001
0010
0001
0000
0010
0000
0001
,
0000
0010
0000
0100
0000
2000
3000
1000
,
0000
0001
0100
0001
0000
0100
0000
0001
,
0000
0100
0000
0100
0000
0020
0030
1000
,
0000
0010
0100
0010
0000
0100
0000
0010
,
0000
0100
0000
0100
0000
2000
3000
1000
,
0000
0001
0010
0001
0000
1000
0000
0100
,
0000
0010
0000
0100
0000
0020
0030
2000
,
3000
0000
0000
1000
1000
0000
0000
0100
,
0000
0000
0000
0001
0001
0000
0000
0100
,
0000
0000
0000
0100
0100
0000
0000
0001
,
0000
0010
0000
0200
0300
0020
0000
0230
,
0000
0301
0010
0001
0000
0010
0000
0001
,
0000
0010
0000
0100
0000
0100
0000
2000
,
3000
0100
0010
0100
0000
0010
0000
0100
,
0000
0010
0000
0100
0000
1000
0000
0001
,
0000
0001
0001
0100
0100
1000
2000
3000
;
