#TITLE:Gee;
#SUBTITLE:;
#ARTIST:Girls' Generation;
#TITLETRANSLIT:;
#SUBTITLETRANSLIT:;
#ARTISTTRANSLIT:;
#GENRE:;
#CREDIT:;
#MENUCOLOR:CYAN;
#NEWMETERSYSTEM:NO;
#BANNER:;
#BACKGROUND:;
#LYRICSPATH:;
#CDTITLE:;
#MUSIC:Gee.mp3;
#OFFSET:-0.040;
#SAMPLESTART:2.400;
#SAMPLELENGTH:11.220;
#SELECTABLE:YES;
#LISTSORT:;
#DISPLAYBPM:200.000;
#BPMS:0.000=200.000,200.000=106.000,201.000=105.000,202.000=103.000,203.000=102.000,204.000=101.000,205.000=100.000,232.000=200.000,284.000=205.000,285.000=200.000;
#STOPS:;
#BGCHANGES:;
#ATTACKS:;

//---------------dance-single - ----------------
#NOTES:
     dance-single:
     :
     Hard:
     11:
     0.619,0.618,0.727,0.403,0.005:
0000
0000
0000
0000
,
0000
0000
0000
0000
,
0010
1000
0100
1000
0010
0000
1000
0001
,
0000
0001
0100
0001
0010
0000
0100
0000
,
1000
0001
0100
0001
1000
0000
0010
0100
,
0000
0001
0110
1001
,
1100
0101
1100
0101
,
1000
0000
0001
1000
0000
1000
0001
0100
,
0101
1100
0101
1100
,
0001
0000
1000
0100
0000
0001
0100
0000
,
0001
1000
0100
1000
0001
0000
1000
0100
,
0000
0100
0010
0001
0010
0000
0100
0000
,
1000
0010
0100
0010
1000
0000
0001
0100
,
0000
0010
1001
0110
,
1100
0101
1100
0101
,
1000
0000
0001
0010
0000
0100
1000
0001
,
0101
1100
0101
1100
,
0001
0000
1000
0001
0000
1000
0001
0001
,
1000
0000
0001
0000
0100
0000
0001
0100
,
1000
0010
0101
0011
,
0100
0000
1000
0000
0001
0000
1000
0100
,
0001
0010
1100
1010
,
0100
0000
0100
0000
0100
0000
0100
0010
,
0001
0101
1000
1100
,
0020
0130
0002
1003
,
0200
0310
2000
3001
,
0000
0000
0010
0000
0010
0000
0100
1000
,
0001
1000
0001
0000
0101
0000
0010
0000
,
2100
0000
0001
0000
3001
0000
0100
0001
,
1000
0001
1000
0000
1100
0000
0010
0000
,
0102
1000
1003
0100
,
0010
0002
0003
1000
,
2200
3300
0220
0330
,
0022
0033
1001
0100
,
1001
0000
0000
0000
1001
0000
0100
1000
,
0000
0001
0100
0000
0010
0000
0001
0000
,
0200
0320
0230
0320
,
0230
0300
0010
1000
,
0101
0000
0010
0000
0101
0000
1000
0100
,
0000
0001
0010
0000
0100
0000
1000
0000
,
0001
1000
0100
0000
1000
0001
0100
0000
,
0220
0330
1000
0001
,
0110
0000
0000
0000
0110
0000
0001
0100
,
0000
1000
0100
0000
0001
0000
0010
0000
,
1001
1001
1001
1001
,
2002
3003
0010
0100
,
0001
0000
1000
0100
0000
0010
0001
0000
,
2002
3003
0010
0100
,
1000
0000
0001
0100
0000
0010
1000
0000
,
1001
0110
2002
0000
,
3003
0000
0000
0010
0010
0100
0001
1000
,
0100
0000
0000
0100
0100
1000
0001
0100
,
0010
0000
0000
1000
0100
0000
0000
0001
,
0100
0000
0000
0100
0000
0000
0010
0000
0100
0000
0000
0000
0010
0000
0000
0000
,
1001
0000
0110
0000
0010
0010
1000
0001
,
0101
0000
1100
0000
1000
1000
0100
0010
,
0001
1000
0001
1000
0001
1000
0001
1000
,
2002
0000
0000
0000
3003
0000
1000
0001
,
0110
0000
1000
0000
0110
0000
0001
0010
,
0000
0100
1000
0001
0100
0000
0010
0000
,
2000
3002
2003
3002
,
2003
3000
0010
0100
,
1010
0000
0100
0000
1001
0000
0010
0100
,
0000
0100
0001
0010
0100
0000
1000
0000
,
0102
0013
2100
3010
,
2002
3003
1000
0100
,
1010
0000
0001
0000
0101
0000
1000
0100
,
0000
0001
0100
1000
0010
0000
0001
0000
,
0110
1001
0110
1001
,
0220
0330
1000
0001
,
0100
0000
0010
1000
0000
0001
0010
0100
,
0220
0330
1000
0001
,
0100
0000
0010
0100
0000
0010
1000
0100
,
1100
0011
1001
0000
,
1001
0000
0000
0000
;

//---------------dance-single - ----------------
#NOTES:
     dance-single:
     :
     Medium:
     8:
     0.481,0.545,0.413,0.285,0.005:
0000
0000
0000
0000
,
0000
0000
0000
0000
,
0001
0000
1000
0000
0100
0000
1000
0010
,
0000
0001
0010
0000
0100
0000
1001
0000
,
0010
0000
0100
0000
0001
0000
1000
0100
,
0000
0010
0001
0100
,
0010
1100
0010
0101
,
1000
0000
0001
1000
0000
0001
1000
0000
,
0010
1100
0010
0101
,
0001
0000
1000
0001
0000
1000
0001
0000
,
1000
0000
0100
0000
0010
0000
0001
0100
,
0000
1000
0100
0000
0010
0000
1001
0000
,
0100
0000
0010
0000
1000
0000
0100
0010
,
0000
0001
0100
0010
,
1000
0110
0001
0110
,
1000
0000
0100
0010
0000
0100
0010
0000
,
1000
0110
0001
0110
,
0001
0000
0001
0001
0000
0001
0001
0000
,
1000
0000
0100
0000
0010
0000
1000
0100
,
1000
0010
0100
0002
,
0003
0000
0100
0000
0010
0000
0001
0100
,
0001
1000
0010
0200
,
0310
0000
0010
0000
0010
0000
0010
0100
,
0010
1000
0100
0010
,
0002
0003
2000
3000
,
0020
0030
0200
0301
,
0000
0000
1000
0000
1000
0000
0100
0010
,
0100
1000
0001
0010
,
2002
0000
0000
0000
3003
0000
0001
0100
,
0001
1000
0010
0100
,
2002
0000
3003
0100
,
0100
0000
0020
0000
0030
0001
0100
0001
,
0200
0300
0020
0030
,
2000
3000
0001
0001
,
0101
0000
0101
1000
,
0100
1000
0010
0100
,
0001
0001
0001
0001
,
0002
0000
1003
0100
,
1000
0010
0100
0001
,
0010
0100
0010
1000
,
1001
0001
1001
1000
,
2002
3003
0100
0010
,
1001
0000
1001
0010
,
0100
0001
0010
0100
,
1000
1000
1000
1000
,
2000
0000
3001
0100
,
0020
0000
0000
1030
0000
0000
0100
0000
,
1001
0000
0010
0001
,
2000
0000
0000
3100
0000
0000
0010
0000
,
0001
1000
0220
0000
,
0330
0000
0000
1000
1000
0000
0001
0000
,
0100
0000
0000
0010
0010
0000
1000
0000
,
0001
0000
0110
0000
,
1000
0000
0000
0001
0000
0000
1000
0000
0001
0000
0000
0000
0000
0000
0000
0000
,
1100
0101
0010
0010
,
0101
1100
0001
0001
,
1000
0001
1000
0001
1000
0001
1000
0001
,
2002
0000
0000
3003
,
0100
0110
0010
0110
,
1000
0100
0001
0100
,
1000
0001
1000
0001
,
2000
0000
3001
0100
,
0001
0101
0100
0101
,
1000
0100
0010
0100
,
0001
1000
0001
1000
,
0002
0000
1003
0100
,
1000
0000
1000
0000
0001
0000
0001
0100
,
0000
1000
0100
0000
0010
0000
0001
0000
,
0110
0110
0110
0110
,
0220
0330
1000
0001
,
0100
0000
0000
0110
0000
0000
1000
0000
,
0200
0000
0310
0001
,
1000
0000
0000
0110
0000
0000
0001
0000
,
1001
0110
1001
0000
,
1001
0000
0000
0000
;

//---------------dance-single - ----------------
#NOTES:
     dance-single:
     :
     Easy:
     5:
     0.298,0.363,0.226,0.029,0.000:
0000
0000
0000
0000
,
0000
0000
0000
0000
,
0100
0010
0100
0000
,
0010
0000
1000
1000
,
0100
0000
0010
0000
,
0001
0000
0100
0000
,
0010
0010
0010
0010
,
1001
0000
1001
0000
,
0100
0100
0100
0100
,
1001
0000
1001
0000
,
0100
1000
0100
0000
,
0010
0000
0001
0001
,
0100
0000
0010
0000
,
1000
0000
0100
0000
,
0010
0010
0010
0010
,
1001
0000
1001
0000
,
0100
0100
0100
0100
,
1001
0000
0000
0000
,
1000
0100
0100
0000
,
0001
0000
0101
0000
,
1000
1000
0010
0000
,
0100
0000
1010
0000
,
0001
1000
0001
1000
,
0001
0000
0100
0000
,
1000
0000
0010
0000
,
0001
0000
0200
0000
,
0300
0000
0000
0100
,
0100
0000
0010
0000
,
1001
0000
0000
0010
,
0010
0000
0100
0000
,
1001
0000
0000
0001
,
1000
0000
0000
0010
,
0100
0000
0001
0000
,
1000
0000
0100
0010
,
0100
0000
1001
0000
,
0001
0000
0100
0000
,
1000
1000
1000
1000
,
1000
0000
0010
0000
,
0001
0000
0100
0000
,
0010
0000
1000
0000
,
0001
0001
0001
0001
,
0001
0000
0100
0000
,
0010
0000
1001
0000
,
0100
0000
0001
0000
,
0010
0010
0010
0010
,
0010
0000
0100
0100
,
1000
0000
0010
0000
,
0001
0000
0100
0100
,
0001
0000
0010
0000
,
1000
0001
1000
0000
,
1001
0000
0001
0000
,
1001
0000
1000
0000
,
0110
0000
0001
0000
,
0110
0000
1000
0000
,
0100
0010
0001
1000
,
0100
0010
0001
1000
,
0001
1000
0001
1000
,
2002
0000
0000
3003
,
0010
0010
0100
0000
,
0001
0000
1000
0000
,
0100
0100
0100
0100
,
0100
0000
0001
0100
,
0001
0000
1000
0000
,
0100
0000
0010
0000
,
0001
0001
0001
0001
,
0001
0000
1000
0010
,
1000
0000
0100
0000
,
0010
0000
0100
0000
,
1000
1000
1000
1000
,
1000
0000
0001
0100
,
0001
0000
0001
0000
,
1001
0000
1000
0100
,
1000
0000
1000
0000
,
1001
1001
1001
0000
,
0110
0000
0000
0000
;

//---------------dance-single - Copied from ----------------
#NOTES:
     dance-single:
     Copied from:
     Beginner:
     4:
     0.229,0.254,0.020,0.020,0.000: // measure 1
0000
0000
0000
0000
,  // measure 2
0000
0000
0000
0000
,  // measure 3
0100
0000
0100
0000
,  // measure 4
0010
0000
1000
0000
,  // measure 5
0100
0000
0010
0000
,  // measure 6
0001
0000
0100
0000
,  // measure 7
0010
0010
0010
0010
,  // measure 8
0100
0000
0100
0000
,  // measure 9
0100
0100
0100
0100
,  // measure 10
0010
0000
0010
0000
,  // measure 11
0100
0000
0100
0000
,  // measure 12
0010
0000
0001
0000
,  // measure 13
0100
0000
0010
0000
,  // measure 14
1000
0000
0100
0000
,  // measure 15
0010
0010
0010
0010
,  // measure 16
0100
0000
0100
0000
,  // measure 17
0100
0100
0100
0100
,  // measure 18
0010
0000
0000
0000
,  // measure 19
1000
0000
0100
0000
,  // measure 20
0001
0000
0100
0000
,  // measure 21
1000
0000
0010
0000
,  // measure 22
0100
0000
1000
0000
,  // measure 23
0001
0000
1000
0000
,  // measure 24
0001
0000
0100
0000
,  // measure 25
1000
0000
0010
0000
,  // measure 26
0001
0000
0100
0000
,  // measure 27
0000
0000
0000
0000
,  // measure 28
0100
0000
0010
0000
,  // measure 29
0100
0000
0000
0000
,  // measure 30
0010
0000
0100
0000
,  // measure 31
0010
0000
0000
0000
,  // measure 32
1000
0000
0000
0000
,  // measure 33
0100
0000
0001
0000
,  // measure 34
1000
0000
0100
0000
,  // measure 35
0100
0000
0010
0000
,  // measure 36
0001
0000
0100
0000
,  // measure 37
1000
1000
1000
1000
,  // measure 38
1000
0000
0010
0000
,  // measure 39
0001
0000
0100
0000
,  // measure 40
0010
0000
1000
0000
,  // measure 41
0001
0001
0001
0001
,  // measure 42
0001
0000
0100
0000
,  // measure 43
0010
0000
1000
0000
,  // measure 44
0100
0000
0001
0000
,  // measure 45
0010
0010
0010
0010
,  // measure 46
0010
0000
0100
0000
,  // measure 47
1000
0000
0010
0000
,  // measure 48
0001
0000
0100
0000
,  // measure 49
0001
0000
0010
0000
,  // measure 50
1000
0000
0001
0000
,  // measure 51
1000
0000
0001
0000
,  // measure 52
1000
0000
0001
0000
,  // measure 53
0100
0000
0010
0000
,  // measure 54
0100
0000
1000
0000
,  // measure 55
0100
0000
0001
0000
,  // measure 56
0100
0000
0001
0000
,  // measure 57
1000
0000
0001
0000
,  // measure 58
2002
0000
0000
3003
,  // measure 59
0010
0000
0100
0000
,  // measure 60
0001
0000
1000
0000
,  // measure 61
0100
0100
0100
0100
,  // measure 62
0100
0000
0001
0000
,  // measure 63
0001
0000
1000
0000
,  // measure 64
0100
0000
0010
0000
,  // measure 65
0001
0001
0001
0001
,  // measure 66
0001
0000
1000
0000
,  // measure 67
1000
0000
0100
0000
,  // measure 68
0010
0000
0100
0000
,  // measure 69
1000
1000
1000
1000
,  // measure 70
1000
0000
0001
0000
,  // measure 71
0100
0000
0001
0000
,  // measure 72
0010
0000
1000
0000
,  // measure 73
0100
0000
0001
0000
,  // measure 74
0100
0100
0100
0000
,  // measure 75
1001
0000
0000
0000
;
