#TITLE:FLY HIGH;
#SUBTITLE:;
#ARTIST:ME & MY;
#TITLETRANSLIT:;
#SUBTITLETRANSLIT:;
#ARTISTTRANSLIT:;
#GENRE:;
#CREDIT:;
#MENUCOLOR:CYAN;
#NEWMETERSYSTEM:NO;
#BANNER:;
#BACKGROUND:;
#LYRICSPATH:;
#CDTITLE:;
#MUSIC:FLY HIGH.mp3;
#OFFSET:-0.460;
#SAMPLESTART:14.360;
#SAMPLELENGTH:13.500;
#SELECTABLE:YES;
#LISTSORT:;
#DISPLAYBPM:138.000;
#BPMS:0.000=138.000,124.000=139.000,128.000=138.000;
#STOPS:;
#BGCHANGES:;
#ATTACKS:;

//---------------dance-single - ----------------
#NOTES:
     dance-single:
     :
     Hard:
     13:
     0.506,0.625,0.070,0.149,0.516:
0000
0000
0000
0000
,
0000
0000
0000
0000
,
0000
0000
0000
0000
,
0000
0000
0000
0000
,
0000
0000
0000
0000
,
0000
0000
0000
0000
,
0000
0000
0000
0000
,
0000
0000
0000
0000
,
1000
0000
0001
0100
0001
0100
0010
0000
,
1000
0000
0100
0010
0000
0001
0000
0100
,
0010
1000
0000
0000
1010
0000
0000
0000
0100
1000
0000
0000
1100
0000
0000
0000
,
0100
0001
0000
0000
0101
0000
0000
0000
0001
0010
0000
0000
0011
0000
0000
0000
,
0010
0000
1000
0100
1000
0100
0010
0000
,
0001
0000
0100
0010
0000
1000
0000
0100
,
0010
0100
0000
0000
0110
0000
0000
0000
1000
0100
0000
0000
1100
0000
0000
0000
,
0001
0100
0000
0000
0101
0000
0000
0000
0001
1000
0000
0000
1001
0000
0000
0000
,
0010
0001
0100
0000
0010
1000
0100
0000
,
0010
0001
1000
0100
0000
0010
0000
0100
,
0001
0010
0001
0000
0100
0000
0000
0000
1000
0010
1000
0000
0100
0000
0000
0000
,
0001
0010
0001
0000
0100
0000
0000
0000
1000
0010
1000
0000
0100
0000
0000
0000
,
0010
1000
0100
0000
0010
0001
0100
0000
,
0010
1000
0001
0100
0000
0010
0000
0100
,
1000
0100
1000
0000
0010
0000
0000
0000
0001
0100
0001
0000
0010
0000
0000
0000
,
0000
1000
0000
0100
0000
0001
0000
0010
,
0002
0000
0000
0000
,
0203
0000
0000
0000
,
2300
0000
0000
0000
,
3020
0000
0000
0000
,
0230
0000
0000
0000
0000
0000
0000
0000
1000
0000
0000
1000
0000
0000
1000
0000
,
2300
0000
0000
0000
0000
0000
0000
0000
0001
0000
0000
0001
0000
0000
0001
0000
,
3002
0000
0000
0000
0000
0000
0000
0000
0010
0000
0000
0010
0000
0000
0010
0000
,
0023
0000
0000
0000
0000
0000
0000
0000
0100
0000
0000
0100
0000
0000
0100
0000
,
0130
0000
0000
0000
2000
0000
0000
0001
0000
0000
3001
0000
0000
0000
1000
0000
,
0100
0000
0000
0000
0002
0000
0000
1000
0000
0000
1003
0000
0100
0000
0010
0000
,
0001
0000
0000
0000
0200
0000
0000
0010
0000
0000
0310
0000
0000
0000
0001
0000
,
1000
0000
0000
0000
0020
0000
0000
0100
0000
0000
0130
0000
0001
0000
0010
0000
,
0200
0000
0000
0000
1000
0000
0000
0010
0000
0000
0301
0000
0000
0000
1000
0000
,
0020
0000
0000
0000
0001
0000
0000
0100
0000
0000
1030
0000
0100
0000
0010
0000
,
0002
0000
0000
0000
0010
0000
0000
1000
0000
0000
0103
0000
0000
0000
0010
0000
,
2000
0000
0000
0000
0010
0000
0000
0001
0000
0000
3100
0000
0010
0000
0100
0000
,
1000
0001
0000
0000
1000
0000
0000
0100
0000
0000
0010
0000
0000
0000
0001
0000
,
0100
0010
0000
0000
1000
0000
0000
0010
0000
0000
0100
0000
0000
0001
0010
0000
,
0100
1000
0000
0000
0100
0000
0000
0010
0000
0000
0001
0000
0000
0000
1000
0000
,
0010
0100
0000
0000
0001
0000
0000
1000
0000
0000
0100
0000
0000
0000
0001
0000
,
0100
1000
0000
0000
0010
0000
0000
0100
0000
0000
0001
0000
0000
0000
1000
0000
,
0010
0100
0000
0000
0001
0000
0000
0010
0000
0000
0100
0000
1000
0000
0001
0000
,
0100
0001
0000
0000
1000
0000
0000
0001
0000
0000
0100
0000
0000
0000
0010
0000
,
1000
0100
0000
0010
0000
0001
0000
0000
1000
0010
0000
0100
0000
0001
0000
1000
,
0100
1000
0000
0100
1000
0000
0100
0010
0000
0100
0010
0000
0001
0000
0100
0000
,
0010
1000
0000
0010
1000
0000
0001
0100
0000
0001
0100
0000
0010
0000
1000
0000
,
0100
0010
0000
0100
0010
0000
0001
0100
0000
0001
0100
0000
0010
0000
1000
0000
,
0001
0010
0000
0001
0010
0000
0100
1000
0000
0100
1000
0000
0000
0100
1000
0010
,
0100
0001
0000
0010
0100
0000
1000
0001
0000
0010
0100
0000
1000
0000
0010
0000
,
0100
0001
0000
0010
0100
0000
1000
0100
0000
0010
0001
0000
0100
0000
0010
0000
,
1000
0010
0000
0100
0001
0000
0010
0100
0000
1000
0100
0000
0010
0000
0001
0000
,
1000
0010
0000
0100
0001
0000
1000
0100
0000
0010
0001
0000
1000
0000
0100
0010
,
0001
1000
0000
0010
0100
0000
0001
0010
0000
0100
1000
0000
0010
0000
0100
0000
,
0001
0010
0000
0001
0100
0000
0010
1000
0000
0100
0001
0000
0100
0000
1000
0000
,
0010
0100
0000
0001
1000
0000
0100
0001
0000
0100
1000
0000
0010
0000
0100
0000
,
0001
0010
0000
0100
1000
0000
0010
0001
0000
1000
0100
0000
0000
0001
0010
0100
,
1000
0001
0000
0100
1000
0000
0100
0001
0000
0010
0100
0000
1000
0000
0100
0000
,
0010
0001
0000
0100
1000
0000
0100
0010
0000
1000
0100
0000
0010
0000
0001
0000
,
1000
0010
0000
0100
0010
0000
1000
0100
0000
0010
0100
0000
1000
0000
0001
0000
,
0100
0010
0000
1000
0100
0000
0001
0100
0000
1000
0010
0000
0100
0000
0010
1000
,
0200
0000
0000
0000
,
0300
0000
0000
0000
;

//---------------dance-single - ----------------
#NOTES:
     dance-single:
     :
     Medium:
     9:
     0.327,0.369,0.061,0.149,0.122:
0000
0000
0000
0000
,
0000
0000
0000
0000
,
0000
0000
0000
0000
,
0000
0000
0000
0000
,
0000
0000
0000
0000
,
0000
0000
0000
0000
,
0000
0000
0000
0000
,
0000
0000
0000
0000
,
0100
0000
0010
0000
1000
0100
1000
0000
,
0010
0000
0001
0100
0000
0010
0000
0100
,
0000
0001
0000
1000
0000
0100
0010
0001
,
0000
1000
0000
0002
0000
0003
0000
0000
,
1000
0000
0001
0000
0100
0010
0100
0000
,
1000
0000
0010
0100
0000
0001
0000
1000
,
0000
0100
0000
1000
0000
0010
0100
0001
,
0000
0010
0000
2000
0000
3000
0000
0000
,
0010
0000
0100
0000
0001
0010
0001
0000
,
1000
0000
0100
0010
0000
0001
0000
1000
,
0000
0010
0000
0110
0000
1000
0000
1001
,
0000
0001
0000
0022
0000
0033
0000
0000
,
0010
0000
1000
0000
0001
1000
0001
0000
,
0010
0000
1000
0001
0000
0100
0000
0010
,
0000
1000
0000
0101
0000
0010
0000
1100
,
0000
0001
0000
0220
0000
0330
0000
0000
,
2000
0000
0000
0000
,
3200
0000
0000
0000
,
0320
0000
0000
0000
,
0032
0000
0000
0000
,
2003
0000
0100
0000
,
3002
0000
0010
0000
,
0203
0000
1000
0000
,
0320
0000
0001
0000
,
1030
0000
1000
0000
1000
0000
0000
0100
,
0010
0000
0010
0000
0010
0000
0000
0001
,
0100
0000
0100
0000
0100
0000
0000
1000
,
0001
0001
0001
0000
,
1000
0000
0000
0000
1000
0000
0000
1000
0000
0000
1000
0000
0000
0000
1000
0000
,
0001
0000
0000
0000
0001
0000
0000
0001
0000
0000
0001
0000
0010
0000
0100
0000
,
1000
0000
0000
0000
0001
0000
0000
1000
0000
0000
0001
0000
0000
0000
1000
0000
,
0100
0000
0000
0000
0010
0000
0000
0001
0000
0000
1000
0000
0010
0000
0100
0000
,
0001
0000
0000
0001
1000
0000
0000
0000
1000
0000
0000
0000
0100
0000
0000
0000
,
1000
0000
0000
1000
0010
0000
0000
0000
0100
0000
0000
0000
0001
0000
0000
0000
,
0010
1000
0001
0100
,
1000
0000
0000
1000
0100
0000
0000
0000
0001
0000
0000
0001
0100
0000
0000
0000
,
1000
0000
0000
0001
1000
0000
0000
0000
0010
0000
0000
0000
0100
0000
0000
0000
,
0001
0000
0000
1000
0001
0000
0000
0000
0010
0000
0000
0000
0100
0000
0000
0000
,
0010
0001
0100
1000
,
0002
0000
0000
0000
,
1003
0000
0100
0000
0010
0000
0000
0001
0000
0000
0100
0000
0000
0000
0010
0000
,
1000
0000
0000
0000
0100
0000
0000
1000
0000
0000
0001
0000
1000
0000
0010
0000
,
0100
0000
0000
0000
0001
0000
0000
0010
0000
0000
0100
0000
0000
0000
1000
0000
,
0001
0000
0000
0000
0010
0000
0000
0100
0000
0000
1000
0000
0000
0001
0000
0000
,
0100
0000
0000
0000
0010
0000
0000
1000
0000
0000
0001
0000
0000
0000
0010
0000
,
0100
0000
0000
0000
1000
0000
0000
0100
0000
0000
0010
0000
0001
0000
0100
0000
,
0010
0000
0000
0000
1000
0000
0000
0010
0000
0000
0100
0000
0000
0000
0001
0000
,
1000
0000
0000
0000
0010
0000
0000
1000
0000
0000
0100
0000
0010
0000
0001
0000
,
0100
0000
0000
0000
0010
0000
0000
1000
0000
0000
0100
0000
0000
0000
0010
0000
,
0001
0000
0000
0000
1000
0000
0000
0001
0000
0000
1000
0000
0010
0000
0100
0000
,
0001
0000
0000
0000
0010
0000
0000
0100
0000
0000
1000
0000
0000
0000
0001
0000
,
0100
0000
0000
0000
0010
0000
0000
1000
0000
0000
0001
0000
0000
0100
0000
0000
,
0010
0000
0000
0000
1000
0000
0000
0100
0000
0000
0010
0000
0000
0000
1000
0000
,
0001
0000
0000
0000
0100
0000
0000
0010
0000
0000
1000
0000
0100
0000
0010
0000
,
0001
0000
0000
0000
0100
0000
0000
0010
0000
0000
1000
0000
0000
0000
0001
0000
,
0010
0000
0000
0000
0100
0000
0000
1000
0000
0000
0001
0000
0100
0000
0010
0000
,
2002
0000
0000
0000
,
3003
0000
0000
0000
;

//---------------dance-single - ----------------
#NOTES:
     dance-single:
     :
     Easy:
     5:
     0.210,0.313,0.017,0.184,0.000:
0000
0000
0000
0000
,
0000
0000
0000
0000
,
0000
0000
0000
0000
,
0000
0000
0000
0000
,
0000
0000
0000
0000
,
0000
0000
0000
0000
,
0000
0000
0000
0000
,
0000
0000
0000
0000
,
0010
1000
0001
0100
,
0010
0000
0010
0000
,
0100
0000
0100
0000
,
0001
1000
0001
0000
,
1000
0100
0010
0001
,
0100
0000
0100
0000
,
0010
0000
0010
0000
,
1000
0001
1000
0000
,
0001
0001
1000
1000
,
0100
0000
0010
0000
,
0001
0000
1000
0000
,
0010
0100
0010
0000
,
0001
0001
1000
1000
,
0010
0000
0100
0000
,
0001
0000
1000
0000
,
0100
0010
0100
0000
,
2002
0000
0000
0000
,
0000
0000
0000
0000
,
0000
0000
0000
0000
,
0000
0000
0000
0000
,
3003
0000
0100
0000
,
0100
0000
0001
0000
,
0001
0000
1000
0000
,
1000
0000
0100
0000
,
0020
0000
0000
0030
,
2000
0000
0000
3000
,
0002
0000
0000
0003
,
0020
0000
0000
0030
,
2000
0000
0100
3000
,
0002
0000
0010
0003
,
0200
0000
1000
0300
,
0020
0000
0001
0030
,
1000
1000
1000
0000
,
0010
0010
0010
0001
,
0100
0100
0100
0000
,
0001
0001
0001
0000
,
1000
1000
1000
0000
,
0100
0100
0100
0010
,
0001
0001
0001
0000
,
0020
0000
0000
0000
,
1030
0001
0100
0000
,
0010
1000
0100
1000
,
0001
0010
0100
0000
,
0010
0001
0100
0010
,
1000
0001
0010
0000
,
0100
0010
1000
0001
,
1000
0010
0001
0000
,
1000
0001
0010
0100
,
0010
2000
3100
0000
,
0010
0002
0103
0010
,
1000
0020
0031
0000
,
1000
0200
0301
0010
,
0001
2000
3010
0000
,
0001
0200
0310
1000
,
0001
2000
3010
0000
,
0100
0002
0013
0100
,
2002
0000
0000
0000
,
3003
0000
0000
0000
;

//---------------dance-single - Copied from----------------
#NOTES:
     dance-single:
     Copied from:
     Beginner:
     2:
     0.132,0.170,0.017,0.105,0.000: // measure 1
0000
0000
0000
0000
,  // measure 2
0000
0000
0000
0000
,  // measure 3
0000
0000
0000
0000
,  // measure 4
0000
0000
0000
0000
,  // measure 5
0000
0000
0000
0000
,  // measure 6
0000
0000
0000
0000
,  // measure 7
0000
0000
0000
0000
,  // measure 8
0000
0000
0000
0000
,  // measure 9
0010
0000
0001
0000
,  // measure 10
0010
0000
0010
0000
,  // measure 11
0100
0000
0100
0000
,  // measure 12
0001
0000
0001
0000
,  // measure 13
1000
0000
0010
0000
,  // measure 14
0100
0000
0100
0000
,  // measure 15
0010
0000
0010
0000
,  // measure 16
1000
0000
1000
0000
,  // measure 17
0001
0000
1000
0000
,  // measure 18
0100
0000
0010
0000
,  // measure 19
0001
0000
1000
0000
,  // measure 20
0010
0000
0010
0000
,  // measure 21
0001
0000
1000
0000
,  // measure 22
0010
0000
0100
0000
,  // measure 23
0001
0000
1000
0000
,  // measure 24
0100
0000
0100
0000
,  // measure 25
2002
0000
0000
0000
,  // measure 26
0000
0000
0000
0000
,  // measure 27
0000
0000
0000
0000
,  // measure 28
0000
0000
0000
0000
,  // measure 29
3003
0000
0000
0000
,  // measure 30
0100
0000
0000
0000
,  // measure 31
0001
0000
0000
0000
,  // measure 32
1000
0000
0000
0000
,  // measure 33
0020
0030
0000
0000
,  // measure 34
2000
3000
0000
0000
,  // measure 35
0002
0003
0000
0000
,  // measure 36
0020
0030
0000
0000
,  // measure 37
2000
3000
0000
0000
,  // measure 38
0002
0003
0000
0000
,  // measure 39
0200
0300
0000
0000
,  // measure 40
0020
0030
0000
0000
,  // measure 41
1000
0000
1000
0000
,  // measure 42
0010
0000
0010
0000
,  // measure 43
0100
0000
0100
0000
,  // measure 44
0001
0000
0001
0000
,  // measure 45
1000
0000
1000
0000
,  // measure 46
0100
0000
0100
0000
,  // measure 47
0001
0000
0001
0000
,  // measure 48
0010
0000
0000
0000
,  // measure 49
1000
0000
0100
0000
,  // measure 50
0010
0000
0100
0000
,  // measure 51
0001
0000
0100
0000
,  // measure 52
0010
0000
0100
0000
,  // measure 53
1000
0000
0010
0000
,  // measure 54
0100
0000
1000
0000
,  // measure 55
1000
0000
0001
0000
,  // measure 56
1000
0000
0010
0000
,  // measure 57
0010
0000
0100
0000
,  // measure 58
0010
0000
0100
0000
,  // measure 59
1000
0000
0001
0000
,  // measure 60
1000
0000
0001
0000
,  // measure 61
0001
0000
0010
0000
,  // measure 62
0001
0000
0010
0000
,  // measure 63
0001
0000
0010
0000
,  // measure 64
0100
0000
0010
0000
,  // measure 65
2002
0000
0000
0000
,  // measure 66
3003
0000
0000
0000
;
