#TITLE:Boundary;
#SUBTITLE:;
#ARTIST:SPARKER;
#TITLETRANSLIT:;
#SUBTITLETRANSLIT:;
#ARTISTTRANSLIT:;
#GENRE:;
#CREDIT:;
#MENUCOLOR:CYAN;
#NEWMETERSYSTEM:NO;
#BANNER:;
#BACKGROUND:;
#LYRICSPATH:;
#CDTITLE:;
#MUSIC:Boundary.mp3;
#OFFSET:-0.060;
#SAMPLESTART:20.980;
#SAMPLELENGTH:11.220;
#SELECTABLE:YES;
#LISTSORT:;
#DISPLAYBPM:160.000;
#BPMS:0.000=160.100,143.500=20.020,143.875=40.020,144.875=80.040,147.250=640.395,156.000=160.100;
#STOPS:147.250=0.980
;
#BGCHANGES:;
#ATTACKS:;

//---------------dance-single - ----------------
#NOTES:
     dance-single:
     :
     Hard:
     13:
     0.569,0.885,0.207,0.027,0.526:
0000
0000
0000
0000
,
0000
0000
0000
0000
,
0000
0000
0000
0000
,
0000
0000
0000
0000
,
0000
0000
0000
0000
,
0000
0000
0000
0000
,
1000
0000
0001
0000
0100
0000
0000
0010
0000
0000
1000
0000
0100
0000
0000
0010
,
0000
0000
0100
0000
1000
0000
0000
0001
0000
0000
0100
0000
0010
0000
1000
0000
,
0000
0000
0001
0000
0100
0000
0000
0010
0000
0000
1000
0000
0100
0000
0000
0001
,
0000
0000
0100
0000
0010
0000
0000
0001
0000
0000
1000
0000
0010
0000
0100
0000
,
0000
0000
0010
0000
1000
0000
0000
0100
0000
0000
0010
0000
0001
0000
0000
0100
,
0000
0000
0010
0000
1000
0000
0000
0001
0000
0000
0100
0000
1000
0000
0100
0000
,
0000
0000
0001
0000
0010
0000
0000
0100
0000
0000
0010
0000
0001
0000
1000
0000
,
0110
1001
0000
0000
0000
1100
0101
1100
,
0000
0000
0010
0000
0100
0001
0000
0010
0000
0000
0100
0000
1000
0010
0000
0100
,
0000
0000
0001
0000
1000
0100
0000
0010
0000
0000
0100
0000
1000
0000
0010
0000
,
0000
0000
0100
0000
0001
1000
0000
0100
0000
0000
0001
0000
0100
1000
0000
0001
,
0000
0000
0010
0000
0100
1000
0000
0001
0000
0000
0100
0000
0010
0000
1000
0000
,
0000
0000
0100
0000
0010
0001
0000
0100
0000
0000
1000
0000
0100
0001
0000
0010
,
0000
0000
0100
0000
1000
0010
0000
0100
0000
0000
0001
0000
1000
0000
0010
0000
,
0000
0000
0100
0000
0010
1000
0000
0001
0000
0000
0010
0000
0100
1000
0000
0001
,
0100
0010
0100
0000
1000
0001
1000
0000
,
0000
0000
0100
0000
1000
0000
0000
0000
0001
0000
0000
0100
0000
0000
1000
0000
,
0100
0000
0000
0000
0010
0000
0000
0001
0000
0000
1000
0000
0010
0000
0000
0000
,
0100
0000
0000
0001
0000
0000
1000
0000
0000
0100
0000
0000
0010
0000
0000
1000
,
0000
0101
0000
1100
0000
0010
0100
0000
,
0001
0000
0000
1000
0000
0000
0100
0000
0010
0000
0000
0000
0001
0000
0000
1000
,
0000
0000
0010
0000
0000
0001
0000
0000
1000
0000
0000
0010
0000
0000
0100
0000
,
0000
0001
0000
0000
1000
0000
0000
0001
0000
0000
0110
0000
0000
0000
1001
0000
,
0000
0000
0100
0000
1000
0000
0000
0000
0001
0000
0000
0010
0000
0000
1000
0000
,
0001
0000
0000
0000
0100
0000
0000
0010
0000
0000
1000
0000
0100
0000
0000
0000
,
0001
0000
0000
0010
0000
0000
0100
0000
0000
1000
0000
0000
0001
0000
0000
0100
,
0000
1100
0000
0101
0000
1000
0001
0000
,
0100
0000
0000
0010
0000
0000
1000
0000
0100
0000
0000
0000
0001
0000
0000
0100
,
0000
0000
0010
0000
0000
1000
0000
0000
0001
0000
0000
0100
0000
0000
0010
0000
,
0000
0000
0000
0000
1000
0000
0000
0000
0000
0000
0000
0000
0000
0000
0000
0000
0100
0000
0000
0000
0000
0000
0000
0000
0000
0000
0000
0000
0010
0000
0000
0000
0000
0000
0000
0000
0000
0000
0000
0000
1001
0000
0000
0000
0000
0000
0000
0000
0000
0000
0000
0000
0000
0000
0000
0000
0120
0000
0000
0000
0000
0000
0000
2000
,
0000
0000
0000
0000
0000
0000
0000
0000
0000
0000
0000
0000
0000
3000
0000
0000
,
0000
0000
0000
0000
,
0000
0000
0000
0000
,
1030
0000
0001
0000
0100
0010
0000
1000
0000
0000
0001
0000
0100
0001
0000
0010
,
0000
0000
0100
0000
1000
0010
0000
0100
0000
0000
0001
0000
1000
0000
0100
0000
,
0000
0000
0010
0000
0001
0100
0000
0010
0000
0000
1000
0000
0100
0010
0000
0001
,
0000
0000
0010
0000
0100
1000
0000
0001
0000
0000
1000
0000
0010
0000
0100
0000
,
0000
0000
0010
0000
1000
0001
0000
0010
0000
0000
0100
0000
0001
0100
0000
1000
,
0000
0000
0010
0000
0100
0001
0000
0010
0000
0000
0100
0000
1000
0000
0001
0000
,
0000
0000
0010
0000
0001
0100
0000
0010
0000
0000
1000
0000
0100
0001
0000
0100
,
1000
0101
0000
0000
0000
0110
1001
0110
,
0000
0000
0001
0000
1000
0100
0000
0010
0001
0000
0100
0000
0010
1000
0000
0001
,
0100
0000
0010
0000
1000
0100
0000
0001
0100
0000
0010
0000
0001
0000
1000
0000
,
0000
0000
0100
0000
0010
0001
0000
1000
0010
0000
0100
0000
0010
1000
0000
0001
,
0010
0000
0100
0000
1000
0001
0000
0100
0010
0000
1000
0000
0100
0000
0001
0000
,
0000
0000
0100
0000
0010
0001
0000
1000
0001
0000
0100
0000
0010
1000
0000
0001
,
0010
0000
0100
0000
0010
0001
0000
0100
1000
0000
0100
0000
0001
0000
0010
0000
,
0000
0000
0100
0000
1000
0001
0000
0100
1000
0000
0100
0000
0010
1000
0000
0100
,
0001
0100
1000
0000
1000
0010
0001
0000
,
0100
1000
0001
0010
,
0100
0100
0100
0000
1000
1000
1000
0000
,
0001
0001
0001
0000
0010
0010
0010
0000
,
1000
1000
1000
0000
0001
0001
0001
0000
,
1100
1000
1000
0000
0010
0000
0001
0000
,
0101
0001
0001
0000
0010
0000
1000
0000
,
1100
1001
0101
1001
,
0010
0001
0100
0000
0010
1000
0100
0000
,
0010
0001
0100
1000
0100
0001
0010
0100
,
1000
0100
0001
0100
0010
0001
1000
0010
,
0001
0010
1000
0100
0010
0001
0100
1000
,
0100
0010
0100
0000
0001
0010
0001
0000
1000
0100
1000
0000
0001
0100
0001
0000
,
1000
0010
1000
0000
0100
0010
0100
0000
0010
0001
0010
0001
0100
0001
0100
0010
,
0100
0010
1000
0010
1000
0100
0010
0100
1000
0001
0100
0001
1000
0100
0010
0001
,
0200
0000
0000
0000
,
0000
0000
0000
0000
,
0000
0000
0000
0000
,
0000
0000
0000
0000
,
0300
0000
0000
0000
;

//---------------dance-single - ----------------
#NOTES:
     dance-single:
     :
     Medium:
     10:
     0.421,0.557,0.126,0.027,0.144: // measure 1
0000
0000
0000
0000
,  // measure 2
0000
0000
0000
0000
,  // measure 3
0000
0000
0000
0000
,  // measure 4
0000
0000
0000
0000
,  // measure 5
0000
0000
0000
0000
,  // measure 6
0000
0000
0000
0000
,  // measure 7
0001
0001
0001
0001
,  // measure 8
0001
0000
0001
0000
0001
1000
0010
0100
,  // measure 9
1000
1000
1000
1000
,  // measure 10
1000
0000
1000
0000
1000
0001
0010
0100
,  // measure 11
0010
0010
0010
0010
,  // measure 12
0010
0000
0010
0000
0010
0100
1000
0001
,  // measure 13
0100
0100
0100
0100
,  // measure 14
0100
0010
0000
0000
0000
0010
0100
0010
,  // measure 15
1000
0100
0010
0000
0001
0000
0100
0000
,  // measure 16
0001
0100
0010
0000
1000
0000
0100
0010
,  // measure 17
0000
0010
0100
0000
1000
0000
0001
0000
,  // measure 18
0100
0010
1000
0000
0100
0000
0010
0001
,  // measure 19
0000
0001
0100
0000
0010
0000
1000
0000
,  // measure 20
0001
1000
0100
0000
0010
0000
1000
0010
,  // measure 21
0000
0010
0100
0000
0001
0000
1000
0000
,  // measure 22
0010
0010
0010
0000
0100
0100
0100
0000
,  // measure 23
0000
0000
0001
0000
0001
0000
0000
0000
1000
0000
0000
1000
0000
0000
0001
0000
,  // measure 24
0001
0000
0000
0000
1000
0000
0000
1000
0000
0000
0001
0000
0001
0000
0000
0000
,  // measure 25
1000
0000
0000
1000
0000
0000
0001
0000
0000
1000
0000
0000
0001
0000
0000
1000
,  // measure 26
0000
1001
0000
1001
0000
0010
0010
0000
,  // measure 27
0100
0000
0000
0100
0000
0000
0010
0000
0010
0000
0000
0000
0100
0000
0000
0100
,  // measure 28
0000
0000
0010
0000
0000
0100
0000
0000
0010
0000
0000
0100
0000
0000
0010
0000
,  // measure 29
0000
0100
0000
0000
0010
0000
0000
0100
0000
0000
0110
0000
0000
0000
0110
0000
,  // measure 30
0000
0000
1000
0000
1000
0000
0000
0000
0100
0000
0000
0100
0000
0000
1000
0000
,  // measure 31
1000
0000
0000
0000
0100
0000
0000
0100
0000
0000
1000
0000
1000
0000
0000
0000
,  // measure 32
0100
0000
0000
0100
0000
0000
1000
0000
0000
0100
0000
0000
1000
0000
0000
0100
,  // measure 33
0000
1100
0000
1100
0000
0001
0001
0000
,  // measure 34
0100
0000
0000
0100
0000
0000
0001
0000
0001
0000
0000
0000
0100
0000
0000
0100
,  // measure 35
0000
0000
0001
0000
0000
0100
0000
0000
0001
0000
0000
0100
0000
0000
0001
0000
,  // measure 36
0000
0100
0000
0000
0001
0000
0000
0100
0000
0000
0101
0000
0000
0000
0202
0000
,  // measure 37
0000
0000
0000
0000
0000
0000
0000
0000
0000
0000
0000
0000
0000
0300
0000
0000
,  // measure 38
0000
0000
0000
0000
,  // measure 39
0000
0000
0000
0000
,  // measure 40
1003
0100
0010
1000
,  // measure 41
0010
0001
0100
0000
0010
0000
1000
0100
,  // measure 42
0000
0100
0010
0000
0001
0000
1000
0000
,  // measure 43
0001
1000
0100
0000
0010
0000
1000
0001
,  // measure 44
0000
0001
1000
0000
0010
0000
0100
0000
,  // measure 45
0001
1000
0100
0000
0010
0000
0001
0100
,  // measure 46
0000
0100
0010
0000
1000
0000
0001
0000
,  // measure 47
1000
0001
0000
0000
0000
1000
0001
1000
,  // measure 48
0000
0000
0010
0000
0100
0000
0000
0100
0000
0000
0100
0000
0001
0000
0000
0001
,  // measure 49
0000
0000
0001
0000
0010
0000
0000
0010
0000
0000
0010
0000
0100
0000
1000
0000
,  // measure 50
0000
0000
0100
0000
1000
0000
0000
1000
0000
0000
1000
0000
0010
0000
0000
0010
,  // measure 51
0000
0000
0010
0000
0100
0000
0000
0100
0000
0000
0100
0000
0001
0000
0010
0000
,  // measure 52
0000
0000
0001
0000
0010
0000
0000
0010
0000
0000
0010
0000
0100
0000
0000
0100
,  // measure 53
0000
0000
0100
0000
1000
0000
0000
1000
0000
0000
1000
0000
0010
0000
0100
0000
,  // measure 54
0000
0000
0010
0000
0100
0000
0000
0100
0000
0000
0100
0000
0001
0000
0000
0000
,  // measure 55
1000
1000
1000
0000
0001
0001
0001
0000
,  // measure 56
1000
0100
0001
0100
,  // measure 57
0010
0010
0100
0100
,  // measure 58
0001
0001
1000
1000
,  // measure 59
0010
0010
1000
1000
,  // measure 60
0110
0100
0001
0001
,  // measure 61
0101
0100
0010
0010
,  // measure 62
1100
1000
1001
0001
,  // measure 63
0101
0100
0110
0010
,  // measure 64
1000
0100
1000
0000
1000
0000
1000
0001
,  // measure 65
0100
0000
0100
0000
0100
0010
1000
0000
,  // measure 66
1000
0000
1000
0100
0001
0000
0001
0000
,  // measure 67
0001
0100
0010
0100
0010
0100
0010
0100
,  // measure 68
0010
0100
0010
0100
0010
0001
1000
0100
,  // measure 69
1000
0010
0100
0001
0100
1000
0100
0001
,  // measure 70
0020
0000
0000
0000
,  // measure 71
0000
0000
0000
0000
,  // measure 72
0000
0000
0000
0000
,  // measure 73
0000
0000
0000
0000
,  // measure 74
0030
0000
0000
0000
;

//---------------dance-single - ----------------
#NOTES:
     dance-single:
     :
     Easy:
     7:
     0.285,0.361,0.072,0.063,0.000: // measure 1
0000
0000
0000
0000
,  // measure 2
0000
0000
0000
0000
,  // measure 3
0000
0000
0000
0000
,  // measure 4
0000
0000
0000
0000
,  // measure 5
0000
0000
0000
0000
,  // measure 6
0000
0000
0000
0000
,  // measure 7
1000
1000
1000
1000
,  // measure 8
1000
1000
1000
1000
,  // measure 9
0000
0001
0001
0001
,  // measure 10
0001
0001
0001
0001
,  // measure 11
0000
0100
0100
0100
,  // measure 12
0100
0100
0100
0100
,  // measure 13
0000
0010
0010
0010
,  // measure 14
0010
0010
0000
0000
0000
0100
0100
0100
,  // measure 15
1000
0100
1000
0100
,  // measure 16
0010
0001
1000
0100
,  // measure 17
0000
0001
0100
1000
,  // measure 18
0100
0001
0010
0100
,  // measure 19
0000
1000
0100
1000
,  // measure 20
0001
0010
0100
0010
,  // measure 21
0000
0100
1000
0001
,  // measure 22
0200
0300
0020
0030
,  // measure 23
0000
1000
0000
0000
0001
0000
0000
1000
,  // measure 24
0000
0000
0001
0000
0000
1000
0000
0000
,  // measure 25
0001
0000
0000
1000
0000
0000
0001
0000
,  // measure 26
0000
1001
0000
1001
0000
0010
0000
0000
,  // measure 27
0100
0000
0000
0010
0000
0000
0100
0000
,  // measure 28
0000
0010
0000
0000
0100
0000
0000
0010
,  // measure 29
0000
0000
0100
0000
0000
0110
0000
0110
,  // measure 30
0000
1000
0000
0000
0100
0000
0000
0001
,  // measure 31
0000
0000
0100
0000
0000
1000
0000
0000
,  // measure 32
0100
0000
0000
0001
0000
0000
0100
0000
,  // measure 33
0000
1001
0000
1001
0000
0001
0000
0000
,  // measure 34
0100
0000
0000
1000
0000
0000
0100
0000
,  // measure 35
0000
0001
0000
0000
0100
0000
0000
1000
,  // measure 36
0000
0000
0100
0000
0000
1001
0000
2002
,  // measure 37
0000
0000
0000
0000
0000
0000
0000
0000
0000
0000
0000
0000
0000
3003
0000
0000
,  // measure 38
0000
0000
0000
0000
,  // measure 39
0000
0000
0000
0000
,  // measure 40
0100
0010
1000
0100
,  // measure 41
0010
1000
0001
0100
,  // measure 42
0000
0010
1000
0001
,  // measure 43
0100
0010
1000
0100
,  // measure 44
0000
0010
0001
0010
,  // measure 45
0001
1000
0100
0010
,  // measure 46
0000
0100
0001
1000
,  // measure 47
0100
0100
0000
0000
0000
0010
0010
0010
,  // measure 48
0001
0100
0010
1000
,  // measure 49
0100
0001
0100
1000
,  // measure 50
0000
0010
0010
0100
,  // measure 51
0001
1000
0100
1000
,  // measure 52
0000
0001
0010
0001
,  // measure 53
0100
0010
1000
0001
,  // measure 54
0000
0100
0100
0010
,  // measure 55
2000
3000
0002
0003
,  // measure 56
0000
1000
0000
1000
,  // measure 57
0000
0001
0000
0001
,  // measure 58
0000
0100
0000
0100
,  // measure 59
0000
0010
0000
0010
,  // measure 60
0100
0010
0000
0010
,  // measure 61
1000
0010
0000
0010
,  // measure 62
0001
0010
1000
0010
,  // measure 63
0001
1000
0001
1000
,  // measure 64
0100
0100
0100
0100
,  // measure 65
0100
0100
0100
0100
,  // measure 66
0100
0100
0100
0100
,  // measure 67
0100
0010
0001
1000
,  // measure 68
0100
0000
0010
0000
0001
1000
0100
0010
,  // measure 69
0001
1000
0100
0010
0001
1000
0100
0010
,  // measure 70
0002
0000
0000
0000
,  // measure 71
0000
0000
0000
0000
,  // measure 72
0000
0000
0000
0000
,  // measure 73
0000
0000
0000
0000
,  // measure 74
0003
0000
0000
0000
;

//---------------dance-single - Copied from----------------
#NOTES:
     dance-single:
     Copied from:
     Beginner:
     3:
     0.148,0.279,0.072,0.000,0.000:
0000
0000
0000
0000
,
0000
0000
0000
0000
,
0000
0000
0000
0000
,
0000
0000
0000
0000
,
0000
0000
0000
0000
,
0000
0000
0000
0000
,
1000
0000
1000
0000
,
1000
0000
1000
0000
,
0001
0000
0001
0000
,
0001
0000
0001
0000
,
0100
0000
0100
0000
,
0100
0000
0100
0000
,
0010
0000
0010
0000
,
0010
0000
0000
0000
,
1000
0000
1000
0000
,
0010
0000
1000
0000
,
0001
0000
0100
0000
,
0100
0000
0010
0000
,
1000
0000
0100
0000
,
0001
0000
0100
0000
,
0100
0000
1000
0000
,
0100
0000
0010
0000
,
0000
0000
1000
0000
,
0000
0001
0000
0000
,
1000
0000
0000
0001
,
0000
0000
0000
0000
,
0100
0000
0000
0010
,
0000
0000
0100
0000
,
0000
0010
0000
0000
,
0000
0000
1001
0000
,
0000
1001
0000
0000
,
1001
0000
0000
1001
,
0000
0000
0000
0000
,
0110
0000
0000
0110
,
0000
0000
0110
0000
,
0000
0110
0000
0000
,
0000
0000
0000
0000
,
0000
0000
0000
0000
,
0000
0000
0000
0000
,
0100
0000
1000
0000
,
0010
0000
0001
0000
,
0010
0000
1000
0000
,
0100
0000
1000
0000
,
0010
0000
0001
0000
,
0001
0000
0100
0000
,
0100
0000
0001
0000
,
0100
0000
0000
0000
,
0001
0000
0010
0000
,
0100
0000
0100
0000
,
0010
0000
0010
0000
,
0001
0000
0100
0000
,
0001
0000
0010
0000
,
0100
0000
1000
0000
,
0100
0000
0100
0000
,
1000
0000
0001
0000
,
1000
0000
0000
0000
,
0001
0000
0000
0000
,
0100
0000
0000
0000
,
0010
0000
0000
0000
,
0100
0000
0000
0000
,
1000
0000
0000
0000
,
0001
0000
0100
0000
,
1000
0000
0001
0000
,
0100
0000
0100
0000
,
0100
0000
0100
0000
,
0100
0000
0100
0000
,
0100
0100
0100
0100
,
0100
0100
0100
0010
,
0100
0010
0100
0010
,
0100
0000
0000
0000
;
