#TITLE:Yo te atrapo, tu me atrapas;
#SUBTITLE:Sakura Card Captor Opening 1 Latino;
#ARTIST:Claudia Hernandez;
#TITLETRANSLIT:;
#SUBTITLETRANSLIT:;
#ARTISTTRANSLIT:;
#GENRE:;
#CREDIT:Magna Trick;
#BANNER:YTAYMABN.png;
#BACKGROUND:YTAYMAB.png;
#LYRICSPATH:;
#CDTITLE:Magna Trick title!.png;
#MUSIC:Yo te atrapo tu me atrapas.mp3;
#OFFSET:-0.120000;
#SAMPLESTART:15.800000;
#SAMPLELENGTH:15.000000;
#SELECTABLE:YES;
#BPMS:0.000000=127.969994
;
#STOPS:
;
#BGCHANGES:0.063=Yo te atrapo tu me atrapas.avi=1.000=0=0=1=====,
171.000=YTAYMAB.png=1.000=0=0=1=====,
99999=-nosongbg-=1.000=0=0=0 // don't automatically add -songbackground-
;
#KEYSOUNDS:;
#ATTACKS:;

//---------------dance-single - ----------------
#NOTES:
     dance-single:
     :
     Hard:
     8:
     0.408747,0.528773,0.308322,0.394652,0.055498,232.000000,207.000000,25.000000,32.000000,0.000000,0.000000,0.408747,0.528773,0.308322,0.394652,0.055498,232.000000,207.000000,25.000000,32.000000,0.000000,0.000000:
0000
0000
0000
0000
,
0000
0000
0000
0000
0001
1000
0001
1000
0001
0000
0000
0000
0000
0000
1000
0000
,
0000
1000
0000
1010
0000
0000
0000
0100
,
0000
0100
0000
0101
0000
0000
0000
1000
,
0000
0001
0000
1100
0000
0101
0000
0011
,
0000
1010
0000
1001
0000
0001
1000
0000
,
0010
0100
0001
1000
0000
1000
0100
0010
,
0000
0001
0100
0010
0000
0100
0100
0000
,
0001
1000
0001
1100
0000
1100
0000
0101
,
0000
0101
0010
1000
0002
0000
0000
0013
,
0000
0000
0100
1000
0002
0000
0000
0103
,
0000
0000
1000
0010
0200
0000
0000
0301
,
0000
0000
1000
0010
1010
0000
0100
0101
,
0000
0000
0101
0000
1000
0000
1000
0000
0002
0000
0000
0000
0000
0003
0010
0000
,
0000
0000
1000
0010
0002
0000
0000
0103
,
0000
0000
0001
1000
1001
0000
0000
1000
,
0001
1000
0001
0010
0200
0000
1300
0002
,
0000
0003
0200
0000
0320
0000
2030
0000
,
3002
0023
0230
2300
,
3002
0000
0000
0003
0100
0010
1000
0001
,
0000
0001
0010
0100
2000
0000
3002
0000
,
0203
0000
0320
0000
1030
0001
1000
0000
,
0001
1000
0001
0000
0001
0010
0100
0000
,
1000
0100
0010
0000
0001
0100
0010
1000
,
0001
0100
0010
1000
0001
0001
1000
1000
,
0001
0010
0100
1000
1000
0100
0100
0010
,
0010
0001
0001
1000
0010
0200
0000
0000
,
0000
0000
0000
0300
0010
0000
0010
0000
,
0100
0000
0000
0000
0100
0000
0000
0000
0010
0100
0001
0000
2000
0000
0000
0000
,
3200
0000
0310
0010
0001
0001
1000
1000
,
0010
0010
0100
0100
0001
2000
0000
0000
,
0000
0000
0000
0000
0000
0000
0000
3000
0001
0010
0001
0010
0001
0000
0000
0000
,
1000
0100
1000
0100
1000
0000
0010
1000
0001
0000
0001
0000
1000
0000
1000
0000
,
0001
0001
0100
0020
0000
0000
0000
0000
,
0000
0030
0000
1010
0000
1010
0000
0011
,
0000
0011
0000
1001
0000
0100
1000
0000
,
0001
0100
0010
1000
0000
0010
1000
0100
,
0000
0010
0001
0100
0000
0010
0100
0000
,
0010
0100
0001
1001
0000
1100
0000
0110
,
0000
0011
0000
2002
0000
3003
2000
0000
,
0000
0000
3020
0000
0000
0000
0000
0000
0030
0200
0000
0000
0000
0000
0302
0000
,
0000
0000
0000
2003
0000
0000
3200
0000
,
0000
0000
0000
0000
0000
0000
0000
0300
;

//---------------dance-single - ----------------
#NOTES:
     dance-single:
     :
     Challenge:
     14:
     0.584931,0.740282,0.258991,0.382320,0.388486,332.000000,311.000000,21.000000,31.000000,0.000000,0.000000,0.584931,0.740282,0.258991,0.382320,0.388486,332.000000,311.000000,21.000000,31.000000,0.000000,0.000000:
// measure 0
0000
0000
0000
0000
,  // measure 1
0000
0000
0000
0000
0000
0000
0000
0000
0000
0000
0000
0000
1000
0000
0001
0000
1000
0000
0001
0000
1000
0000
0001
0000
1000
0000
0000
0000
0000
0000
0000
0000
0000
0001
0000
0000
1000
0000
0000
0000
0000
0000
0010
0000
0000
0000
0000
0000
,  // measure 2
0100
0000
0001
0100
0010
1000
0001
0000
1000
0000
0000
1000
0001
0000
0010
0000
,  // measure 3
0100
0000
1000
0100
0010
0001
1000
0000
0001
0000
0000
0100
1000
0000
0100
0000
,  // measure 4
0010
0000
0001
0010
0100
1000
0011
0000
0000
0000
1010
0000
0000
0000
1100
0000
,  // measure 5
0001
0000
0100
0000
0001
0000
0100
0000
0000
0000
0000
0000
0000
0000
0000
0000
0000
0000
1001
0000
0000
0000
0000
0000
0000
0000
0000
0000
0000
0000
1000
0000
0000
0001
0000
0000
1000
0000
0000
0000
0000
0000
0010
0000
0000
0000
0000
0000
,  // measure 6
0100
0010
0100
0000
0001
0000
0001
0000
1000
0000
0100
1000
0100
0000
0010
0000
,  // measure 7
0001
0000
0100
0001
0100
0010
1000
0000
0100
0000
0110
0000
0110
0000
1000
0001
,  // measure 8
1000
0001
1000
0000
0100
0000
0011
0000
0001
0000
0011
0000
0010
0000
1010
0000
,  // measure 9
1000
0000
0010
0000
1000
0000
0010
0000
0000
0000
0000
0000
0100
0000
0000
0000
0000
0000
0001
0000
0000
0100
0000
0000
2000
0000
0000
0000
0000
0000
0000
0000
0000
0000
0000
0000
0100
0000
0000
0000
0000
0000
3100
0000
0000
0000
0000
0000
,  // measure 10
0000
0000
0010
0001
2000
0000
0010
3010
,  // measure 11
0000
0000
0001
0100
0020
0000
1000
1030
,  // measure 12
0000
0000
0001
0100
0101
0000
0010
1010
,  // measure 13
0000
0000
1010
0000
0001
0000
0001
0000
2000
0000
0000
0000
0100
3000
0100
0000
,  // measure 14
0000
0000
0001
0100
2000
0000
0010
3010
,  // measure 15
0000
0000
1000
0001
1001
0000
0000
0001
,  // measure 16
1000
0001
1000
0100
0020
0000
0031
1000
,  // measure 17
0010
0000
0100
0000
0010
0000
0100
0000
0000
0000
0000
0000
0001
0000
0000
0000
0000
0000
1000
0000
0000
0001
0000
0000
2000
0000
0000
0000
0000
0000
0000
0000
0000
0000
0000
0000
3002
0000
0000
0000
0000
0000
0000
0000
0000
0000
0000
0000
,  // measure 18
2003
0000
0000
0000
3100
0010
0100
0000
0020
0000
0000
0000
0032
0000
0000
0000
,  // measure 19
2003
0000
0000
0000
3010
0100
0010
0000
0100
0000
0100
0000
0001
0000
1000
0000
,  // measure 20
0000
0000
1000
0000
0100
0010
0001
0000
0002
0000
0000
0000
2003
0000
0000
0000
,  // measure 21
3020
0000
0000
0000
0130
0001
0100
0000
0001
0000
1000
0000
0001
0000
0000
0000
,  // measure 22
1000
0000
0001
0000
1000
0100
1000
0000
0100
0000
1000
0000
0010
0000
0000
0000
,  // measure 23
0001
0000
0010
0000
0100
0010
0100
0000
0010
0000
1000
0000
0010
0000
0100
0000
,  // measure 24
0010
0001
0010
0100
1000
1000
0001
0001
,  // measure 25
1000
0000
0100
0000
0001
0000
0010
0000
0000
0000
0000
0000
0010
0000
0000
0000
0000
0000
0001
0000
0000
0010
0000
0000
0001
0000
0000
0000
0000
0000
0010
0000
0000
0000
0000
0000
0010
0000
0000
0000
0000
0000
0100
0000
0000
0000
0000
0000
,  // measure 26
0100
0000
1000
0000
1000
0001
0100
0000
0100
0000
0020
0000
1000
0000
0000
0000
,  // measure 27
1030
0000
0001
0000
0100
0010
0100
0000
0002
0000
0000
0000
0203
0000
0000
0000
,  // measure 28
0320
0000
0000
0000
1030
0001
1000
0000
0100
0010
0001
0000
0002
0000
0000
0000
,  // measure 29
0023
0000
0000
0000
0130
1000
0100
0000
1000
0000
1000
0000
0001
0000
0001
0000
,  // measure 30
0100
0000
0100
0000
0010
1000
0010
0000
1000
0000
0002
0000
1000
0000
0000
0000
,  // measure 31
1003
0000
0100
0000
0010
0100
0010
0000
0100
1000
0100
1000
0100
0000
0000
0000
,  // measure 32
0010
0001
0010
0001
0010
0000
0100
1000
0001
0000
0001
0000
1000
0000
1000
0000
,  // measure 33
0010
0000
0010
0000
0100
0010
0200
0000
0000
0000
0000
0000
0002
0000
0000
0000
,  // measure 34
0000
0303
0000
0101
0000
0101
0000
1100
,  // measure 35
1000
0000
0100
0000
1000
0000
0100
0000
0000
0000
0000
0000
0000
0000
0000
0000
0000
0000
1001
0000
0000
0000
0000
0000
0000
0000
0000
0000
0000
0000
0010
0000
0000
0000
0000
0000
0001
0000
0000
0000
0000
0000
1000
0000
0000
0001
0000
0000
,  // measure 36
1000
0000
0010
0000
0100
0010
0100
0000
0000
0000
0100
0001
0010
0000
0010
0000
,  // measure 37
0000
0000
0100
1000
0010
0000
0010
0000
0000
0000
0100
0010
0100
0000
0000
0000
,  // measure 38
0100
0010
1000
0000
0001
0000
1001
0000
0000
0000
0011
0000
0000
0000
0110
0000
,  // measure 39
0100
1000
0100
1000
0000
0000
0000
0000
0000
2001
0000
0000
0000
0000
0000
3001
1000
0001
2000
0000
0000
0000
0000
0000
,  // measure 40
0000
0000
3200
0000
0000
0000
0000
0000
0300
0020
0000
0000
0000
0000
0032
0000
,  // measure 41
0000
0000
0000
2003
0000
0000
3020
0000
,  // measure 42
0000
0000
0000
0000
0000
0000
0000
0030
;

//---------------dance-single - ----------------
#NOTES:
     dance-single:
     :
     Medium:
     6:
     0.354130,0.449457,0.135662,0.332988,0.006166,201.000000,190.000000,11.000000,27.000000,0.000000,0.000000,0.354130,0.449457,0.135662,0.332988,0.006166,201.000000,190.000000,11.000000,27.000000,0.000000,0.000000:
0000
0000
0000
0000
,
0000
0000
0002
0000
2003
3000
0000
0010
,
0000
0010
0000
0100
0000
0000
0000
0100
,
0000
0100
0000
0010
0000
0000
0000
0010
,
0000
0100
0000
1001
0000
1001
0000
1001
,
0000
1001
0000
0110
0000
0010
1000
0000
,
0010
1000
0010
1000
0000
0001
0100
0001
,
0000
0100
0001
0100
0000
0010
1000
0000
,
0001
1000
0001
1000
0000
0001
0000
0001
,
0000
1000
0000
1000
0002
0000
0000
0103
,
0000
0000
0010
1000
0200
0000
0000
1300
,
0000
0000
0001
0100
0020
0000
0000
0130
,
0000
0000
0001
1000
0100
0000
0010
0001
,
0000
0000
0001
0010
0200
0000
0000
0310
,
0000
0000
0001
0100
0020
0000
0000
0130
,
0000
0000
0001
1000
0002
0003
0000
1000
,
0001
1000
0001
1000
0001
0000
1000
0001
,
0000
0020
0230
2300
,
3002
0203
0320
2030
,
3002
0000
0000
0003
0010
0100
1000
0100
,
0000
1000
0100
1000
0100
0000
0100
0000
,
0010
0000
0010
0000
0001
0010
0001
0000
,
0100
0001
0100
0000
1000
0100
1000
0000
,
0010
1000
0010
0000
0001
1000
0001
1000
,
0001
1000
0001
1000
0001
1000
0001
1000
,
0001
1000
0001
0001
1000
1000
0001
0001
,
1000
1000
0001
0001
1000
2000
0000
0000
,
0000
3000
0000
0000
1000
0000
1000
0000
,
0001
0000
0001
0000
0010
0100
0010
0000
,
0100
0000
0010
0010
0001
0001
0010
0010
,
0001
0001
0010
0010
0001
0002
0000
0000
,
0000
0003
0100
0100
,
0010
0010
1000
1000
,
1000
0000
1000
0002
0000
0000
0000
0000
,
0000
0000
0003
0100
0000
0100
0000
0010
,
0000
0010
0000
1001
0000
0001
1000
0000
,
1000
0001
1000
0001
0000
0001
1000
0001
,
0000
1000
0001
1000
0000
0001
1000
0000
,
0001
0100
0010
1001
0000
1100
0000
0110
,
0000
0011
0000
2002
0000
3003
2000
0000
,
0000
0000
3020
0000
0000
0000
0000
0000
0030
0200
0000
0000
0000
0000
0302
0000
,
0000
0000
0000
2003
0000
0000
3200
0000
,
0000
0000
0000
0000
0000
0000
0000
0300
;

//---------------dance-single - ----------------
#NOTES:
     dance-single:
     :
     Easy:
     1:
     0.139185,0.220605,0.012333,0.024666,0.000000,79.000000,78.000000,1.000000,2.000000,0.000000,0.000000,0.139185,0.220605,0.012333,0.024666,0.000000,79.000000,78.000000,1.000000,2.000000,0.000000,0.000000:
0000
0000
0000
0000
,
0000
0000
0000
0000
,
0000
0000
0000
0000
,
0000
0000
0000
0000
,
0000
0000
0000
0001
0000
1000
0000
0001
,
0000
1000
0000
0001
0000
0000
0000
0000
,
0000
0000
0000
0000
,
0000
0000
0000
0000
,
0000
0000
0000
0100
0000
0010
0000
0100
,
0000
0010
0000
0100
0000
0000
0000
0000
,
0000
0001
1000
0000
,
0000
1000
0001
0000
,
0000
0010
0100
0010
,
0100
0000
1000
0000
,
0000
0000
0001
0000
,
0000
0100
0100
0000
,
0010
0000
1000
0001
,
1000
0000
0002
0003
,
0000
0000
2000
3000
,
0000
0000
0010
0000
,
0100
0000
0010
0100
,
0010
0100
0001
0000
,
1000
0000
0001
0000
,
0010
0000
0100
0100
,
0100
0100
0100
0100
,
0100
0100
0010
0000
,
0100
0000
0010
0000
,
0000
0000
0001
0001
,
1000
0000
1000
1000
,
0001
0000
0010
0000
,
0001
0000
1000
0000
,
0000
0000
1000
1000
,
0001
0001
0100
0100
,
0100
0100
0100
0000
,
0000
0000
0000
0001
0000
1000
0000
0001
,
0000
1000
0000
0001
0000
0000
0000
0000
,
0000
0000
0000
0000
,
0000
0000
0000
0000
,
0000
0000
0000
0001
0000
1000
0000
0001
,
0000
1000
0000
0001
0000
0000
1001
0000
;
