#TITLE:ヤッターマンの歌;
#SUBTITLE:Time Bokkan Series Yattaman Opening Remix;
#ARTIST:DJ Kazma;
#TITLETRANSLIT:Yatterman No Uta;
#SUBTITLETRANSLIT:;
#ARTISTTRANSLIT:;
#GENRE:;
#CREDIT:;
#BANNER:Yatterman No Uta-bn.png;
#BACKGROUND:Yatterman No Uta-bg.png;
#LYRICSPATH:;
#CDTITLE:cdtitle.png;
#MUSIC:Yatterman No Uta.mp3;
#OFFSET:-6.690338;
#SAMPLESTART:62.529999;
#SAMPLELENGTH:12.000000;
#SELECTABLE:YES;
#BPMS:0.000000=154.020004
;
#STOPS:
;
#BGCHANGES:0.063=Yatterman No Uta.avi=1.000=0=0=1=====,
242.000=Yatterman No Uta-bg.png=1.000=0=0=1=====,
99999=-nosongbg-=1.000=0=0=0 // don't automatically add -songbackground-
;
#KEYSOUNDS:;
#ATTACKS:;

//---------------dance-single - ----------------
#NOTES:
     dance-single:
     :
     Hard:
     9:
     0.490663,0.492707,0.298246,0.519525,0.009621,357.000000,326.000000,31.000000,54.000000,0.000000,0.000000,0.490663,0.492707,0.298246,0.519525,0.009621,357.000000,326.000000,31.000000,54.000000,0.000000,0.000000:
2010
0000
3001
0000
1000
0010
1000
0000
,
0001
0100
0001
0100
0020
0000
0130
0000
,
0001
1000
0001
0010
0100
0010
0001
1000
,
0100
0010
0100
1000
0020
0000
1030
0000
,
0102
0000
0013
0000
0100
1000
0010
0000
,
0010
0100
0001
0010
0002
0000
1000
0003
,
1000
0000
1002
0000
0103
0001
1000
0000
,
1000
0001
1000
0010
2000
0000
0000
0000
,
3020
0100
0100
0130
,
0100
0100
0000
0200
0000
0300
0100
0000
,
0200
0010
0010
0310
,
0001
0001
0000
0002
0000
0003
0001
0000
,
1000
0000
0010
1000
0010
0000
0101
0000
,
0001
0100
0010
0100
0001
0000
0100
0000
,
0010
1000
0010
0100
0010
0000
0110
0000
,
0001
1000
0010
1000
0100
0000
1000
0000
,
0100
0000
0010
0001
0010
0000
0100
0000
2000
0000
0000
0000
3001
0000
0000
0000
,
0100
0000
0000
0010
0100
0000
0001
0000
0100
0000
0000
0000
0010
0000
0000
0000
,
0100
0001
1000
0010
0100
0000
0110
0000
,
0010
1000
0001
0100
0010
0100
0010
1000
,
0002
0000
0103
0010
0100
0000
0002
0000
,
1003
0000
0001
0010
0001
0010
0001
0100
,
0020
0000
1030
0100
0010
0001
0010
0010
,
0002
0000
2003
0000
3002
0000
0013
0001
,
0020
0000
0031
0100
0010
0000
1000
0001
,
1000
0001
0010
0000
0001
0100
0010
1000
,
0200
0000
1300
0010
2000
0000
3010
0100
,
0001
0100
0010
1000
0001
0010
0001
0001
,
0002
0000
1003
0010
1000
0010
1000
0000
,
0020
0000
0130
0001
1000
0010
0100
0000
,
1001
2001
0100
3100
,
0110
0210
0001
0301
,
0020
0000
0031
0100
0001
0000
0010
0000
,
0110
1001
0002
1003
,
0010
0000
0100
0001
0100
0010
1000
0000
,
0010
0100
0001
0000
0001
0010
0100
1000
,
0010
2001
3001
0210
,
0310
2010
3001
0210
,
0302
1003
1001
1001
,
0220
0000
0330
0001
,
1020
0000
0130
0000
0010
0100
0001
0000
,
0100
0010
0001
0010
0200
0000
0310
0000
,
0001
0100
0010
0100
0010
1000
0001
1000
,
0001
0100
0010
1000
0100
1000
0010
0100
,
0002
0000
0103
0000
1000
0001
0010
0000
,
0100
1000
0001
0100
0002
0000
0013
0000
,
0010
0000
2010
0000
3010
0100
0001
0000
,
0100
0010
1000
0100
0020
0000
0000
0000
,
0032
1000
0100
1003
,
2100
0010
0001
3100
,
0002
0000
2000
3003
,
1001
1001
1001
1001
,
0200
0000
0301
1000
0001
0000
0100
0000
,
0110
1001
2000
3010
,
0100
0000
0001
1000
0001
0100
0010
0000
,
0100
0001
1000
0001
1000
0001
0010
0010
,
0100
2000
0010
3000
1000
0020
0100
0030
,
0100
0002
1000
0003
1000
0002
0100
0003
,
2000
3010
1010
1010
,
0100
0001
0100
0001
0200
0000
0300
0000
,
2002
3003
0000
0000
;

//---------------dance-single - ----------------
#NOTES:
     dance-single:
     :
     Challenge:
     14:
     0.670710,0.724570,0.702321,0.634976,0.408886,488.000000,415.000000,73.000000,66.000000,0.000000,0.000000,0.670710,0.724570,0.702321,0.634976,0.408886,488.000000,415.000000,73.000000,66.000000,0.000000,0.000000:
// measure 0
2010
0000
0000
0000
3010
0000
0000
0000
0100
0010
0100
0010
0000
0000
0100
0000
,  // measure 1
0002
0000
0000
1000
0000
0000
1003
0000
0010
0000
0000
0000
1000
0000
0000
0000
,  // measure 2
0001
1000
0001
1000
0010
0100
0010
1000
0001
1000
0010
1000
0010
0100
0010
0001
,  // measure 3
0010
0100
0010
1000
0010
0000
1001
0000
,  // measure 4
2001
0000
0000
0000
3010
0000
0000
0000
0100
0010
0100
0010
0000
0000
0100
0000
,  // measure 5
0002
0000
0000
0010
0000
0000
0013
0000
1001
0000
0000
0000
1100
0000
0000
0000
,  // measure 6
1010
0000
0000
0000
0101
0000
0000
0000
0010
1000
0010
1000
0000
0000
0100
0000
,  // measure 7
1000
0010
1000
0010
1000
0010
0100
0010
0200
0000
0000
0000
0300
0000
0000
0000
,  // measure 8
1010
0000
1020
1000
1000
0000
1030
0000
,  // measure 9
1010
1010
0000
1001
0000
0000
0101
0000
,  // measure 10
1001
0000
2001
0001
0001
0000
3001
0000
,  // measure 11
1001
1001
0000
0101
0000
0000
1001
0000
,  // measure 12
0200
0000
0300
0001
1000
0000
0001
0000
0010
0000
0000
0000
1001
0000
0000
0000
,  // measure 13
0020
0000
1030
0010
1000
0000
0010
0000
,  // measure 14
0100
0001
1000
0001
0010
0000
0012
0000
,  // measure 15
0013
0000
0000
0001
0010
0000
0001
0000
0010
0000
0000
0000
0001
0000
0000
0000
,  // measure 16
0010
0001
1000
0001
0100
0010
1000
0001
1000
0000
0000
0000
0110
0000
0000
0000
,  // measure 17
2000
0000
3000
0001
1000
0000
0010
0000
0100
0000
0000
0000
1010
0000
0000
0000
,  // measure 18
0010
1000
0010
1000
0001
0000
1000
0000
0010
0000
0000
0000
1001
0000
0000
0000
,  // measure 19
0020
0000
0000
0000
1030
0000
0010
0000
1000
0000
0010
1000
0010
1000
0010
1000
,  // measure 20
0020
0000
0100
0100
0130
0000
0100
0100
,  // measure 21
0001
0100
0010
1000
0001
1000
0010
0100
,  // measure 22
0020
0000
1030
0001
0010
0100
1000
0001
,  // measure 23
1000
0010
1000
0010
1000
0100
0010
0001
0100
0010
1000
0010
0100
0001
0100
0001
,  // measure 24
0200
0000
0310
1000
0002
0000
0023
0000
,  // measure 25
0032
0000
0000
0000
1000
0003
0000
0000
1010
0000
0000
0000
0110
0000
0000
0000
,  // measure 26
0101
0000
2020
3030
0202
0303
0220
0330
,  // measure 27
1000
0010
1000
0000
0100
0010
0100
0000
0001
0100
0001
0000
0001
1000
0010
0000
,  // measure 28
1001
0000
0010
0000
1000
0010
1000
0010
0100
0000
0010
0000
0100
0000
0000
0000
,  // measure 29
0001
0000
0010
0000
0001
0000
0010
0001
0010
0000
0000
0000
0001
0000
0000
0000
,  // measure 30
1000
0110
0110
0000
0110
0110
0000
0001
,  // measure 31
0100
0010
0100
0010
1000
0001
1000
0001
,  // measure 32
2001
0000
3010
1000
0002
0000
1003
0000
,  // measure 33
1010
0101
0110
1001
,  // measure 34
1010
0000
0010
1000
0010
0100
0001
0100
,  // measure 35
0010
0100
0010
0000
0100
0001
0100
0000
0001
0100
0010
0000
0100
0010
0100
0010
,  // measure 36
0100
0100
0220
0330
0001
0001
2002
3003
,  // measure 37
0001
0001
0022
0033
0100
0100
0220
0330
,  // measure 38
1001
0110
1010
1001
,  // measure 39
2002
0000
3003
0010
,  // measure 40
0102
0000
0000
0000
0103
0000
0000
0000
0010
0100
0010
0100
0000
0000
0010
0000
,  // measure 41
2000
0000
0000
0001
0000
0000
3001
0000
0100
0000
0000
0000
0001
0000
0000
0000
,  // measure 42
1000
0001
1000
0001
0100
0010
0100
0001
1000
0001
0100
0001
1000
0010
0100
0001
,  // measure 43
0100
0010
0100
0001
0100
0000
1001
0000
,  // measure 44
1002
0000
0000
0000
0103
0000
0000
0000
0010
0100
0010
0100
0000
0000
0010
0000
,  // measure 45
2000
0000
0000
0100
0000
0000
3100
0000
1001
0000
0000
0000
0011
0000
0000
0000
,  // measure 46
0101
0000
0000
0000
1010
0000
0000
0000
0100
0001
0100
0001
0000
0000
0010
0000
,  // measure 47
0001
0100
0001
0100
0001
0100
0010
0100
0020
0000
0000
0000
0030
0000
0000
0000
,  // measure 48
0100
0010
0100
0010
0100
0000
0010
0000
0100
0001
1000
0010
1000
0000
0010
0000
,  // measure 49
1010
0000
1000
0000
0010
0000
0100
0001
0100
0000
0000
0000
1001
0000
0000
0000
,  // measure 50
0220
0000
0000
0330
,  // measure 51
0010
0000
0010
0000
0010
0000
0010
0000
0100
0010
0100
0010
0100
0010
0100
0010
,  // measure 52
0200
0000
0301
1000
0010
0000
1010
0000
,  // measure 53
0101
0102
1000
1003
,  // measure 54
2000
0000
3010
0100
0001
0000
1000
0000
,  // measure 55
0001
0010
0001
0000
1000
0010
1000
0000
0010
0100
0010
0000
0100
0010
0100
0000
,  // measure 56
0001
0001
0202
0303
1000
1000
2020
3030
,  // measure 57
0010
0010
2020
3030
0100
0100
0202
0303
,  // measure 58
2002
3003
2002
3003
0022
0033
2200
3300
,  // measure 59
2002
0000
3003
0010
,  // measure 60
2002
3003
0000
0000
;

//---------------dance-single - ----------------
#NOTES:
     dance-single:
     :
     Medium:
     6:
     0.340853,0.347793,0.115450,0.490663,0.000000,248.000000,236.000000,12.000000,51.000000,0.000000,0.000000,0.340853,0.347793,0.115450,0.490663,0.000000,248.000000,236.000000,12.000000,51.000000,0.000000,0.000000:
2000
0000
3010
0000
0010
1000
0010
0000
,
0010
0100
0010
1000
,
0001
1000
0001
0000
0010
0001
0010
0000
,
0002
1000
0100
1003
,
0020
0000
0130
0000
0010
0100
0010
0000
,
1000
0001
1000
0010
,
1010
0000
0101
0000
0010
0100
0010
0000
,
1000
0001
1000
0000
,
0020
0000
0000
0030
,
0010
0010
0000
0020
0000
0000
0030
0000
,
0200
0000
0000
0300
,
0100
0100
0000
0200
0000
0000
0300
0000
,
0010
0000
1000
0010
1000
0000
0000
0000
,
0100
0001
0100
0000
,
1000
0001
1000
0001
1000
0000
0000
0000
,
0100
0000
0001
1000
0001
0000
0000
0000
,
0001
1000
0010
1010
,
0010
0100
0001
0011
,
0001
1000
0001
0011
,
0001
0000
1000
0010
1000
0000
0010
0000
,
0020
0000
1000
1000
,
1030
0010
0100
0001
,
2000
0000
0001
3001
,
0001
1000
0010
0100
,
0220
0330
0010
0010
,
1000
0001
0010
0001
,
0002
0023
0230
1300
,
0020
0000
1000
1030
,
0010
0000
1000
0010
1000
0010
1000
0000
,
0020
0000
0030
0000
0100
0001
0100
0000
,
0001
1000
0001
0000
0100
0100
0000
0010
,
0010
0010
0010
0010
,
0020
0000
0030
1000
0020
0000
1030
0000
,
0010
0100
0001
0010
,
0002
0000
0003
1000
0020
0000
2030
0000
,
3010
0100
0001
1000
,
0010
2000
0000
3000
0001
0200
0000
0300
,
0010
0200
0000
0300
0010
2000
0000
3000
,
0020
0000
0100
0100
,
0130
0000
0000
0110
,
0002
0000
0103
0000
0100
0001
0100
0000
,
0100
0010
0100
0001
,
1000
0001
1000
0000
0100
1000
0100
0000
,
2000
0001
0010
3001
,
0200
0000
0310
0000
0100
0010
0100
0000
,
0001
1000
0001
0100
,
0101
0000
1010
0000
0100
0010
0100
0000
,
0001
1000
0001
0000
,
0200
0000
0010
0310
,
0020
0000
0100
0130
,
0010
1000
0010
0000
1000
0010
0000
1000
,
0010
0010
1000
1010
,
0020
0000
0000
1030
0010
0000
0100
0000
,
0002
0023
0230
2300
,
3002
0000
0000
1003
0020
0000
0130
0000
,
0020
2030
3002
0023
,
0031
2000
0000
3000
0010
0200
0000
0300
,
0001
0020
0000
0030
0001
0020
0000
0030
,
0200
0000
1000
1300
,
2020
0000
3030
0010
,
2002
3003
0000
0000
;

//---------------dance-single - ----------------
#NOTES:
     dance-single:
     :
     Easy:
     3:
     0.214407,0.259763,0.086588,0.230900,0.000000,156.000000,147.000000,9.000000,24.000000,0.000000,0.000000,0.214407,0.259763,0.086588,0.230900,0.000000,156.000000,147.000000,9.000000,24.000000,0.000000,0.000000:
1000
0000
0001
0000
,
0001
1000
0010
0000
,
1000
0000
0010
0000
,
0100
0010
1000
0001
,
1000
0000
0010
0000
,
0100
0010
0100
0000
,
0001
0000
0010
0000
,
0001
1000
0010
0000
,
2000
0000
0000
0000
,
3001
0000
0001
0000
,
0002
0000
0000
0000
,
1003
0000
1000
0000
,
0010
0100
0010
0000
,
1000
0001
1000
0000
,
0001
0100
0010
0000
,
0100
0001
0100
0000
,
0010
0010
0010
0000
,
0100
0100
0100
0000
,
0010
0010
0100
0000
,
0010
1000
0001
0010
,
0002
0000
1000
1000
,
1003
0010
0100
0010
,
1000
0000
0010
0100
,
0002
0000
1003
0000
,
2000
0000
3010
0100
,
0010
1000
0001
0010
,
0002
0000
2003
0000
,
3020
0000
0000
0030
,
0100
0000
0000
0000
,
0110
0000
0000
0000
,
2002
0000
0000
3003
,
0002
0000
1000
0000
,
1003
0000
0010
0000
,
0100
0010
0100
0000
,
1000
0000
0001
0000
,
1000
0001
0010
0001
,
1000
0000
1010
0000
,
0001
0000
0101
0000
,
0110
0000
0110
0000
,
0220
0000
0330
0000
,
0010
0000
1000
0000
,
0010
1000
0010
0000
,
1000
0001
0010
0001
,
1000
0010
0100
0010
,
2000
0000
3002
0000
,
1003
0001
1000
0000
,
0010
0000
0110
0000
,
0010
0010
0010
0000
,
2000
0000
0000
3000
,
0002
0000
0000
0003
,
0200
0000
0001
0300
,
0020
0000
0100
0030
,
0100
0000
0010
0000
,
0100
0010
0100
0000
,
0001
0000
1000
0000
,
0010
1000
0010
1000
,
0002
0003
2000
3000
,
0020
0030
0200
0300
,
0020
0000
0100
0100
,
0130
0000
0000
1000
,
1001
0000
0000
0000
;
