#TITLE:Wild Side;
#SUBTITLE:Beastars Opening;
#ARTIST:ALI;
#TITLETRANSLIT:;
#SUBTITLETRANSLIT:;
#ARTISTTRANSLIT:;
#GENRE:;
#CREDIT:Magna Trick;
#BANNER:BBN.jpg;
#BACKGROUND:BBG.jpg;
#LYRICSPATH:;
#CDTITLE:Magna Trick title!.png;
#MUSIC:Wild Side.mp3;
#OFFSET:0.160000;
#SAMPLESTART:48.000000;
#SAMPLELENGTH:14.000000;
#SELECTABLE:YES;
#BPMS:0.000000=134.039993
;
#STOPS:
;
#BGCHANGES:0.063=Wild Side.avi=1.000=0=0=1=====,
198.500=BBG.jpg=1.000=0=0=1=====,
99999=-nosongbg-=1.000=0=0=0 // don't automatically add -songbackground-
;
#KEYSOUNDS:;
#ATTACKS:;

//---------------dance-single - ----------------
#NOTES:
     dance-single:
     :
     Hard:
     13:
     0.575992,0.742075,0.066461,0.321226,0.614761,364.000000,358.000000,6.000000,29.000000,0.000000,0.000000,0.575992,0.742075,0.066461,0.321226,0.614761,364.000000,358.000000,6.000000,29.000000,0.000000,0.000000:
// measure 0
0000
0000
0000
0000
0000
0000
0000
0000
0100
1000
0000
0001
0000
0010
0000
0100
,  // measure 1
0000
1000
0001
1000
0010
0100
0001
2000
0000
0000
0000
0000
3000
0000
0020
0000
,  // measure 2
0000
0000
0000
0000
0000
0030
0000
1001
0000
0000
0001
0000
0000
0000
0100
0000
,  // measure 3
0000
0000
0010
0000
0000
1000
0000
0001
0000
0000
0100
0000
0000
0000
1000
0000
,  // measure 4
0000
0000
0001
0000
0000
0010
0000
1000
0000
0000
0100
0000
0000
0000
0001
0000
,  // measure 5
0000
0000
1000
0000
0000
0010
0000
0001
0000
0000
1000
0000
0000
0000
0010
0000
,  // measure 6
0000
0000
0100
0000
0000
0001
0000
1000
0000
0000
0100
0000
1000
0000
0010
0000
,  // measure 7
0100
0000
0001
0010
0100
0000
1000
0000
1000
0000
0001
0000
0100
0010
0100
0001
,  // measure 8
1000
0000
0100
1000
0010
0100
0010
0000
0100
0000
1001
0000
0020
0030
1001
0000
,  // measure 9
0200
0300
0001
0000
1000
0010
0100
0001
1000
0100
0010
0000
0100
0000
0010
0001
,  // measure 10
0010
1000
0010
0100
1000
0000
0100
0000
1000
0000
0001
0010
0100
0000
1001
0000
,  // measure 11
0110
0000
1000
0000
0100
0010
0100
0001
0100
1000
0010
0100
1000
0000
0100
0000
,  // measure 12
0001
0010
0100
1000
0001
0000
0001
0000
1000
0100
1000
0100
0010
0000
0001
0010
,  // measure 13
0000
0100
0000
0000
1000
0100
1000
0000
0100
1000
0100
0010
0001
0000
0001
0000
,  // measure 14
1000
0000
0001
0000
0200
0000
0000
0000
0310
0000
0000
1000
0000
0001
0000
0010
,  // measure 15
0100
0000
0000
0000
1000
0000
0000
0001
0000
0100
0000
0010
2000
0000
0000
0000
,  // measure 16
0000
0000
0000
0000
0000
3000
0000
0000
0001
0000
0000
1000
0000
0100
0000
0010
,  // measure 17
0001
0000
0000
0000
0010
0000
0000
0100
0000
0010
0000
1000
0020
0000
0000
0000
,  // measure 18
0000
0000
0000
0000
0000
0000
0000
0030
0001
0000
0000
1000
0000
0010
0000
1000
,  // measure 19
0001
0000
0000
0000
0100
0000
0000
0010
0000
0100
0000
1000
0002
0000
0000
0000
,  // measure 20
0000
0000
0000
0000
0000
0000
0000
0000
0013
1000
0010
1000
0000
0000
0001
0100
,  // measure 21
0001
0100
0000
0000
0000
0000
0000
0000
0002
0000
0000
0000
0023
0000
0000
0000
,  // measure 22
0230
0000
0000
0000
2300
0000
3010
0100
0002
0000
1000
0000
1003
0000
0010
1000
,  // measure 23
0000
0001
0100
0000
0001
0000
0000
0000
0010
0000
0001
0000
1000
0000
0100
1000
,  // measure 24
0000
0001
0010
0000
0100
0000
0000
0000
1000
0000
0010
0000
0001
0000
0010
1000
,  // measure 25
0000
0001
0100
0000
0010
0000
0000
0000
1000
0000
0100
0000
0010
0000
1000
0010
,  // measure 26
0000
0000
0000
0100
0000
0000
1000
0000
0000
0000
0000
0000
0001
0000
0000
0000
0000
0000
0000
0000
0000
0000
0000
0000
0100
0000
0000
1000
0000
0000
0000
0000
0000
0100
0000
0000
0001
0000
0000
0000
0000
0000
1000
0000
0100
0000
0010
0000
,  // measure 27
0001
0001
0000
1000
0000
1000
0000
0001
0000
0010
0100
2000
0000
0000
0000
0000
,  // measure 28
3000
0001
0100
0010
0100
0001
1000
0100
,  // measure 29
0020
0000
0030
0001
1000
0001
1000
0010
,  // measure 30
0200
0000
0000
0000
0000
0000
0300
0000
0000
0010
0000
0100
0001
0000
0000
0000
0000
0000
2000
0000
0000
0000
0000
0000
,  // measure 31
3200
0300
0020
0032
,  // measure 32
1003
0000
0010
0000
1000
0000
0100
0000
0010
0000
0001
0000
0010
0100
0000
2000
,  // measure 33
0000
0000
0000
3000
0000
0000
0001
0100
0001
0000
0100
0000
1000
0000
0100
0000
,  // measure 34
0020
0000
0030
1000
1000
0100
0200
0001
,  // measure 35
0302
0000
0000
0000
0000
0000
0000
0003
0010
0000
0010
0000
0010
0000
0010
0000
,  // measure 36
0001
0010
1000
0010
0001
0100
1000
0100
,  // measure 37
0001
1000
0010
0100
0010
1000
0100
0010
,  // measure 38
0001
0010
0100
1000
0001
0100
1000
0010
,  // measure 39
0001
0100
0010
1000
0100
0001
0010
1000
,  // measure 40
0001
0010
1000
0010
0001
0100
0010
1000
,  // measure 41
0001
0000
0100
0010
0000
1000
0000
0002
0000
0000
0003
0000
0000
0000
1000
0000
,  // measure 42
0100
0000
1000
0000
0010
0000
0100
0001
0020
0000
0000
0130
2000
0000
0000
0000
,  // measure 43
3001
0000
0000
0100
0010
0000
0000
0100
0001
0000
0000
0100
1000
0000
0000
0000
,  // measure 44
0000
0000
0100
0000
0000
0000
0001
0000
0000
0000
0010
0000
0000
0100
0000
1000
,  // measure 45
0000
0000
0010
0000
0000
0000
0001
0000
0000
0000
0010
0000
0000
0100
0000
0010
,  // measure 46
1000
0000
0000
1000
0001
0000
0000
0001
1000
0100
1000
0100
0010
0001
0010
0001
,  // measure 47
1000
0000
1000
0000
0000
0000
0001
0000
0000
0000
0100
0000
0000
0010
0000
0000
,  // measure 48
0000
0000
0000
0100
0000
1000
0000
0100
0001
0000
0010
0000
0100
0000
0001
0000
,  // measure 49
0100
1000
0010
0001
1000
0000
0220
0000
0000
0000
0330
0000
0000
0000
0000
0000
;

//---------------dance-single - ----------------
#NOTES:
     dance-single:
     :
     Challenge:
     15:
     0.713661,0.824527,0.077537,0.409841,0.935987,451.000000,444.000000,7.000000,37.000000,0.000000,0.000000,0.713661,0.824527,0.077537,0.409841,0.935987,451.000000,444.000000,7.000000,37.000000,0.000000,0.000000:
0000
0000
0000
0000
0000
0000
0000
0000
0010
0001
0000
1000
0000
0100
0000
0010
,
0000
0000
0000
0001
0000
0000
1000
0000
0000
0001
0000
0000
0100
0000
0000
0010
0000
0000
1000
0000
0000
0001
0000
0000
1000
0000
0100
0000
1000
0000
0100
0000
1000
0000
0100
0000
0000
0000
0000
0000
0000
0000
0010
0000
0001
0000
0010
0000
,
0001
0000
0010
0000
0001
0000
0010
0000
0001
0000
0010
0000
0001
0000
0000
0000
0000
0000
0000
0000
0000
1001
0000
0000
0000
0000
0000
0000
0000
0000
1000
0000
0000
0000
0000
0000
0000
0000
0000
0000
0000
0000
0010
0000
0000
0000
0000
0000
,
0000
0000
0100
0000
0000
0001
0000
1000
0000
0000
0010
0000
0000
0000
0001
0000
,
0000
0000
1000
0000
0000
0100
0000
0001
1000
0100
0010
0000
0000
0000
1000
0000
,
0000
0000
0001
0000
0000
0100
0000
1000
0000
1000
0001
0000
0000
0000
0100
0000
,
0000
0000
0010
0000
0000
1000
0000
0001
0100
0000
0000
0100
0001
0000
0000
0001
,
0010
0000
0100
1000
0001
0000
0100
0000
0001
0000
1000
0000
0010
0100
0010
1000
,
0001
0000
0010
0001
0100
0010
0100
0000
0010
0000
1001
0000
0200
0300
1001
0000
,
0020
0030
1000
0000
0001
0100
0010
1000
0001
0010
0100
0000
0010
0000
0100
1000
,
0100
0001
0100
0010
0001
0000
0010
0000
0001
0000
1000
0100
0010
0000
1001
0000
,
0110
0000
0001
0000
0010
0100
0010
1000
0010
0001
0100
0010
0001
0000
0010
0000
,
1000
0100
0010
0001
1000
0000
1000
0000
0001
0010
0001
0010
0100
0000
1000
0100
,
0000
0010
0000
0000
0001
0010
0001
0000
0010
0001
0010
0100
1000
0000
1000
0000
,
0001
0000
1000
0000
0020
0000
0000
0000
0130
0000
0000
0001
0000
1000
0000
0100
,
0020
0000
0000
0000
0031
0000
0000
1000
0000
0010
0000
0100
0002
0000
1000
0000
,
0000
0000
1000
0000
0000
1003
0000
1000
0001
0000
0000
0001
0000
0010
0000
0100
,
1000
0000
0000
0000
0100
0000
0000
0010
0000
0100
0000
0001
0200
0000
1000
0000
,
0000
0000
1000
0000
0000
1000
0000
1300
0100
0000
0000
0001
0000
0100
0000
0001
,
2000
0000
0000
0000
3010
0000
0000
0100
0000
0010
0100
1000
0001
0010
0100
1000
,
0001
0010
0100
1000
0001
0010
0100
1000
0010
0001
0010
1000
0000
0000
0001
0100
,
1000
0100
0000
0000
0000
0000
0000
0001
2000
0000
0000
0000
3200
0000
0000
0000
,
0320
0000
0000
0000
0032
0000
0103
0010
2000
0000
0001
0000
3001
0000
0100
0001
,
0000
1000
0010
0000
1000
0000
0000
0000
0100
0000
1000
0000
0001
0000
0010
0001
,
0000
1000
0100
0000
0010
0000
0000
0000
0001
0000
0100
0000
1000
0000
0100
0001
,
0000
1000
0010
0000
0100
0000
0000
0000
0001
0000
0010
0000
0100
0000
0001
0100
,
0000
0000
0000
0010
0000
0000
0001
0000
0000
0000
0000
0000
1000
0000
0000
0000
0000
0000
0000
0000
0000
0000
0000
0000
0010
0000
0000
0001
0000
0000
0000
0000
0000
0010
0000
0000
1000
0000
0000
0000
0000
0000
0001
0000
0010
0000
0100
0000
,
1000
1000
0000
0001
0000
0001
0000
1000
0000
0100
0010
0002
0000
1000
1000
0000
,
0003
0000
0000
1000
0000
0000
0010
0000
0000
0100
0000
0000
0010
0000
0000
1000
0000
0000
0001
0000
0010
0100
0000
1000
,
0200
0000
0000
0010
0000
0000
0301
0000
0000
1000
0000
0000
0010
0000
0000
1000
0000
0000
0001
0000
1000
0100
0000
0100
,
2000
0000
0000
0000
0000
0000
0001
0000
0000
3000
0000
0000
0100
0000
0000
0000
0000
0000
0010
0000
0000
0000
0100
0000
1000
0000
0000
0000
0000
0000
0000
0000
0000
0100
0000
0000
0002
0000
0000
0000
0000
0000
0000
0000
0000
0010
0000
0000
,
0203
0000
0000
0000
0000
0000
1000
0000
0000
0300
0000
0000
0001
0000
0000
0000
0000
0000
0010
0000
0000
0000
0100
0000
0020
0000
0000
0000
0000
0000
0030
0000
0000
0100
0000
0000
2000
0000
0000
0000
0000
0000
0000
0000
0000
3100
0000
0000
,
0001
0000
0100
0000
0001
0000
0010
0000
0100
0000
1000
0000
0100
0010
0000
0002
,
0000
0000
0000
0003
0000
0000
1000
0010
1000
0000
0010
0000
0001
0000
0010
0000
,
0200
0000
0000
0000
0000
0000
0300
0000
0000
0001
0000
0010
0001
0000
0000
0010
0000
0000
0020
0000
0000
1000
0000
0000
,
2030
0000
0000
0000
0000
0000
0001
0000
0000
0000
0000
0000
0001
0000
0000
0000
0000
0000
0001
0000
0000
3000
0000
0000
0200
0000
0000
0000
0000
0000
0320
0000
0000
0000
1000
0000
0031
0000
0000
0000
0000
0000
1001
0000
0000
0000
0000
0000
,
0010
0000
0000
0000
0000
0000
1000
0000
0000
0000
0000
0000
0100
0000
0000
0000
0010
0000
0001
0000
0000
0000
0100
0000
0010
0000
0000
0000
0000
0000
1000
0000
0000
0000
0000
0000
0001
0000
0000
0100
0000
0000
0000
0000
0000
0100
0000
0000
,
0010
0000
0100
0001
0000
0000
0001
0000
0000
1000
0000
0000
0100
0000
0010
0001
0000
0010
0001
0000
0000
0010
0000
0000
,
0100
0000
0010
0001
0000
0010
0100
0000
0010
0001
0000
0010
1000
0000
0010
0100
0000
0010
0001
0000
1000
0010
0000
0100
,
0002
0000
0000
0100
0000
0000
2003
0000
0000
0100
0000
0000
3020
0000
0000
1000
0000
0000
0130
0000
0010
0001
0000
0010
,
0100
0000
0000
1000
0000
0000
0001
0000
0100
1000
0000
0100
0001
0000
0000
1000
0000
0000
0010
0000
1000
0100
0000
0010
,
1000
0000
0010
0100
0000
0001
0000
1000
0010
0000
0001
0000
0100
0000
0002
0000
,
0023
0000
0000
0000
0000
0000
0230
0000
0000
0000
0000
0000
2300
0000
0000
0000
0000
0000
3010
0000
0000
0000
1000
0000
0200
0000
0000
0000
0000
0000
0000
0000
0000
0310
0000
0000
0002
0000
0000
0000
0000
0000
0000
0000
0000
0000
0000
0000
,
1003
0000
0000
0010
0100
0000
0000
0010
1000
0000
0000
0010
0002
0000
0000
0000
,
0000
0000
0013
0000
0000
0000
1000
0000
0000
0000
0100
0000
0000
0010
0000
0001
,
0000
0000
0100
0000
0000
0000
1000
0000
0000
0000
0100
0000
0000
0010
0000
0100
,
0001
0000
0000
0001
1000
0000
0000
1000
0001
0010
0001
0010
0100
1000
0100
1000
,
0001
0000
0001
0000
0000
0000
1000
0000
0000
0000
0010
0000
0000
0100
0000
0000
,
0000
0000
0000
0010
0000
0001
0000
0010
1000
0000
0100
0000
0010
0000
1000
0000
,
0010
0001
0000
0100
0000
1000
0001
0000
0000
0220
0000
0000
0000
0000
0000
0330
0000
0000
0000
0000
0000
0000
0000
0000
;

//---------------dance-single - ----------------
#NOTES:
     dance-single:
     :
     Medium:
     10:
     0.450983,0.494716,0.044307,0.299073,0.371072,285.000000,281.000000,4.000000,27.000000,0.000000,0.000000,0.450983,0.494716,0.044307,0.299073,0.371072,285.000000,281.000000,4.000000,27.000000,0.000000,0.000000:
0000
0000
0000
0000
,
0000
0000
0000
0000
,
0000
0000
0000
0000
0000
0000
0000
1001
0000
0000
1000
0000
0000
0000
0010
0000
,
0000
0000
0100
0000
0000
0001
0000
1000
0000
0000
0010
0000
0000
0000
0001
0000
,
0000
0000
1000
0000
0000
0100
0000
0001
0000
0000
0010
0000
0000
0000
1000
0000
,
0000
0000
0001
0000
0000
0100
0000
1000
0000
0000
0001
0000
0000
0000
0100
0000
,
0000
0000
0010
0000
0000
1000
0000
0001
0000
0000
0010
0000
0001
0000
0100
0000
,
0010
0000
1000
0001
0000
0000
0000
0000
0001
0000
1000
0000
0010
0000
0010
0000
,
1000
0001
0100
0100
0000
1001
1000
1001
,
0001
0000
0001
1000
0010
0100
0010
0100
,
0001
0000
1000
0001
1000
0000
0000
0000
0000
0000
1000
0000
0100
0000
0001
0000
,
0010
0000
0000
0000
1000
0000
0001
0000
0100
0000
0100
0000
0010
1000
0000
0000
,
1000
0000
0001
0000
1000
0000
1000
0000
0001
0000
0001
0000
0010
0000
0100
1000
,
0000
0001
0000
0000
0001
0000
0010
0000
0010
0000
0100
1000
0100
0000
1000
0000
,
0001
0000
1000
0000
0020
0000
0000
0000
0130
0000
0000
0001
0000
1000
0000
0100
,
0010
0000
0000
0000
0001
0000
0000
1000
0000
0010
0000
0100
0002
0000
0000
0000
,
0000
0000
0000
0000
0000
0003
0000
0000
1000
0000
0000
0001
0000
0010
0000
0100
,
1000
0000
0000
0000
0100
0000
0000
0010
0000
0100
0000
0001
0200
0000
0000
0000
,
0000
0000
0000
0000
0000
0000
0000
0300
1000
0000
0000
0001
0000
0100
0000
0001
,
1000
0000
0000
0000
0010
0000
0000
0100
0000
0010
0000
0001
2000
0000
0000
0000
,
0000
0000
0000
0000
0000
0000
0000
0000
3001
0000
0000
0001
0000
0000
1000
0000
,
0000
1000
0000
0000
0000
0000
0000
0000
2000
0000
0000
0000
3200
0000
0000
0000
,
0320
0000
0000
0000
0032
0000
1003
0001
2000
0000
0001
0000
3001
0000
0100
0000
,
0010
0100
0001
0000
0000
0001
0010
0100
,
1000
0001
0100
0000
0000
0001
1000
0100
,
0001
0000
0010
0000
0100
0000
0000
0000
0000
0000
1000
0000
0001
0000
1000
0010
,
0000
1000
0001
0000
0000
0000
0000
0000
0001
1000
0000
0001
1000
0000
0001
0000
,
1000
0001
0000
1000
0000
1000
0000
0001
0000
1000
0001
2000
0000
0000
0000
3000
,
0000
1000
0010
0100
0010
1000
0001
0010
,
0200
0000
0300
1000
0001
1000
0001
0100
,
0020
0000
0030
0001
1000
0000
0002
0000
,
0023
0030
0200
2300
,
3001
0100
0001
0010
0100
1000
0100
0010
,
0001
0000
0000
0000
0000
0000
1000
0001
1000
0000
0010
0000
0001
0000
0010
0000
,
0200
0300
0001
0020
,
2030
0000
0000
0000
0000
0000
0000
3000
0100
0000
0100
0000
0100
0000
0100
0000
,
1000
0000
0000
0000
0001
0000
0000
0100
0000
0000
0000
0000
0010
0000
0100
0000
,
0001
0000
1000
0000
0100
0000
0010
0000
0002
0000
0000
0000
0000
0003
0000
0000
,
1000
1000
0010
0010
0100
0001
1000
0100
,
0020
0000
0230
0000
2300
0000
3001
0100
,
0010
0000
0000
0000
0100
0000
0000
0001
0000
0000
0000
0000
1000
0000
0100
0000
,
1000
0000
0010
0100
0000
0001
0000
2000
0000
0000
3000
0000
0000
0000
0001
0000
,
0010
0000
0001
0000
0100
0000
0001
1000
0001
0000
0000
0010
0002
0000
0000
0000
,
1003
0000
0000
0001
0010
0000
0000
0001
1000
0000
0000
0001
0100
0000
0000
0000
,
0000
0000
0010
0000
0000
0000
1000
0000
0000
0000
0100
0000
0000
0010
0000
0001
,
0000
0000
0100
0000
0000
0000
1000
0000
0000
0000
0100
0000
0000
0010
0000
0100
,
0000
0001
0000
1000
0000
0001
0000
0100
,
0001
0000
1000
0000
0000
0000
0100
0000
0000
0000
0010
0000
0000
0100
0000
0000
,
0000
0000
0000
1000
0000
0001
0000
1000
0001
0000
0100
0000
0010
0000
1000
0000
,
0001
1000
0001
1000
0001
0000
0220
0000
0000
0000
0330
0000
0000
0000
0000
0000
;

//---------------dance-single - ----------------
#NOTES:
     dance-single:
     :
     Easy:
     6:
     0.341798,0.412264,0.022154,0.310150,0.177228,216.000000,214.000000,2.000000,28.000000,0.000000,0.000000,0.341798,0.412264,0.022154,0.310150,0.177228,216.000000,214.000000,2.000000,28.000000,0.000000,0.000000:
0000
0000
0000
0000
,
0000
0000
0000
0000
,
0000
0000
0000
0000
0000
0000
0000
1001
0000
0000
0001
0000
0000
0000
0100
0000
,
0000
0000
0010
0000
0000
1000
0000
0001
0000
0000
0100
0000
0000
0000
1000
0000
,
0000
0000
0001
0000
0000
0010
0000
1000
0000
0000
0100
0000
0000
0000
0001
0000
,
0000
0000
1000
0000
0000
0010
0000
0001
0000
0000
1000
0000
0000
0000
0010
0000
,
0000
0000
0100
0000
0000
0001
0000
1000
0000
0000
0000
0000
0001
0000
0000
0000
,
1000
0010
0100
0100
,
0001
0010
0100
0100
,
1000
0000
0001
1000
0001
0000
0100
0000
,
0010
0000
0100
0000
0001
1000
0001
1000
,
0001
1000
0100
0010
,
0001
0000
1000
0000
0010
0100
0010
0000
,
0100
0000
1000
0000
0100
0001
0100
0000
,
0001
0000
0000
0000
0200
0000
0000
0000
0310
0000
0000
1000
0000
0001
0000
0000
,
0100
0000
0000
0000
1000
0000
0000
0001
0000
0100
0000
0000
2000
0000
0000
0000
,
0000
0000
0000
0000
0000
3000
0000
0000
0001
0000
0000
1000
0000
0100
0000
0000
,
0001
0000
0000
0000
0010
0000
0000
0100
0000
1000
0000
0000
0020
0000
0000
0000
,
0000
0000
0000
0000
0000
0000
0000
0030
0001
0000
0000
1000
0000
0010
0000
0000
,
0001
0000
0000
0000
0100
0000
0000
0010
0000
0100
0000
0000
0002
0000
0000
0000
,
0000
0000
0000
0000
0000
0000
0000
0000
1003
0000
0000
1000
0000
0000
0001
0000
,
0000
0001
0000
0000
0000
0000
0000
0000
0002
0000
0000
0000
0023
0000
0000
0000
,
0230
0000
2300
3000
0002
0000
1003
0000
,
1000
0001
0000
0010
,
0010
0100
0000
1000
,
1000
0001
0000
1000
,
1000
0010
0100
0001
,
1000
0000
0001
0000
1000
0000
0001
0000
1000
0000
1000
0002
0000
0000
0000
0003
,
0000
0010
0100
0010
0100
0000
0010
0000
,
0001
0000
1000
1000
,
0010
0000
0000
0100
0001
0000
0100
0000
,
0020
0030
1000
1000
,
0001
0010
0001
0010
0100
0000
1000
0000
,
0002
0000
0000
0003
0100
0010
0100
0000
,
0020
0000
0000
0030
1000
0000
1000
0000
,
0002
0000
0000
0000
0000
0003
0010
0100
,
0010
0000
0100
0000
1000
0000
0001
0100
,
0010
1000
0001
0100
0010
0000
1000
0000
,
0100
1000
0100
1000
0100
0010
0001
0010
,
0002
2003
3200
0320
,
0032
0000
1003
0010
1000
0000
0010
0100
,
0010
0100
0001
0100
0002
0000
1003
0000
,
0100
0010
0001
0010
0100
0000
2000
0000
,
3002
0203
0320
2030
,
3000
0000
0100
0000
0000
0000
0001
0000
0000
0000
0010
0000
0000
0100
0000
1000
,
0000
0000
0010
0000
0000
0000
0001
0000
0000
0000
0010
0000
0000
0100
0000
0010
,
0000
1000
0000
0001
0000
1000
0000
0010
,
1000
0000
0001
0000
0000
0000
0010
0000
0000
0000
0100
0000
0000
0010
0000
0000
,
0000
0000
0000
0001
0000
1000
0000
0001
1000
0000
0010
0000
0100
0000
0002
0000
,
0000
0000
0003
0220
0000
0330
0000
0000
;
