#TITLE:We Gotta Power!;
#SUBTITLE:Dragon Ball Z Opening 2;
#ARTIST:Hironobu Kageyama;
#TITLETRANSLIT:;
#SUBTITLETRANSLIT:;
#ARTISTTRANSLIT:;
#GENRE:;
#CREDIT:Trick Badguy;
#BANNER:WGPBN.jpg;
#BACKGROUND:WGPB.jpg;
#LYRICSPATH:;
#CDTITLE:Magna Trick title!.png;
#MUSIC:We gotta power!.ogg;
#OFFSET:-0.054097;
#SAMPLESTART:37.000000;
#SAMPLELENGTH:12.000000;
#SELECTABLE:YES;
#BPMS:0.000000=169.860001
,216.000000=339.720001
,221.000000=169.860001
,386.000000=167.500000
,388.000000=148.000000
,389.000000=140.000000
,390.500000=136.000000
;
#STOPS:368.000000=0.260000
;
#BGCHANGES:0.104=We Gotta Power!.avi=1.000=0=0=1=====,
392.500=WGPB.png=1.000=0=0=1=====,
99999=-nosongbg-=1.000=0=0=0 // don't automatically add -songbackground-
;
#KEYSOUNDS:;
#ATTACKS:;

//---------------dance-single - ----------------
#NOTES:
     dance-single:
     :
     Medium:
     12:
     0.575613,0.736069,0.492945,0.385783,0.246473,564.000000,495.000000,69.000000,54.000000,0.000000,2.000000,0.575613,0.736069,0.492945,0.385783,0.246473,564.000000,495.000000,69.000000,54.000000,0.000000,2.000000:
0001
0010
0100
1000
0000
0010
0000
1000
0000
0100
0000
0010
,
0000
0001
0000
0010
0000
0100
0000
1000
0000
0010
0000
0100
,
0002
2003
3200
0320
,
0032
2003
3020
0230
,
1301
0000
0000
0000
0000
0001
0000
1000
,
0010
0100
0010
0100
0000
0000
0000
0000
0000
1000
0010
1000
,
0010
0000
0000
1000
0100
1000
0100
0000
0000
0100
0001
0100
,
0001
0000
0000
0010
0001
0010
0001
0000
0000
1000
0000
0000
,
0001
0000
0010
0200
0000
0000
1300
0000
0000
0001
1000
0010
,
0200
0000
0310
0000
0002
0000
1003
0010
,
0100
0001
0000
1001
0000
0000
0001
0000
,
1000
0010
0000
0100
0000
0000
0110
0000
,
1001
0100
0010
0001
,
0010
0100
0010
0001
0000
0100
0010
0100
,
0001
1000
0000
1100
0000
0000
1000
0000
,
0010
0100
0000
0110
0000
0000
0001
0000
,
1000
1100
0000
0000
0000
0000
0000
0000
,
0010
1000
0001
0100
0000
0100
0001
1000
,
0010
1000
0000
1010
0000
0000
1000
0000
,
0100
0001
0000
1100
0000
0000
1000
0000
,
0010
0011
0000
0000
0000
0000
0000
0000
,
0010
1000
0100
1000
0000
1000
0010
0100
,
0001
0010
0000
1100
0000
0000
0000
0000
,
0001
0100
0000
0110
0000
0000
1000
0000
,
0010
0100
0001
1000
0100
0010
0001
0010
,
0000
0000
0110
0000
0000
0000
1001
0000
0000
0000
0010
1000
0010
1000
0010
1000
,
0200
0000
0000
0320
0000
0000
0032
0000
,
0000
0203
0000
0000
0010
0000
0320
0000
,
2030
0000
0000
0000
3000
0010
1000
0002
,
0000
0000
0000
0000
0003
0010
0010
0010
,
0200
0000
0000
2300
0000
0000
3020
0000
,
0000
0230
0000
0000
0302
0000
2003
0000
,
3100
0010
0000
0001
0000
1000
0000
0001
,
1000
0000
0001
0000
1000
0000
0001
0000
0000
0000
0010
0100
0010
0000
0000
0000
,
1001
0100
1010
0001
,
0110
1000
0011
1000
,
0001
1000
0000
1001
0000
0000
0010
0000
,
0100
0001
0000
1100
0000
0100
0100
0100
,
1001
0100
1010
0001
,
0110
1000
0011
1000
,
0110
0110
0000
1001
0000
0110
0000
1001
,
0000
0010
1000
0100
0010
0001
0100
0100
,
0010
1000
0000
1100
0000
0000
1000
0000
,
0001
0100
0000
1010
0000
0000
0100
0000
,
0010
0001
0000
0110
0000
0000
0001
0000
,
1000
0010
0000
0101
0000
0001
0001
0001
,
0110
1000
0011
0100
,
1010
0001
0110
1000
,
0001
0000
0010
0000
0100
0000
1000
0000
0100
0000
0010
0000
,
0001
1000
0100
0010
0001
0000
1001
0010
,
0200
0000
0000
0302
0000
0000
2003
0000
,
0000
3200
0000
0000
0320
0030
1001
1001
,
0000
0000
0100
0001
1000
0010
0100
0001
1000
0100
0010
0001
,
0010
0100
1000
0001
0010
0100
1000
0001
,
0020
0000
0000
0000
,
0000
0000
0230
0000
0000
0000
1300
0010
,
0100
0001
1000
0100
0010
0000
0001
0010
,
0100
1000
0020
0000
0030
0000
1000
0000
,
0010
1000
0001
0100
0001
1000
0010
1000
,
0010
1000
0001
0010
0001
0010
0100
1000
,
0010
0100
0001
1000
0100
1000
0001
0001
,
1000
1000
0010
0010
0100
0100
0000
1001
,
0000
1001
0000
0010
0010
0010
2000
0000
,
0000
3200
0000
0000
0320
0000
0000
0032
,
0000
1000
2003
3200
,
0000
0000
0300
0010
0001
0200
0000
0000
,
0300
0000
0000
0010
0010
0010
2000
0000
,
0000
3002
0000
0000
0203
0000
0000
0320
,
0000
0000
1030
0000
0100
0000
0010
0001
,
0000
0010
0000
0100
0000
1000
0001
0100
,
0010
0000
1000
0000
0000
0000
0001
1000
0001
0000
0000
0000
1001
0000
0000
0000
,
0100
1010
0001
0110
,
1000
0000
0011
0000
1000
0000
0001
1000
,
0000
1001
0000
0000
0010
0000
0100
0001
,
0000
1100
0000
0100
0100
0100
1001
0000
,
0100
1010
0001
0110
,
1000
0000
0011
0000
1000
0000
0110
0110
,
0000
1001
0000
0110
0000
1001
0000
0010
,
1000
0100
0010
0001
0100
0100
0010
1000
,
0000
1100
0000
0000
1000
0000
0001
0100
,
0000
1010
0000
0000
0100
0000
0010
0001
,
0000
0110
0000
0000
0001
0000
1000
0010
,
0000
0101
0000
0001
0001
0001
0110
0000
,
1000
0011
0100
1010
,
0001
0000
0000
0110
0000
0000
1000
0000
0000
0001
0000
1000
,
0000
0000
0010
0000
0000
0000
0100
0000
0000
0000
0001
0000
0000
0000
1000
0000
0000
0000
0100
0000
0000
1000
0000
0000
,
0001
1000
0001
1000
0001
0000
0000
0000
1001
0000
0110
0000
1002
0000
0000
0000
,
0000
0023
0000
0000
0230
0000
0000
1300
,
0000
0010
0000
0000
0100
0000
0000
0001
0000
0000
1000
0000
0200
0000
0000
0000
,
0320
0032
2003
3020
,
0230
0302
0023
1031
,
0000
0000
0000
0000
0000
0000
0000
0000
0000
0000
0001
0000
0000
0000
0000
0000
0000
0000
1000
0000
0000
0000
0001
0000
0000
1000
0000
0000
0001
0000
0000
1000
,
0000
0000
0000
0001
0010
0100
1000
0000
0000
1000
0100
0010
,
0001
0000
0000
0001
0010
0100
1000
0000
0000
1000
0100
0010
,
0001
0000
0000
1000
0000
0000
0010
0000
0100
0001
0000
0000
,
1000
0000
0000
0100
0010
0001
0010
0000
0100
1000
0000
0000
,
0010
0000
0000
0100
0001
1000
0100
0000
0010
0000
0001
0000
,
0010
0000
0100
0000
1000
0000
0001
0000
0100
0000
0010
0000
0000
0000
1000
0100
,
0010
0001
0100
0000
0000
0000
0000
0000
0000
0000
0000
0000
0000
0000
0000
0000
;

//---------------dance-single - ----------------
#NOTES:
     dance-single:
     :
     Easy:
     8:
     0.397010,0.595865,0.100018,0.028577,0.053581,389.000000,375.000000,14.000000,4.000000,0.000000,0.000000,0.397010,0.595865,0.100018,0.028577,0.053581,389.000000,375.000000,14.000000,4.000000,0.000000,0.000000:
0000
0000
0000
0000
,
0000
0000
0000
0000
,
0001
1000
0010
0100
,
0001
1000
0100
0010
,
1001
0000
0000
0000
0000
0001
0000
0001
,
1000
0100
0010
0000
0000
0000
0010
0100
,
1000
0000
1000
0010
0100
0000
0100
0001
,
0010
0000
0010
0100
1000
0000
0100
0000
,
1001
0010
0100
1000
,
1100
0000
0001
0000
0011
0000
1000
0001
,
1000
0001
0000
0100
0000
0000
0010
0000
,
1000
0100
0000
0010
0000
0000
0001
0000
,
1000
0000
0000
0000
,
0010
1000
0100
0010
0000
0010
0100
1000
,
0010
0100
0000
0100
0000
0000
0000
0000
,
0100
0010
0000
1000
0000
0000
1000
0000
,
0001
0010
0000
0000
0000
0000
0000
0000
,
0010
0100
1000
0010
0000
0010
1000
0100
,
0010
0001
0000
0001
0000
0000
0010
0000
,
0100
1000
0000
1000
0000
0000
0010
0000
,
0100
0001
0000
0000
0000
0000
0000
0000
,
0010
0100
0001
1000
0000
1000
0100
0010
,
0001
0010
0000
0010
0000
0000
0000
0000
,
0010
0100
0000
1000
0000
0000
1000
0000
,
0001
0100
0000
0000
0000
0000
0000
0000
,
0000
1001
0000
1001
0000
0010
1000
0100
,
0010
0000
0000
0010
0000
0000
0100
0000
,
0000
0100
0000
0000
1000
0000
1000
0000
,
0001
0000
0000
0000
0000
0100
0100
0010
,
0000
0000
0000
0000
0000
1000
0001
1000
,
0001
0000
0000
0100
0000
0000
0010
0000
,
0000
1000
0000
0000
0100
0000
0100
0000
,
0010
0001
0000
1000
0000
0001
0000
0100
,
0010
0100
0001
1000
0000
1000
0001
0000
,
0100
0000
0010
0000
,
1000
0000
0001
0000
,
0010
0100
0000
1000
0000
0000
0000
0000
,
0001
0100
0000
0010
0000
0000
0000
0000
,
0010
0000
0100
0000
,
0001
0000
1000
0000
,
0100
0010
0000
0100
0000
0010
0000
0001
,
0000
1000
0010
0100
0001
1000
0100
0100
,
0100
0010
0000
0001
0000
0000
0000
0000
,
1000
0010
0000
0100
0000
0000
0000
0000
,
0001
0010
0000
0100
0000
0000
0000
0000
,
1000
0001
0000
0100
0000
0010
0010
1000
,
0100
0000
0010
0000
,
0001
0000
0100
0000
,
0010
0000
1000
0000
0001
0000
1000
0000
0001
0000
1000
0000
,
0100
0000
0000
0000
0000
0000
0010
0100
,
1000
0000
0000
0001
0000
0000
0100
0000
,
0000
0010
0000
0000
0100
0000
0001
1000
,
0000
0000
0000
0000
,
0001
1000
0010
0100
,
0002
0000
0000
0000
,
0000
0000
2003
0000
0000
3000
0010
1000
,
0100
0010
0001
0100
0010
0000
0010
0100
,
0001
1000
0100
0000
0000
0000
0010
0000
,
0100
1000
0001
0100
0010
0100
0001
1000
,
0100
0010
0100
1000
0001
1000
0010
0100
,
0001
0100
0001
1000
0010
1000
0010
1000
,
0001
0010
0100
0010
0001
1000
0000
0011
,
0000
1100
0000
0000
0000
0000
0001
0000
,
0000
0100
0000
0000
0010
0000
0000
1000
,
0000
0100
0100
0010
,
0000
0000
0000
0001
0001
0010
0000
0000
,
0000
0000
0000
0100
0100
1000
0001
0000
,
0000
0100
0000
0000
0010
0000
0000
1000
,
0000
0000
0001
0000
0010
0000
0100
1000
,
0000
0001
0000
0100
0000
0010
0010
1000
,
0000
0001
0000
1000
0001
0000
0100
0000
,
0000
0010
0000
1000
,
0000
0000
0001
0000
0000
0000
0010
0100
,
0000
1000
0000
0000
0000
0000
0010
0100
,
0000
0001
0000
1000
0100
0010
0001
0000
,
0000
0010
0000
0100
,
0000
0000
1000
0000
0000
0000
0001
0100
,
0000
0100
0000
0010
0000
0010
1000
0100
,
1000
0010
0100
0001
0010
0010
0001
0100
,
0000
0010
0000
0000
0000
0000
1000
0100
,
0000
0010
0000
0000
0000
0000
0001
0010
,
0000
0100
0000
0000
0000
0000
1000
0001
,
0000
0100
0000
0010
0010
0010
1000
0000
,
0000
0001
0000
0010
,
0000
0000
0000
0100
0000
0000
0000
0000
0000
1000
0000
0010
,
0000
0100
0000
0010
0000
0100
0000
0010
0000
0001
0000
0000
,
0000
0000
0000
0000
1000
0100
0001
0000
,
0000
0010
0000
0000
0100
0000
0000
1000
,
0000
0001
0000
0000
0100
0000
0000
0010
0000
0000
1000
0000
0100
0000
0000
0000
,
0010
0001
1000
0010
,
0100
0001
1000
1001
,
0000
0000
0000
0000
0000
0010
0000
0000
0000
0010
0000
1000
0000
0100
0000
0010
,
0000
0000
0010
0100
1000
0000
1000
0010
,
0100
0000
0100
0001
0010
0000
0010
0001
,
1000
0001
1010
0101
,
1000
0100
0011
1100
,
0001
1000
0220
0000
,
0000
0000
0000
0000
0000
0000
0330
0001
,
0100
1000
0000
0000
0000
0000
0000
0000
;

//---------------dance-single - ----------------
#NOTES:
     dance-single:
     :
     Hard:
     15:
     0.835864,1.156680,0.750134,0.271477,0.475085,819.000000,714.000000,105.000000,38.000000,0.000000,2.000000,0.835864,1.156680,0.750134,0.271477,0.475085,819.000000,714.000000,105.000000,38.000000,0.000000,2.000000:
1000
0100
0010
0001
0000
0100
0000
0001
0000
0010
0000
0100
,
0000
1000
0000
0100
0000
0010
0000
0001
0000
0100
0000
0010
,
2000
3002
0023
0230
,
2300
3002
0203
0320
,
2032
0000
3003
0000
0000
1000
0000
0001
,
0100
0010
0100
0010
0000
0000
0000
0000
0000
0001
0100
0001
,
0100
0000
0000
0001
0010
0001
0010
0000
0000
0010
1000
0010
,
1000
0000
0000
1000
0100
1000
0100
0000
0000
0001
0000
0000
,
1000
0000
0100
0020
0000
0000
0031
0000
0000
1000
0001
0100
,
0010
0000
1000
0000
0010
0000
1000
0000
0010
0000
1000
0000
0001
0000
0100
0000
0001
0000
0100
0000
0000
0010
0000
0000
,
1000
0100
1000
0011
0000
0000
0100
1000
,
0001
0100
0010
1100
0000
1000
0100
0001
,
0010
0100
1000
0100
1000
0100
1000
0100
,
1000
1000
0100
1000
0000
0010
0010
1000
,
0100
0001
0000
0101
0000
0000
0001
0100
,
0010
0001
0000
0110
0000
0000
1000
0100
,
0001
0011
0100
1000
0001
1000
0001
1000
,
0100
0100
1000
0010
0000
0010
1000
0001
,
0100
0001
0000
0101
0000
0000
0001
1000
,
0010
0100
0000
0011
0000
1000
0001
0010
,
0100
1100
0001
0010
0001
0010
0001
0010
,
0100
0100
0010
0001
0000
0001
0100
0010
,
1000
0100
0000
0011
0000
0000
0100
0001
,
1000
0010
0000
0110
0000
0000
0001
1000
,
0100
0010
1000
0001
0100
1000
0010
0100
,
0000
0000
0110
0000
0000
0000
1001
0000
0000
0000
0100
0001
0100
0001
0100
0001
,
0010
0010
0010
0100
0100
0100
1000
1000
,
1000
0001
0001
0001
0100
0010
1000
0010
,
0100
0001
0001
0001
0001
1000
1000
0001
,
0010
0100
1000
0100
1000
1001
1001
1001
,
0100
0001
0001
1000
1000
1000
0100
0100
,
0100
0010
0010
0010
0001
1000
0010
0100
,
0001
1000
0001
1000
0001
1000
0001
1000
0100
0010
0100
0010
0100
1000
0001
0100
,
1001
0000
1001
0000
1001
0000
1001
0000
0000
0000
0100
0010
0100
0000
0000
0000
,
1001
0010
1000
0010
0101
1000
0001
1000
,
0110
0001
0010
0001
1100
0010
0001
0100
,
1010
1100
0000
1001
0000
0000
0100
0000
,
0011
0101
0000
0011
0000
0110
0110
0110
,
1001
0010
1000
0010
0101
1000
0001
1000
,
0110
0001
0010
0001
1100
0010
0001
1000
,
0110
0110
0000
1001
0000
0110
0000
1001
,
0000
0100
0001
0010
0100
1000
0010
0010
,
0100
0001
0000
0011
0000
1000
0001
0010
,
0100
1010
0000
0101
0000
0000
0010
0000
,
0100
1000
0001
0110
0000
0000
1000
0000
,
0001
1000
0100
1010
0000
1001
1001
1001
,
0110
0001
1000
0001
1100
0010
1000
0010
,
0101
1000
0001
1000
0110
0001
0010
0100
,
1000
0000
0100
0000
0010
0000
0001
0000
0010
0000
0100
0000
,
1000
0001
0010
0100
1000
0000
0101
1100
,
1002
0000
0000
2003
0000
0000
3002
0000
,
0000
0023
0000
0000
0230
0300
1001
1001
,
0000
0000
0010
1000
0001
0100
0010
1000
0001
0010
0100
1000
,
0100
0010
0100
1000
0100
0010
0100
1000
0100
0010
0100
1000
0100
0010
0100
1000
,
0200
0000
0000
0000
,
0000
0000
0320
0000
0000
0000
0031
0100
,
0010
1000
0001
0010
0200
0000
1300
0100
,
0010
0001
0200
0000
0000
0000
0000
0000
0310
0000
0000
0000
2000
0000
0000
0000
,
3001
0100
0010
1000
0100
0010
0001
0100
0010
1000
0001
1000
0001
1000
0010
0100
,
0010
0100
0010
0100
0001
0010
0001
0010
0001
0010
0100
1000
0100
1000
0100
1000
,
0001
0100
0010
1000
0100
0010
0001
1000
0010
0100
0001
1000
0010
0100
0010
0100
,
0001
1000
0001
1000
0010
0100
0010
0100
0001
1000
0001
0000
0000
0000
2002
0000
,
3003
0000
2002
0000
3003
0000
0001
1000
0001
1000
0001
1000
0100
0000
0100
0000
,
0100
0010
0010
0010
0001
0001
0001
1000
,
1000
1000
0010
0100
0001
0100
0010
1000
,
1000
1000
1000
0001
0001
1000
0100
0010
,
0001
0010
0001
1001
1001
1001
0010
1000
,
1000
0001
0001
0001
0010
0010
0010
0100
,
0100
0000
0100
0000
1000
0000
0001
0000
0100
0000
0010
0000
1000
0001
1000
0001
,
1000
0001
1000
0001
0010
0100
0010
0100
0010
0001
1000
0010
1001
0000
1001
0000
,
1001
0000
1001
0000
0000
0000
1000
0001
1000
0000
0000
0000
1001
0000
0010
0000
,
1000
0010
0101
1000
0001
1000
0110
0001
,
0010
0001
1100
0010
0001
0100
1010
1010
,
0000
1001
0000
0000
1000
0000
0101
0101
,
0000
0011
0000
0110
0110
0110
1001
0010
,
1000
0010
0101
1000
0001
1000
0110
0001
,
0010
0001
1100
0010
1000
0001
0110
0110
,
0000
1001
0000
0110
0000
1001
0000
0100
,
0001
0010
0100
1000
0010
0010
0100
0001
,
1000
0011
0000
0000
0001
0000
1000
0100
,
0010
0101
0000
0000
0010
0000
0001
0100
,
1000
0110
0000
0000
1000
0000
0001
1000
,
0100
1010
0000
1001
1001
1001
0110
0001
,
0010
0001
1100
0010
0001
1000
0101
0010
,
1000
0000
0000
0001
0000
0000
0110
0000
0000
1000
0000
0000
0100
0000
0000
0010
0000
0000
0001
0000
0000
0000
1000
0000
,
0000
0000
0000
0000
0100
0000
0000
0000
0000
0000
0000
0000
0010
0000
0000
0000
0000
0000
0000
0000
0001
0000
0000
0000
0000
0000
0000
0000
0010
0000
0000
0000
0000
0000
0000
0000
0100
0000
0000
0000
0000
0000
1000
0000
0000
0010
0000
0000
,
0100
0001
0010
0100
1000
0000
0000
0000
0101
0000
1100
0000
2001
0000
0001
0000
,
3001
0200
0010
0010
2300
0001
3001
0010
,
0000
0100
0000
0000
1000
0000
0000
1000
0000
0000
0001
0000
0020
0000
0000
0000
,
0230
2300
3002
0203
,
0320
2030
3200
2302
,
3003
0000
0000
0000
0000
0000
0000
0000
0000
0000
1000
0000
0000
0000
0000
0000
0000
0000
0001
0000
0000
0000
1000
0000
0000
0100
0000
0000
1000
0000
0000
0100
,
0000
0000
0000
1000
0100
0010
0001
0000
0000
0001
0010
0100
,
1000
0000
0000
1000
0100
0010
0001
0000
0000
0001
0010
0100
,
1000
0000
0000
0001
0000
0000
0100
0000
0010
1000
0000
0000
,
0001
0000
0000
0010
0100
1000
0100
0000
0010
0001
0000
0000
,
0100
0000
0000
0010
1000
0001
0010
0000
0100
0000
1000
0000
,
0100
0000
0010
0000
0001
0000
1000
0000
0010
0000
0100
0000
0000
0000
0001
0010
,
0100
1000
0010
0000
0000
0000
0000
0000
0000
0000
0000
0000
0000
0000
0000
0000
;

//---------------dance-single - ----------------
#NOTES:
     dance-single:
     :
     Challenge:
     19:
     1.108361,1.229907,1.235935,0.228612,0.993034,1086.000000,913.000000,173.000000,32.000000,0.000000,1.000000,1.108361,1.229907,1.235935,0.228612,0.993034,1086.000000,913.000000,173.000000,32.000000,0.000000,1.000000:
// measure 0
1000
0100
0010
0001
0000
0100
0000
0001
0000
0010
0000
0100
,  // measure 1
0000
1000
0000
0100
0000
0010
0000
0001
0000
0100
0000
0010
,  // measure 2
2000
0100
3010
0002
0010
0103
2000
0010
3100
0002
0100
0013
,  // measure 3
2000
0000
0001
0000
3100
0000
0020
0000
1000
0000
0130
0000
2000
0000
0001
0000
3100
0000
0010
1000
0100
0010
0001
1000
,  // measure 4
0110
0000
0100
0000
0010
0000
0100
0000
0000
0000
0000
0000
0000
0000
0000
0001
0000
0000
0000
0000
0000
1000
0000
0000
,  // measure 5
0100
0100
0100
0100
0000
0000
0000
0000
0000
0001
0001
0001
,  // measure 6
1001
0010
0100
1000
1000
1000
0100
0000
0000
0100
0100
0100
,  // measure 7
0010
0001
1000
0010
0010
0010
1000
0000
0000
1001
0000
0000
,  // measure 8
0110
0000
0010
0200
0000
0000
0301
0000
0000
1000
0001
0100
,  // measure 9
0010
0000
0010
0000
0010
0000
0010
0000
0010
0000
0010
0000
1000
0000
1000
0000
1000
0000
0100
0000
0000
0010
0000
0000
,  // measure 10
0100
0000
1000
0000
0001
0010
0001
0100
0001
0000
0010
0000
0100
0000
1000
0001
,  // measure 11
1000
0001
0100
0000
0010
1000
0001
1000
0010
0000
1000
0000
0100
0000
0010
0000
,  // measure 12
0001
0000
0001
0000
0001
1000
0100
1000
0001
0000
0001
0000
0001
0000
0001
0000
,  // measure 13
1100
1100
1010
1100
0001
0110
1001
0010
,  // measure 14
0100
0000
0001
0000
1000
0010
0100
0010
1000
0000
0100
0000
0010
0000
0001
0100
,  // measure 15
0001
0100
0010
0000
0100
0010
0100
0010
1000
0000
0001
0000
1000
0000
0100
0000
,  // measure 16
0011
0000
0101
0000
0010
1000
0001
1000
0010
0000
1000
0000
0001
0000
0100
0000
,  // measure 17
1010
1010
1100
1010
0000
1001
0110
0001
,  // measure 18
0100
0000
0010
0000
1000
0100
0001
0100
1000
0000
0001
0000
0100
0000
0010
1000
,  // measure 19
0010
1000
0100
0000
0010
0001
1000
0001
0010
0000
0100
0000
1000
0000
0010
0000
,  // measure 20
0101
0000
0101
0000
0010
1000
0010
0001
0010
0000
1000
0000
0100
0000
0010
0000
,  // measure 21
1100
1100
1010
1100
0010
1001
0110
0010
,  // measure 22
1000
0000
0100
0000
0001
0100
1000
0100
0001
0000
0100
0000
1000
0000
0010
0100
,  // measure 23
0010
0100
0001
0000
1000
0100
0001
0100
1000
0000
0010
0000
0100
0000
0010
0000
,  // measure 24
1001
0000
1001
0100
0001
0100
0010
1000
0010
1000
0100
0010
0100
0010
0001
0000
,  // measure 25
0000
0000
1001
0000
0000
0000
0110
0000
0000
0000
0100
0001
0100
0001
0100
0001
,  // measure 26
0110
0001
1000
0101
1000
0010
1100
0001
,  // measure 27
0100
0011
1000
0100
1001
1000
1001
0001
,  // measure 28
1001
0010
0100
1000
0100
0011
1100
1001
,  // measure 29
0100
0010
1000
0001
0100
0110
0110
0110
,  // measure 30
1001
0010
0100
0011
1000
0100
1010
0100
,  // measure 31
0001
1100
0010
0100
1001
1000
1001
0001
,  // measure 32
1001
0000
1000
0100
0010
0001
0010
0100
1000
0100
0010
0001
0010
0100
1000
0000
,  // measure 33
1001
0000
0000
1001
0000
0000
1001
0000
0000
1001
0000
0000
0000
0000
0000
0100
0010
1000
0001
0000
0000
0000
0000
0000
,  // measure 34
1001
0010
1000
0010
0101
1000
0001
1000
,  // measure 35
0110
0001
0010
0001
1100
0010
0001
0100
,  // measure 36
1010
1100
0000
1001
0000
0000
0100
0000
,  // measure 37
0011
0101
0000
0011
0000
0110
0110
0110
,  // measure 38
1001
0010
1000
0010
0101
1000
0001
1000
,  // measure 39
0110
0001
0010
0001
1100
0010
0001
1000
,  // measure 40
0110
0110
0000
1001
0000
0110
0000
1001
,  // measure 41
0000
0000
0100
0000
0001
0010
0100
1000
0100
0010
0001
0010
0100
0000
1000
0000
,  // measure 42
0010
0000
1000
0000
0001
0100
1000
0100
0001
0000
1000
0000
0010
0000
1000
0100
,  // measure 43
1000
0100
0010
0000
0001
0010
1000
0010
0001
0000
0010
0000
0100
0000
1000
0000
,  // measure 44
0110
0000
0110
0000
0001
0100
1000
0100
0001
0000
0100
0000
0010
0000
1000
0100
,  // measure 45
1000
0100
0010
0000
1000
0010
1000
0010
0100
0000
1001
0000
1001
0000
1001
0000
,  // measure 46
0110
0001
1000
0001
1100
0010
1000
0010
,  // measure 47
0101
1000
0001
1000
0110
0001
0010
0100
,  // measure 48
1100
0000
0110
0000
0011
0000
0011
0000
0110
0000
1100
0000
,  // measure 49
1001
0000
0001
0010
0100
1000
0100
0010
0001
0000
0000
0000
1001
0000
0110
0000
,  // measure 50
1002
0000
0000
2003
0000
0000
3002
0000
,  // measure 51
0013
0100
0010
0100
0010
0100
1000
0100
1000
0100
1000
0001
0100
0001
0100
0001
0100
0001
1001
0000
0000
1001
0000
0000
,  // measure 52
0000
0000
0010
1000
0001
0100
0010
1000
0001
0010
0100
1000
,  // measure 53
0100
0010
0001
1000
0010
0100
0001
1000
0100
0010
0001
1000
0010
0100
0001
1000
0100
0010
0001
1000
0010
0100
0001
1000
,  // measure 54
0200
0000
0000
0000
,  // measure 55
0000
0000
0320
0000
0000
0000
1031
0100
,  // measure 56
0010
0000
1100
0000
0001
0000
0010
0000
0210
0000
0000
0000
1300
0000
0100
0010
,  // measure 57
0001
1000
0200
0000
0000
0000
0000
0000
0310
0000
0000
0000
0012
0000
0000
0000
,  // measure 58
1003
0010
0100
0010
1000
0100
1000
0010
0100
0001
1000
0100
0010
0001
0010
0100
,  // measure 59
0001
0100
1000
0010
0100
0001
1000
0100
0010
0001
0010
0100
1000
0010
0100
1000
,  // measure 60
0100
0001
0010
0001
1000
0100
1000
0001
0010
1000
0001
0100
1000
0010
0001
0010
,  // measure 61
1000
0100
0001
0100
1000
0001
1000
0010
0100
0001
1000
0000
0000
0000
2002
0000
,  // measure 62
3003
0000
2002
0000
3003
0000
0010
1000
0010
0100
0010
1000
0110
0000
0001
0000
,  // measure 63
0010
1100
0001
0010
0101
0010
1000
1010
,  // measure 64
0100
1000
1001
0001
1001
1000
1001
0010
,  // measure 65
0001
1000
0010
1010
0011
1001
0100
0010
,  // measure 66
0001
0010
0100
0110
0110
0110
1001
0100
,  // measure 67
0010
1100
0010
0100
0011
1000
0100
1010
,  // measure 68
0001
0000
0010
0000
1001
0000
1000
0000
1001
0000
0001
0000
1001
0000
0001
0010
,  // measure 69
0100
1000
0100
0010
0001
0010
0100
1000
0100
0010
0001
0000
1001
0000
1001
0000
,  // measure 70
1001
0000
0000
1001
0000
0000
0000
0000
0000
0010
0100
1000
0001
0000
0000
0000
0000
0000
1001
0000
0000
0100
0000
0000
,  // measure 71
0001
0100
1010
0001
1000
0001
0110
1000
,  // measure 72
0100
1000
0011
0100
1000
0010
0101
0101
,  // measure 73
0000
1001
0000
0000
0001
0000
1010
1010
,  // measure 74
0000
1100
0000
0110
0110
0110
1001
0100
,  // measure 75
0001
0100
1010
0001
1000
0001
0110
1000
,  // measure 76
0100
1000
0011
0100
0001
1000
0110
0110
,  // measure 77
0000
1001
0000
0110
0000
1001
0000
0010
,  // measure 78
1000
0100
0010
0001
0010
0100
1000
0100
0010
0000
0001
0000
0100
0000
0001
0000
,  // measure 79
1000
0010
0001
0010
1000
0000
0001
0000
0100
0000
0001
0010
0001
0010
0100
0000
,  // measure 80
1000
0100
0001
0100
1000
0000
0100
0000
0010
0000
0001
0000
0110
0000
0110
0000
,  // measure 81
1000
0010
0001
0010
1000
0000
0010
0000
0100
0000
0001
0010
0001
0010
0100
0000
,  // measure 82
0001
0100
0001
0100
0010
0000
1001
0000
1001
0000
1001
0000
0110
0000
1000
0000
,  // measure 83
0001
1000
0011
0100
0001
0100
1010
0001
,  // measure 84
1000
0000
0000
0001
0000
0000
0110
0000
0000
1000
0000
0000
0100
0000
0000
0010
0000
0000
0011
0000
0000
0000
0110
0000
,  // measure 85
0000
0000
0000
0000
1100
0000
0000
0000
0000
0000
0000
0000
1100
0000
0000
0000
0000
0000
0000
0000
0110
0000
0000
0000
0000
0000
0000
0000
0011
0000
0000
0000
0000
0000
0000
0000
1001
0000
0000
0000
0000
0000
1000
0000
0000
0100
0000
0000
,  // measure 86
0010
0001
0010
0100
1000
0000
0000
0000
1001
0000
0110
0000
1002
0000
1000
0000
,  // measure 87
1003
2010
0010
3010
0120
0100
0130
1001
,  // measure 88
0000
0000
0000
0010
0000
0000
0000
0000
0000
0000
0000
0000
0100
0000
0000
0000
0000
0000
0001
0000
1000
0000
0001
0000
1000
0000
0000
0000
0000
0000
1000
0000
0000
0000
0000
0000
0200
0000
0000
0000
0010
0000
0000
0000
0301
0000
0000
0000
,  // measure 89
0020
0100
1030
0200
0010
0301
0200
0010
1300
0020
0100
0031
,  // measure 90
0200
0000
0010
0000
1300
0000
0001
0010
0100
1000
0100
0010
0001
0100
0010
1000
0001
0100
2002
0000
0000
0000
0000
0000
,  // measure 91
3003
0000
0000
0000
0000
0000
0000
0000
0000
0000
0001
0000
0000
0000
0000
0000
0000
0000
1000
0000
0000
0000
0001
0000
0000
0010
0000
0000
0001
0000
0000
0010
,  // measure 92
0000
0000
0000
0010
0010
0010
0100
1000
0001
0100
0100
0100
,  // measure 93
0010
0000
0000
1000
1000
1000
0001
0100
0010
1000
1000
1000
,  // measure 94
0001
0000
0000
0000
0000
0000
1100
0000
0000
0000
0000
0000
0100
0001
0010
0100
1000
0010
0100
0000
0000
0000
0000
0000
,  // measure 95
0001
0000
0000
0000
0000
0000
0100
0000
0010
0000
1000
0000
0001
0100
0010
1000
0100
0010
0001
0000
0000
0000
0000
0000
,  // measure 96
0010
0000
0000
0100
1000
0001
0100
0000
1000
0000
0001
0000
,  // measure 97
0010
0000
1000
0000
0001
0000
0010
0000
0100
0000
1000
0000
0000
0000
1000
0100
,  // measure 98
0010
0001
0200
0000
0000
0000
0300
0000
0000
0000
0000
0000
0000
0000
0000
0000
;

//---------------dance-double - ----------------
#NOTES:
     dance-double:
     :
     Easy:
     5:
     0.400071,0.595865,0.114306,0.028577,0.035721,392.000000,376.000000,16.000000,4.000000,0.000000,0.000000,0.400071,0.595865,0.114306,0.028577,0.035721,392.000000,376.000000,16.000000,4.000000,0.000000,0.000000:
00000000
00000000
00000000
00000000
,
00000000
00000000
00000000
00000000
,
00100000
00010000
00001000
00000100
,
00000010
00000100
00000100
00001000
,
00011000
00000000
00000000
00000000
00000000
00001000
00000000
00010000
,
00001000
00100000
00010000
00000000
00000000
00000000
00000100
00001000
,
00000100
00000000
00001000
00010000
00001000
00000000
00100000
00001000
,
00100000
00000000
01000000
10000000
01000000
00000000
00100000
00000000
,
01010000
00010000
00001000
00000100
,
00000011
00000000
00000010
00000000
00001100
00000000
00000100
00010000
,
00001000
00100000
00000000
00001000
00000000
00000000
00010000
00000000
,
00000100
00000010
00000000
00000001
00000000
00000000
00000100
00000000
,
00000010
00000000
00000000
00000000
,
00000001
00001000
00000100
00010000
00000000
00001000
00010000
00000010
,
00010000
00001000
00000000
00000100
00000000
00000000
00000000
00000000
,
00000010
00001000
00000000
00001000
00000000
00000000
00010000
00000000
,
00000100
00000010
00000000
00000000
00000000
00000000
00000000
00000000
,
00100000
01000000
10000000
00010000
00000000
00010000
00100000
00001000
,
00010000
00000100
00000000
00000010
00000000
00000000
00000001
00000000
,
00001000
00000100
00000000
00000010
00000000
00000000
00000100
00000000
,
00001000
00000010
00000000
00000000
00000000
00000000
00000000
00000000
,
00010000
00001000
00010000
00000010
00000000
00010000
00001000
00010000
,
00000010
00001000
00000000
00100000
00000000
00000000
00000000
00000000
,
00100000
10000000
00000000
10000000
00000000
00000000
00010000
00000000
,
00001000
00000100
00000000
00000000
00000000
00000000
00000000
00000000
,
00000000
00001100
00000000
00001100
00000000
00010000
00001000
00010000
,
00001000
00000000
00000000
00010000
00000000
00000000
01000000
00000000
,
00000000
10000000
00000000
00000000
10000000
00000000
01000000
00000000
,
00100000
00000000
00000000
00000000
00000000
00100000
00010000
00001000
,
00000000
00000000
00000000
00000000
00000000
00000010
00001000
00000100
,
00000010
00000000
00000000
00000001
00000000
00000000
00000100
00000000
,
00000000
00000010
00000000
00000000
00000010
00000000
00000100
00000000
,
00001000
00001000
00000000
00000100
00000000
00000010
00000000
00000001
,
00001000
01000000
00100000
01000000
00000000
00100000
10000000
00000000
,
01000000
00000000
00100000
00000000
,
00010000
00000000
00001000
00000000
,
00000001
00000010
00000000
00001000
00000000
00000000
00000000
00000000
,
00001000
00010000
00000000
00001000
00000000
00000000
00000000
00000000
,
00100000
00000000
00001000
00000000
,
00001000
00000000
00000010
00000000
,
00000100
00000001
00000000
00001000
00000000
00000010
00000000
00000010
,
00000000
00001000
00010000
00001000
00100000
01000000
10000000
01000000
,
00100000
00010000
00000000
00001000
00000000
00000000
00000000
00000000
,
00001000
00010000
00000000
01000000
00000000
00000000
00000000
00000000
,
01000000
00100000
00000000
00010000
00000000
00000000
00000000
00000000
,
00001000
00000100
00000000
00000010
00000000
00001000
00010000
00001000
,
00100000
00000000
00001000
00000000
,
00010000
00000000
01000000
00000000
,
00001000
00000000
00100000
00000000
00010000
00000000
00100000
00000000
00001000
00000000
00100000
00000000
,
00010000
00000000
00000000
00000000
00000000
00000000
00001000
00010000
,
00001000
00000000
00000000
00010000
00000000
00000000
01000000
00000000
,
00000000
00010000
00000000
00000000
00100000
00000000
00100000
00010000
,
00000000
00000000
00000000
00000000
,
00001000
00000100
00000001
00001000
,
00000200
00000000
00000000
00000000
,
00000000
00000000
00020300
00000000
00000000
00000000
00030001
00001000
,
00001000
00000100
00000010
00000001
00000100
00000000
00001000
01000000
,
00010000
00000100
00000100
00000000
00000000
00000000
00000001
00000000
,
00001000
00000100
00000010
00000001
00001000
00000010
00000100
00001000
,
00100000
00001000
00010000
00001000
00100000
00001000
00010000
01000000
,
00010000
00001000
00010000
00001000
00100000
01000000
01000000
00010000
,
00001000
00000100
00000010
00000001
00000100
00000010
00000000
00001001
,
00000000
00011000
00000000
00000000
00000000
00000000
00001000
00000000
,
00000000
00010000
00000000
00000000
00001000
00000000
00000000
00010000
,
00000000
00000100
00000010
00000001
,
00000000
00000000
00000000
00000100
00001000
00001000
00000000
00000000
,
00000000
00000000
00000000
00010000
00001000
00010000
00001000
00000000
,
00000000
00010000
00000000
00000000
01000000
00000000
00000000
10000000
,
00000000
00000000
01000000
00000000
00100000
00000000
00010000
00001000
,
00000000
00000100
00000000
00000010
00000000
00000001
00000001
00001000
,
00000000
00010000
00000000
00100000
00010000
00000000
00001000
00000000
,
00000000
00010000
00000000
01000000
,
00000000
00000000
10000000
00000000
00000000
00000000
01000000
00100000
,
00000000
00010000
00000000
00000000
00000000
00000000
00001000
00000100
,
00000000
00000010
00000000
00000001
00000100
00000100
00000010
00000000
,
00000000
00010000
00000000
00001000
,
00000000
00000000
00010000
00000000
00000000
00000000
00001000
00100000
,
00000000
00010000
00000000
00001000
00000000
00000100
00000001
00000010
,
00000001
00001000
01000000
00001000
00010000
00001000
00010000
00000100
,
00000000
00000010
00000000
00000000
00000000
00000000
00000100
00000010
,
00000000
00000001
00000000
00000000
00000000
00000000
00001000
00000001
,
00000000
00000100
00000000
00000000
00000000
00000000
00001000
00010000
,
00000000
00001000
00000000
00100000
00100000
00001000
00010000
00000000
,
00000000
00100000
00000000
01000000
,
00000000
00000000
00000000
00010000
00000000
00000000
00000000
00000000
00000000
00001000
00000000
00010000
,
00000000
00001000
00000000
00010000
00000000
00001000
00000000
00010000
00000000
00001000
00000000
00000000
,
00000000
00000000
00000000
00000000
00001000
00010000
00001000
00000000
,
00000000
00010000
00000000
00000000
00100000
00000000
00000000
00010000
,
00000000
10000000
00000000
00000000
01000000
00000000
00000000
00100000
00000000
00000000
00010000
00000000
00100000
00000000
00000000
00000000
,
01000000
10000000
01000000
00100000
,
00010000
00001000
00010000
00011000
,
00000000
00000000
00000000
00010000
00000000
00001000
00010000
00001000
,
00010000
00000000
00010000
01000000
10000000
00000000
10000000
01000000
,
00010000
00001000
00010000
00000000
00001000
00010000
00001000
00000100
,
00010000
00100000
00011000
00101000
,
00010000
00001000
00110000
00011000
,
00001010
00011000
00220000
00000000
,
00000000
00000000
00000000
00000000
00000000
00000000
00330000
00010000
,
00001000
00010000
00000000
00000000
00000000
00000000
00000000
00000000
;

//---------------dance-double - ----------------
#NOTES:
     dance-double:
     :
     Medium:
     8:
     0.575613,0.736069,0.492945,0.385783,0.235756,564.000000,495.000000,69.000000,54.000000,0.000000,2.000000,0.575613,0.736069,0.492945,0.385783,0.235756,564.000000,495.000000,69.000000,54.000000,0.000000,2.000000:
00010000
00100000
01000000
10000000
00000000
00100000
00000000
10000000
00000000
01000000
00000000
00100000
,
00000000
00010000
00000000
00000100
00000000
00000010
00000000
00000001
00000000
00000100
00000000
00000010
,
00002000
00003002
00000023
00000230
,
00002300
00003002
00000203
00000320
,
00001031
00000000
00000000
00000000
00000000
00010000
00000000
10000000
,
00100000
01000000
00100000
01000000
00000000
00000000
00000000
00000000
00000000
00010000
00100000
00010000
,
00100000
00000000
00000000
00001000
00000010
00001000
00000010
00000000
00000000
00010000
00001000
00010000
,
00001000
00000000
00000000
00001000
00010000
00001000
00010000
00000000
00000000
10000000
00000000
00000000
,
01000000
00000000
00100000
00020000
00000000
00000000
00031000
00000000
00000000
00001000
00000001
00000100
,
00000020
00000000
00000130
00000000
00002000
00000000
00003001
00000100
,
00000010
00001000
00000000
00001001
00000000
00000000
00001000
00000000
,
00000001
00000100
00000000
00000010
00000000
00000000
00011000
00000000
,
00110000
01000000
00100000
00010000
,
00100000
01000000
00010000
00001000
00000000
00000010
00000100
00000010
,
00001000
00000001
00000000
00000011
00000000
00000000
00000001
00000000
,
00000100
00000010
00000000
00000110
00000000
00000000
00001000
00000000
,
00000001
00000011
00000000
00000000
00000000
00000000
00000000
00000000
,
00000001
00000010
00001000
00010000
00000000
00010000
01000000
00100000
,
01000000
10000000
00000000
01100000
00000000
00000000
10000000
00000000
,
01000000
00010000
00000000
11000000
00000000
00000000
00010000
00000000
,
00000100
00001100
00000000
00000000
00000000
00000000
00000000
00000000
,
00100000
10000000
01000000
00010000
00000000
00001000
00000100
00000010
,
00000001
00000100
00000000
00000011
00000000
00000000
00000000
00000000
,
00001000
00010000
00000000
00011000
00000000
00000000
00010000
00000000
,
00100000
01000000
10000000
10000000
01000000
00100000
00010000
00100000
,
00000000
00000000
01100000
00000000
00000000
00000000
10010000
00000000
00000000
00000000
00100000
10000000
00100000
10000000
00100000
10000000
,
02000000
00000000
00000000
03200000
00000000
00000000
00320000
00000000
,
00000000
00030020
00000000
00000000
00000100
00000000
00000230
00000000
,
00000302
00000000
00000000
00000000
00000003
00000100
00000001
00002000
,
00000000
00000000
00000000
00000000
00003000
00100000
00100000
00100000
,
02000000
00000000
00000000
23000000
00000000
00000000
30200000
00000000
,
00000000
02300000
00000000
00000000
03002000
00000000
00003002
00000000
,
00000013
00000100
00000000
00001000
00000000
00000001
00000000
00001000
,
00010000
00000000
00001000
00000000
00010000
00000000
00001000
00000000
00000000
00000000
00001000
00010000
00001000
00000000
00000000
00000000
,
10010000
01000000
10100000
00010000
,
01100000
10000000
00110000
10000000
,
00010000
10000000
00000000
10010000
00000000
00000000
00100000
00000000
,
01000000
00010000
00000000
11000000
00000000
00010000
00010000
00001000
,
00001001
00000010
00000101
00001000
,
00000110
00000001
00001100
00000001
,
00000110
00000110
00000000
00001001
00000000
00000110
00000000
00001001
,
00000000
00001000
00010000
01000000
00100000
10000000
01000000
01000000
,
00100000
00010000
00000000
00011000
00000000
00000000
00010000
00000000
,
00010000
00001000
00000000
00001100
00000000
00000000
00000010
00000000
,
00000100
00001000
00000000
00000110
00000000
00000000
00001000
00000000
,
00000001
00000100
00000000
00001010
00000000
00010000
00010000
00010000
,
01100000
10000000
00110000
01000000
,
10100000
00010000
01100000
10000000
,
00010000
00000000
00100000
00000000
00001000
00000000
00100000
00000000
00010000
00000000
00100000
00000000
,
00001000
00010000
01000000
00100000
10000000
00000000
10010000
00100000
,
02000000
00000000
00000000
03020000
00000000
00000000
00032000
00000000
,
00000000
00003020
00000000
00000000
00000230
00000300
00001001
00001001
,
00000000
00000000
00001000
00010000
10000000
00100000
01000000
00010000
00001000
00000100
00000010
00000001
,
00001000
00010000
10000000
00010000
01000000
10000000
00100000
10000000
,
00200000
00000000
00000000
00000000
,
00000000
00000000
02300000
00000000
00000000
00000000
03010000
00000100
,
00000010
00001000
00000001
00000010
00000100
00000000
00001000
00000100
,
00000010
00000001
00000200
00000000
00000300
00000000
00010000
00000000
,
00100000
10000000
00010000
01000000
00010000
10000000
00100000
10000000
,
00100000
10000000
00010000
00100000
00010000
00100000
01000000
10000000
,
00100000
01000000
00010000
10000000
01000000
10000000
00010000
00010000
,
10000000
10000000
00100000
00100000
01000000
01000000
00000000
10010000
,
00000000
00001001
00000000
00001000
00001000
00001000
00020000
00000000
,
00000000
02030000
00000000
00000000
03200000
00000000
00000000
00320000
,
00000000
00001000
00032000
00003200
,
00000000
00000000
00000300
00000010
00001000
02000000
00000000
00000000
,
03000000
00000000
00000000
00100000
00100000
00100000
20000000
00000000
,
00000000
30020000
00000000
00000000
00032000
00000000
00000000
00003002
,
00000000
00000000
00001003
00000000
00010000
00000000
00100000
00010000
,
00000000
00100000
00000000
01000000
00000000
10000000
00010000
01000000
,
00100000
00000000
10000000
00000000
00000000
00000000
00100000
00001000
00100000
00000000
00000000
00000000
00001001
00000000
00000000
00000000
,
00000010
00000101
00001000
00000110
,
00000001
00000000
00001100
00000000
00000001
00000000
00001000
00000001
,
00000000
00001001
00000000
00000000
00001000
00000000
00010000
00100000
,
00000000
11000000
00000000
01000000
01000000
01000000
10010000
00000000
,
01000000
10100000
00010000
01100000
,
10000000
00000000
00110000
00000000
10000000
00000000
00011000
00011000
,
00000000
00101000
00000000
00010100
00000000
00011000
00000000
00100000
,
00001000
01000000
00010000
00100000
01000000
01000000
00100000
00010000
,
00000000
00011000
00000000
00000000
00010000
00000000
00001000
00010000
,
00000000
00011000
00000000
00000000
01000000
00000000
00100000
00010000
,
00000000
00011000
00000000
00000000
00010000
00000000
00001000
00000100
,
00000000
00011000
00000000
00010000
00010000
00010000
01100000
00000000
,
10000000
00110000
01000000
10100000
,
00010000
00000000
00000000
01100000
00000000
00000000
00010000
00000000
00000000
00001000
00000000
00000001
,
00000000
00000000
00000100
00000000
00000000
00000000
00000010
00000000
00000000
00000000
00001000
00000000
00000000
00000000
00000001
00000000
00000000
00000000
00000010
00000000
00000000
00000001
00000000
00000000
,
00001000
00000001
00001000
00000001
00001000
00000000
00000000
00000000
00011000
00000000
00011000
00000000
00021000
00000000
00000000
00000000
,
00000000
00230000
00000000
00000000
02300000
00000000
00000000
03010000
,
00000000
00100000
00000000
00000000
00001000
00000000
00000000
00010000
00000000
00000000
00100000
00000000
02000000
00000000
00000000
00000000
,
03200000
00320000
00032000
00003200
,
00000320
00000032
00000203
00001301
,
00000000
00000000
00000000
00000000
00000000
00000000
00000000
00000000
00000000
00001000
00000000
00000000
00000000
00000000
00000000
00010000
00000000
00000000
00001000
00000000
00100000
00000000
00001000
00000000
,
00100000
00000000
00000000
00100000
00100000
00100000
00010000
00000000
00000000
00010000
00010000
00010000
,
00001000
00000000
00000000
00001000
00001000
00001000
00000100
00000000
00000000
00000100
00000100
00000100
,
00000010
00000000
00000000
00000001
00000000
00000000
00001000
00000000
00010000
00010000
00000000
00000000
,
00010000
00000000
00000000
00100000
00010000
00001000
00000100
00000000
00000100
00000100
00000000
00000000
,
00010000
00000000
00000000
00001000
00010000
00001000
01000000
00000000
00100000
00000000
00010000
00000000
,
00001000
00000000
00000100
00000000
00000010
00000000
00000001
00000000
00001000
00000000
00010000
00000000
00000000
00000000
10000000
00010000
,
10000000
00010000
10000000
00000000
00000000
00000000
00000000
00000000
00000000
00000000
00000000
00000000
00000000
00000000
00000000
00000000
;

//---------------dance-double - ----------------
#NOTES:
     dance-double:
     :
     Hard:
     10:
     0.788916,1.156680,1.000179,0.442936,0.403643,773.000000,633.000000,140.000000,62.000000,0.000000,23.000000,0.788916,1.156680,1.000179,0.442936,0.403643,773.000000,633.000000,140.000000,62.000000,0.000000,23.000000:
10000000
01000000
00100000
00010000
00000000
01000000
00000000
00010000
00000000
00100000
00000000
01000000
,
00000000
10000000
00000000
01000000
00000000
00100000
00000000
00010000
00000000
01000000
00000000
00100000
,
00020000
00032000
00003200
00000320
,
00000032
00002003
00003020
00000230
,
00002302
00000000
00003003
00000000
00000000
00000001
00000000
00001000
,
00000010
00000100
00000010
00000100
00000000
00000000
00000000
00000000
00000000
00010000
00001000
00010000
,
00001000
00000000
00000000
00010000
00100000
00010000
00100000
00000000
00000000
00100000
10000000
00100000
,
10000000
00000000
00000000
10000000
01000000
10000000
01000000
00000000
00000000
00010000
00000000
00000000
,
00001000
00000000
00000010
00000200
00000000
00000000
00001300
00000000
00000000
00000001
00001000
00000010
,
00000100
00000000
00000001
00000000
00000100
00000000
00000001
00000000
00000100
00000000
00000001
00000000
00001000
00000000
00000010
00000000
00001000
00000000
00000010
00000000
00000000
00001000
00000000
00000000
,
00010000
00100000
00010000
00110000
00000000
00000000
00010000
01000000
,
00010000
10000000
00100000
11000000
00000000
00010000
00001000
00010000
,
00000100
00000010
00000001
00000010
00000001
00000010
00000001
00000010
,
00000001
00000001
00001000
00010000
00000000
00100000
00100000
10000000
,
01000000
00010000
00000000
00110000
00000000
00000000
00010000
01000000
,
00100000
00010000
00000000
00011000
00000000
00000000
00001000
01000000
,
00010000
00011000
00010000
00001000
00010000
00001000
00010000
00001000
,
00100000
00100000
01000000
00010000
00000000
00100000
10000000
00010000
,
01000000
00010000
00000000
00011000
00000000
00000000
00001000
00000001
,
00000100
00000010
00000000
00001100
00000000
00000001
00001000
00000100
,
00000010
00000011
00001000
00000100
00001000
00000100
00001000
00000100
,
00000010
00000010
00000100
00001000
00000000
00001000
00000010
00000100
,
00000001
00000010
00000000
00001100
00000000
00000000
00001000
00010000
,
01000000
00100000
00000000
01100000
00000000
00000000
00010000
10000000
,
01000000
00100000
10000000
00010000
01000000
10000000
00100000
01000000
,
00000000
00000000
00011000
00000000
00000000
00000000
00011000
00000000
00000000
00000000
00001000
00010000
00001000
00010000
00001000
00010000
,
00200000
00000000
00000000
12300000
00000000
00000000
23100000
00000000
,
00000000
31200000
00000000
00000000
00001000
00000000
00312000
00000000
,
00123000
00000000
00000000
00000000
00030000
00011000
00110000
20010000
,
00000000
00000000
00000000
00000000
30000000
01100000
11000000
01100000
,
20010000
00000000
00000000
30020100
00000000
00000000
00031020
00000000
,
00000000
00000231
00000000
00000000
00000312
00000000
00002103
00000000
,
00003110
00000011
00000000
00001001
00000000
00011000
00000000
00100000
,
00011000
00000000
00011000
00000000
00011000
00000000
00011000
00000000
00000000
00000000
00001000
00010000
00001000
00000000
00000000
00000000
,
10010000
00100000
10000000
00100000
01010000
10000000
00010000
10000000
,
01100000
00010000
00100000
00010000
11000000
00100000
00010000
01000000
,
10100000
11000000
00000000
10010000
00000000
00000000
00001000
00000000
,
00001100
00001010
00000000
00001100
00000000
00000110
00000110
00000110
,
00001001
00000100
00000001
00000100
00001010
00000001
00001000
00000001
,
00000110
00001000
00000100
00001000
00000011
00000100
00001000
00000001
,
00000110
00010010
00000000
00011000
00000000
01010000
00000000
00011000
,
00000000
00010000
00010000
00100000
01000000
10000000
00100000
00100000
,
01000000
00010000
00000000
00110000
00000000
00001000
00001000
00000100
,
00000010
00000101
00000000
00001010
00000000
00000000
00010000
00000000
,
00001000
00010000
00001000
00110000
00000000
00000000
00010000
00000000
,
00001000
00010000
00100000
01010000
00000000
00011000
00011000
00011000
,
00011000
01000000
10000000
00010000
11000000
00100000
10000000
00100000
,
01010000
10000000
00010000
10000000
01100000
00010000
00001000
00000100
,
00000010
00000000
00000010
00000000
00001000
00000000
00001000
00000000
00010000
00000000
00010000
00000000
,
01000000
00010000
00100000
01000000
10000000
00000000
10010000
01000000
,
10020000
00000000
00000000
20030000
00000000
00000000
30020000
00000000
,
00000000
00032000
00000000
00000000
00003200
00000000
00001301
00001001
,
00000000
00000000
00001000
00010000
01000000
00100000
10000000
01000000
00100000
00010000
00001000
00000100
,
00000010
00000100
00001000
00000100
00000010
00000100
00001000
00000100
00000010
00000100
00001000
00000100
00000010
00000100
00001000
00000100
,
00000020
00000000
00000000
00000000
,
00000000
00000000
00200030
00000000
00000000
00000000
00310000
01000000
,
00100000
10000000
00010000
00100000
02000000
00000000
13000000
01000000
,
00100000
00010000
00002000
00000000
00000000
00000000
00000000
00000000
00103000
00000000
00000000
00000000
00002000
00000000
00000000
00000000
,
00013000
01000000
00100000
10000000
01000000
00100000
00010000
01000000
00100000
10000000
00010000
10000000
00010000
10000000
00100000
01000000
,
00100000
01000000
00100000
01000000
00010000
00100000
00010000
00100000
00010000
00100000
01000000
10000000
01000000
10000000
01000000
10000000
,
00010000
01000000
00100000
10000000
01000000
00100000
00010000
00001000
00100000
01000000
00001000
10000000
00100000
01000000
00100000
01000000
,
00010000
00001000
00010000
00001000
00100000
01000000
00100000
01000000
00010000
00001000
00010000
00000000
00000000
00000000
00022000
00000000
,
00033000
00000000
00022000
00000000
00033000
00000000
00000100
00000010
00000100
00000010
00000100
00000010
00002000
00000000
00000000
00000000
,
00000000
00003210
00000000
00000000
00000321
00000000
00000000
00000132
,
00000000
00001000
00002013
00003201
,
00000000
00000000
00000300
00000110
00000101
00000210
00000000
00000000
,
00000000
00000300
00000000
01100000
01100000
01100000
10020000
00000000
,
00000000
21030000
00000000
00000000
30210000
00000000
00000000
12300000
,
00000000
00000000
13010000
00000000
01100000
00000000
11000000
11000000
,
00000000
01100000
00000000
00110000
00000000
00100000
00011000
00011000
,
00011000
00000000
00011000
00000000
00000000
00000000
00001000
00010000
00001000
00000000
00000000
00000000
10010000
00000000
00100000
00000000
,
10000000
00100000
01010000
10000000
00010000
10000000
01100000
00010000
,
00100000
00010000
11000000
00100000
00010000
01000000
10100000
10100000
,
00000000
10010000
00000000
00000000
00000001
00000000
00001010
00001010
,
00000000
00001100
00000000
00000110
00000110
00000110
00001001
00000100
,
00000001
00000100
00001010
00000001
00001000
00000001
00000110
00001000
,
00000100
00001000
00000011
00000100
00000001
00001000
00000110
00001100
,
00000000
00011000
00000000
01001000
00000000
00011000
00000000
00001000
,
00010000
00100000
01000000
10000000
00100000
00100000
01000000
00010000
,
10000000
00110000
00000000
00000000
00001000
00000000
00000001
00000010
,
00000100
00001010
00000000
00000000
00000100
00000000
00001000
00000010
,
00000001
00000110
00000000
00000000
00001000
00000000
00010000
00001000
,
01000000
00110000
00000000
00101000
01001000
00110000
01100000
00010000
,
00100000
00010000
11000000
00100000
00010000
10000000
01010000
00100000
,
10000000
00000000
00000000
00010000
00000000
00000000
01100000
00000000
00000000
10000000
00000000
00000000
01000000
00000000
00000000
00100000
00000000
00000000
00010000
00000000
00000000
00000000
00001000
00000000
,
00000000
00000000
00000100
00000000
00000000
00000000
00000010
00000000
00000000
00000000
00000001
00000000
00000000
00000000
00000100
00000000
00000000
00000000
00001000
00000000
00000000
00010000
00000000
00000000
,
01000000
10000000
00010000
10000000
00010000
00000000
00000000
00000000
10010000
00000000
01100000
00000000
20010000
00000000
00010000
00000000
,
00010000
30002000
00100000
00103000
00020000
00000010
00000010
00030100
,
00000000
00001000
00000000
00000000
00100000
00000000
00000000
00010000
00000000
00000000
00001000
00000000
00200000
00000000
00000000
00000000
,
02300000
23000000
30020000
00032000
,
00003200
00000320
00000032
00022003
,
00033000
00000000
00000000
00000000
00000000
00000000
00000000
00000000
00000000
10000000
00000000
00000000
00000000
00000000
00000000
00010000
00000000
00000000
10000000
00000000
01000000
00000000
10000000
00000000
,
01000000
00000000
00000000
00001000
01000000
00100000
00010000
00000000
00000000
00010000
00000100
00000010
,
00001000
00000000
00000000
00001000
01000000
00100000
00010000
00000000
00000000
00010000
00000100
00000010
,
00001000
00000000
00000000
00010000
00000000
00000000
01000000
00000000
00100000
10000000
00000000
00000000
,
00010000
00000000
00000000
00001000
00000010
00000001
00000010
00000000
00000100
00001000
00000000
00000000
,
00000010
00000000
00000000
00000100
00000001
00001000
00000100
00000000
00010000
00000000
10000000
00000000
,
01000000
00000000
00100000
00000000
00010000
00000000
00001000
00000000
00000100
00000000
00000010
00000000
00000000
00000000
00000010
00000100
,
00010000
00100000
10000000
00000000
00000000
00000000
00000000
00000000
00000000
00000000
00000000
00000000
00000000
00000000
00000000
00000000
;

//---------------dance-double - ----------------
#NOTES:
     dance-double:
     :
     Challenge:
     11:
     1.016508,1.159627,1.057332,0.507233,0.800143,996.000000,848.000000,148.000000,71.000000,0.000000,8.000000,1.016508,1.159627,1.057332,0.507233,0.800143,996.000000,848.000000,148.000000,71.000000,0.000000,8.000000:
10000000
01000000
00100000
00010000
00000000
00001000
00000000
00000100
00000000
00000010
00000000
00000001
,
00000000
00000010
00000000
00000100
00000000
00001000
00000000
00010000
00000000
01000000
00000000
00100000
,
20000000
01000000
30100000
00020000
00100000
01030000
20000000
00100000
31000000
00020000
00001000
00030100
,
00000002
00001000
00000013
00000200
00000001
00000310
00000002
00001000
00000013
00002000
00000000
00003000
,
00000220
00000000
00000330
00000000
00000000
00001000
00000000
00010000
,
00001000
00001000
00001000
00001000
00000000
00000000
00000000
00000000
00000000
00010000
00010000
00010000
,
00011000
00000000
00000000
00100000
00100000
00100000
01000000
00000000
00000000
00010000
00010000
00010000
,
00001000
00010000
01000000
00001000
00001000
00001000
00010000
00000000
00000000
00011000
00000000
00000000
,
00101000
00000000
00100000
00002000
00000000
00000000
00013000
00000000
00000000
00001000
00010000
01000000
,
00100000
00000000
00100000
00000000
00100000
00000000
00100000
00000000
00100000
00000000
00100000
00000000
00001000
00000000
00001000
00000000
00001000
00000000
00010000
00000000
00000000
00100000
00000000
00000000
,
00001000
00000000
01000000
00000000
00010000
00001000
00010000
00001000
00010000
00000000
00100000
00000000
00010000
00000000
00001000
00010000
,
00001000
00010000
00000100
00000000
00001000
00100000
00001000
00100000
00001000
00000000
00010000
00000000
01000000
00000000
00100000
00000000
,
00010000
00000000
00010000
00000000
00010000
10000000
00010000
10000000
00010000
00000000
00010000
00000000
00010000
00000000
00010000
00000000
,
00101000
00101000
01001000
00101000
00010000
00110000
01010000
00100000
,
01000000
00000000
00010000
00000000
10000000
00100000
10000000
00100000
10000000
00000000
01000000
00000000
00100000
00000000
00010000
00001000
,
00010000
00001000
00000100
00000000
00000010
00000100
00000010
00000100
00000001
00000000
00001000
00000000
00000001
00000000
00000010
00000000
,
00001100
00000000
00001010
00000000
00000100
00000001
00000100
00000001
00000100
00000000
00000001
00000000
00001000
00000000
00000010
00000000
,
00010100
00010100
00010010
00010100
00000010
00001100
00011000
00100000
,
01000000
00000000
00100000
00000000
10000000
01000000
10000000
01000000
10000000
00000000
00010000
00000000
00001000
00000000
00000100
00000001
,
00000100
00000001
00000010
00000000
00000100
00001000
00000100
00001000
00000100
00000000
00000010
00000000
00000001
00000000
00001000
00000000
,
00011000
00000000
00011000
00000000
00100000
00010000
00100000
00010000
00100000
00000000
00010000
00000000
01000000
00000000
00100000
00000000
,
11000000
11000000
10100000
11000000
00100000
10010000
01100000
00100000
,
10000000
00000000
01000000
00000000
00010000
01000000
00010000
01000000
00010000
00000000
00001000
00000000
00000001
00000000
00000100
00000010
,
00000100
00000010
00001000
00000000
00000001
00000010
00000001
00000010
00000001
00000000
00000100
00000000
00000010
00000000
00000100
00000000
,
00001001
00000000
00001001
00000100
00010000
00000100
00001000
00010000
00001000
00010000
01000000
00100000
01000000
00100000
00010000
00000000
,
00000000
00000000
00011000
00000000
00000000
00000000
00011000
00000000
00000000
00000000
00001000
00010000
00001000
00010000
00001000
00010000
,
00000200
00001000
00001000
00000320
00000001
00000001
00000032
00001000
,
00001000
00000203
00000010
00000010
00000002
00000013
00000302
00000013
,
00002000
00010000
00010000
00010000
00013000
00101000
00110000
00020000
,
01000000
01000000
01000000
01000000
01030000
01100000
11000000
01100000
,
20000000
00010000
00010000
30020000
00100000
00100000
02030000
00010000
,
00010000
03200000
01000000
01000000
20300000
01000000
30020000
00001000
,
00131000
00000000
00001000
01000000
00001000
00100000
00010000
00100000
00001000
01000000
00100000
00010000
00100000
01000000
00001000
00000000
,
00011000
00000000
00000000
00011000
00000000
00000000
00011000
00000000
00000000
00011000
00000000
00000000
00000000
00000000
00000000
00001000
00010000
00001000
00010000
00000000
00000000
00000000
00000000
00000000
,
00011000
00100000
10000000
00100000
01010000
10000000
00010000
10000000
,
01100000
00010000
00100000
00010000
11000000
00100000
00010000
01000000
,
10100000
11000000
00000000
10010000
00000000
00000000
00000010
00000000
,
00001100
00001010
00000000
00001100
00000000
00000110
00000110
00000110
,
00001001
00000100
00000001
00000100
00001010
00000001
00001000
00000001
,
00000110
00001000
00000100
00001000
00000011
00000100
00001000
00000001
,
00000110
00010100
00000000
00011000
00000000
01001000
00000000
00011000
,
00000000
00000000
01000000
00000000
00010000
00100000
01000000
10000000
01000000
00100000
00010000
00100000
00001000
00000000
00000001
00000000
,
00000100
00000000
00000001
00000000
00001000
00000010
00001000
00000010
00001000
00000000
00000001
00000000
00000100
00000000
00000001
00000010
,
00000001
00000010
00000100
00000000
00001000
00000100
00001000
00000100
00001000
00000000
00010000
00000000
01000000
00000000
10000000
00000000
,
01100000
00000000
01100000
00000000
00010000
01000000
00010000
01000000
00010000
00000000
00001000
00000000
00000100
00000000
00000001
00000010
,
00000001
00000010
00000100
00000000
00000001
00000100
00000001
00000100
00000010
00000000
00001001
00000000
00001001
00000000
00001001
00000000
,
00000110
00001000
00100000
00010000
11000000
00100000
10000000
00100000
,
01010000
10000000
00010000
10000000
01100000
00010000
00100000
01000000
,
00110000
00000000
00011000
00000000
00001100
00000000
00011000
00000000
01010000
00000000
00110000
00000000
,
00011000
00000000
00010000
00001000
00010000
00001000
00010000
00001000
00010000
00000000
00000000
00000000
00011000
00000000
00110000
00000000
,
10020000
00000000
00000000
20030000
00000000
00000000
30020000
00000000
,
00000000
00032000
00000010
00000000
00003002
00000003
00011000
00011000
,
00000000
00000000
00001000
00100000
00010000
01000000
00001000
00010000
00100000
01000000
10000000
01000000
,
00200000
00302000
00003200
00000320
,
00020030
00000000
00000000
00000000
,
00000000
00000000
00230000
00000000
00000000
00000000
10310000
01000000
,
00100000
00000000
11000000
00000000
00010000
00000000
00100000
00000000
00102000
00000000
00000000
00000000
00013000
00000000
00001000
00100000
,
00010000
01000000
00002000
00000000
00000000
00000000
00003000
00000000
00010000
00000000
00000000
00000000
00120000
00000000
00000000
00000000
,
00031000
01000000
00100000
10000000
01000000
10000000
00100000
01000000
00010000
00001000
00000100
00000010
00000001
00001000
00010000
01000000
,
00010000
01000000
10000000
00100000
01000000
00010000
00001000
01000000
00100000
00010000
00100000
01000000
10000000
00100000
00010000
00001000
,
00000100
00000001
00001000
00010000
10000000
00100000
01000000
00010000
01000000
00100000
10000000
00010000
00100000
01000000
00100000
01000000
,
10000000
00010000
10000000
00010000
00100000
01000000
00100000
01000000
10000000
00010000
10000000
00000000
00000000
00000000
00022000
00000000
,
00033000
00000000
00022000
00000000
00033000
00000000
00001000
00010000
00001000
00010000
00001000
00010000
00000200
00000000
00001000
00000000
,
00001000
00000320
00000001
00000001
00000032
00001000
00001000
00000203
,
00000010
00000010
00000002
00000013
00000302
00000013
00002000
00010000
,
00010000
00010000
00013000
00101000
00110000
00020000
01000000
01000000
,
01000000
01000000
01030000
01100000
11000000
01100000
20000000
00010000
,
00010000
30020000
00100000
00100000
02030000
00010000
00010000
03200000
,
01000000
00000000
01000000
00000000
20300000
00000000
01000000
00000000
30020000
00000000
00001000
00000000
00131000
00000000
00001000
01000000
,
00001000
00100000
00010000
00100000
00001000
01000000
00100000
00010000
00100000
01000000
00001000
00000000
00011000
00000000
00011000
00000000
,
00011000
00000000
00000000
00011000
00000000
00000000
00000000
00000000
00000000
00001000
00010000
00001000
00010000
00000000
00000000
00000000
00000000
00000000
10010000
00000000
00000000
01000000
00000000
00000000
,
00010000
01000000
10100000
00010000
10000000
00010000
01100000
10000000
,
01000000
10000000
00110000
01000000
10000000
00100000
01010000
01010000
,
00000000
10010000
00000000
00000000
00001000
00000000
00000101
00000101
,
00000000
00000011
00000000
00000110
00000110
00000110
00001001
00000010
,
00001000
00000010
00000101
00001000
00000001
00001000
00000110
00000001
,
00000010
00000001
00001100
00000010
00001000
00000001
00000110
00000110
,
00000000
00001100
00000000
00011000
00000000
01010000
00000000
00100000
,
10000000
01000000
00100000
00010000
00100000
01000000
10000000
01000000
00100000
00000000
00010000
00000000
00001000
00000000
00010000
00000000
,
10000000
00100000
10000000
00100000
10000000
00000000
00010000
00000000
01000000
00000000
00001000
00100000
00001000
00100000
00010000
00000000
,
00100000
01000000
00100000
01000000
00100000
00000000
01000000
00000000
00100000
00000000
00010000
00000000
00011000
00000000
00011000
00000000
,
00000001
00000100
00000001
00000100
00000001
00000000
00000100
00000000
00000010
00000000
00001000
00000100
00001000
00000100
00000010
00000000
,
00001000
00000010
00001000
00000010
00000100
00000000
00011000
00000000
00011000
00000000
00011000
00000000
01010000
00000000
10000000
00000000
,
00010000
10000000
00110000
01000000
00010000
01000000
10100000
00010000
,
10000000
00000000
00000000
00010000
00000000
00000000
01100000
00000000
00000000
10000000
00000000
00000000
01000000
00000000
00000000
00100000
00000000
00000000
00110000
00000000
00000000
00000000
00011000
00000000
,
00000000
00000000
00000000
00000000
00001100
00000000
00000000
00000000
00000000
00000000
00000000
00000000
00011000
00000000
00000000
00000000
00000000
00000000
00000000
00000000
01010000
00000000
00000000
00000000
00000000
00000000
00000000
00000000
00001010
00000000
00000000
00000000
00000000
00000000
00000000
00000000
00011000
00000000
00000000
00000000
00000000
00000000
00001000
00000000
00000000
00010000
00000000
00000000
,
00001000
00010000
00001000
00010000
00001000
00000000
00000000
00000000
00011000
00000000
00011000
00000000
00021000
00000000
00001000
00000000
,
00001000
00132000
00100000
00100000
00213000
00001000
00001000
00311000
,
00000000
00000000
00000000
00001000
00000000
00000000
00000000
00000000
00000000
00000000
00000000
00000000
00010000
00000000
00000000
00000000
00000000
00000000
00000000
00000000
00000000
00001000
00000000
00000000
00000000
00000000
00000000
00000000
00000000
00000000
00010000
00000000
00000000
00000000
00000000
00000000
00001000
00000000
00000000
00000000
00100000
00000000
00000000
00000000
00010000
00000000
00000000
00000000
,
00200000
01000000
10300000
02000000
00100000
03010000
00002000
00100000
00013000
00200000
01000000
00310000
,
02000000
00100000
03001000
00020000
00100000
01030000
00200000
00000000
00300000
00022000
00000000
00000000
,
00033000
00000000
00000000
00000000
00000000
00000000
00000000
00000000
00000000
00010000
00000000
00000000
00000000
00000000
00000000
00001000
00000000
00000000
00010000
00000000
00010000
00000000
00010000
00000000
,
00001000
00000000
00000000
00100000
00100000
00100000
01000000
00000000
00000000
01000000
01000000
01000000
,
10000000
00000000
00000000
00001000
00001000
00001000
00010000
00000100
00010000
00000010
00000010
00000010
,
00010000
00000000
00000000
00110000
00000000
00000000
00001000
00000000
00010000
00011000
00000000
00000000
,
00000100
00000000
00000000
00001000
00010000
00100000
00010000
00000000
00001000
00011000
00000000
00000000
,
00010000
00000000
00000000
00001000
00010000
00100000
00001000
00000000
00010000
00000000
00001000
00000000
,
00010000
00000000
01000000
00000000
10000000
00000000
00010000
00000000
00001000
00000000
00000001
00000000
00000000
00000000
00000100
00100000
,
00000100
00100000
20000002
00000000
00000000
00000000
30000003
00000000
00000000
00000000
00000000
00000000
00000000
00000000
00000000
00000000
;
