#TITLE:We Go!;
#SUBTITLE:One Piece Opening 15;
#ARTIST:Hiroshi Kitadani;
#TITLETRANSLIT:;
#SUBTITLETRANSLIT:;
#ARTISTTRANSLIT:;
#GENRE:;
#CREDIT:Magna Trick;
#BANNER:WGBN.png;
#BACKGROUND:WGB.png;
#LYRICSPATH:;
#CDTITLE:Magna Trick title!.png;
#MUSIC:We Go!.mp3;
#OFFSET:0.060000;
#SAMPLESTART:125.000000;
#SAMPLELENGTH:11.000000;
#SELECTABLE:YES;
#BPMS:0.000000=176.000000
,225.000000=176.100006
,328.000000=88.000000
,343.000000=132.000000
,347.500000=176.000000
;
#STOPS:
;
#BGCHANGES:0.063=We Go!.avi=1.000=0=0=1=====,
420.000=WGB.png=1.000=0=0=1=====,
99999=-nosongbg-=1.000=0=0=0 // don't automatically add -songbackground-
;
#KEYSOUNDS:;
#ATTACKS:;

//---------------dance-single - ----------------
#NOTES:
     dance-single:
     :
     Hard:
     13:
     0.613043,1.016097,0.306998,0.473845,0.276966,643.000000,597.000000,46.000000,71.000000,0.000000,0.000000,0.613043,1.016097,0.306998,0.473845,0.276966,643.000000,597.000000,46.000000,71.000000,0.000000,0.000000:
0000
0000
0000
0000
0001
1000
0100
1000
,
0001
0000
0100
0000
0010
0000
1000
0001
0100
0000
0001
0000
1000
0000
0010
0000
,
2000
0000
0000
0000
0000
0000
3000
0000
0001
0000
0000
0010
0000
0000
0100
0000
,
1000
0000
0001
0010
0000
0100
2000
0000
,
0010
0000
0000
0000
,
3020
0000
0000
0000
0000
0000
0000
0000
0000
0000
0000
0000
0000
0000
0000
0030
,
0200
0000
0000
0000
0000
0300
0000
0000
0001
0000
1000
0000
0100
0000
0010
0000
,
0000
0000
0010
0100
0000
1000
0002
0000
,
0100
0000
0000
0000
0000
0000
0000
0000
0000
0000
0000
0000
0000
0000
0000
0003
,
0200
0000
0000
0300
,
1001
0000
0000
0000
0001
1000
0100
0100
,
0100
0010
0001
0010
0001
1000
0100
0010
,
0001
0000
0000
0000
0100
0010
0000
0200
,
0000
0000
0000
0000
0000
0300
0002
0000
0000
0000
0000
0000
0000
0000
0000
0000
,
0000
0003
0000
0000
1000
0000
0000
0000
0100
0000
1000
0000
0001
0000
0001
0000
,
0001
0010
0100
0010
0100
1000
0001
0000
,
0000
0000
0100
0010
0100
0010
0000
0020
,
0000
0000
0000
2030
0000
0000
0000
0000
,
3002
0000
0000
0000
,
0013
0100
0010
0100
0010
0100
0010
0100
0010
0100
0010
0100
0010
0100
1000
0001
,
0100
0000
0000
0000
1001
0000
0000
0001
0100
0000
0100
0000
0010
0000
1000
0000
,
0001
0000
0000
0001
1000
0000
0000
1000
0001
0000
0001
0000
1000
0000
0001
0000
,
0000
0100
0010
0100
0001
1000
0100
0010
,
0001
0000
0010
0000
0100
1000
0000
0002
,
0000
0000
0000
0000
0000
0000
0000
0003
0200
0000
0000
0000
0000
0000
0300
0000
,
1010
1010
0101
0101
,
2002
3003
0220
0330
,
1001
0000
0100
0001
0100
0010
1000
0010
,
1000
0010
1000
0001
0100
0001
0100
0010
,
1000
0100
0010
0001
0010
0000
0100
0000
,
1000
0000
0001
0000
0100
0010
0000
0010
,
0000
1000
0001
0100
0010
1000
0001
0100
,
0010
0000
1000
0000
0001
0000
0100
0000
0010
0000
1000
0000
0001
0000
0100
0010
,
1000
0010
1000
1000
0001
0000
1000
0000
,
0001
0000
0010
0000
0100
0010
0000
0002
,
0000
0000
0003
0000
0010
0000
0000
0000
0100
0000
1000
0001
1000
0000
0001
1000
,
0001
0000
1001
1000
0000
0000
0001
0010
,
1000
0000
0010
0002
0000
0003
0001
0100
,
1000
1000
0100
0100
,
0002
0000
0000
0000
0000
0003
0010
0001
0010
0000
0000
0000
0100
0000
0000
0000
,
0100
1000
0001
0100
0010
0000
0010
0100
,
0000
0000
1000
0100
0001
0000
0001
0000
,
0110
0000
1000
0010
0001
0000
0001
0100
,
1000
0000
0000
0000
1000
0000
0001
0000
0010
0000
0010
1000
0100
0000
0010
0001
,
0100
0000
0001
0000
0010
0100
1000
0001
,
1000
0000
0010
0000
0000
0100
0010
1000
,
0002
0000
0023
0000
0030
0100
0010
0001
,
2000
0000
0000
0000
3020
0000
0000
0000
0030
0000
0010
0100
0010
0000
0100
0010
,
0100
0000
0001
0000
0001
1000
0000
0100
,
0000
0010
0001
0000
0010
0000
0100
0000
,
1000
0000
0001
0100
0000
0010
1000
0001
,
0100
0000
0000
0000
0001
0000
0000
0000
1000
0000
0100
1000
0100
0000
0010
0001
,
0010
0100
1000
0010
0100
1000
0100
0010
,
1000
0000
0000
0000
0001
0000
0100
0000
0010
0000
0000
1000
0000
0000
0100
0000
,
0010
0000
0001
0010
0001
0000
0010
0100
0010
0000
0100
1000
0100
0000
1000
0100
,
1000
0100
1000
0100
1000
0100
1000
0100
1000
0100
1000
0100
1000
0100
0010
0001
,
0100
0000
0000
0000
1001
0000
0000
0001
1000
0000
0001
0000
1000
0000
0100
0000
,
0010
0000
0000
0010
0001
0000
0000
0001
0100
0000
0010
0000
1000
0000
0001
0000
,
0100
0100
0010
0010
1000
1000
0100
0001
,
1000
0000
1100
0000
0011
0001
0010
0100
,
1000
0000
0001
0000
1000
0001
1000
0010
0200
0000
0000
0320
0000
0000
1030
0001
,
0200
0302
0023
0230
,
2300
0000
0000
0000
3000
0001
0100
0010
,
2000
0000
0000
0000
3000
0000
1000
0010
1000
0000
0010
0100
0010
0000
0100
0001
,
0100
0000
0000
0010
1000
0000
0000
1000
0001
0000
0001
0000
0010
0000
0100
0010
,
0100
0000
0000
0010
0001
0000
0000
0001
0100
0000
0100
0000
0010
0000
1000
0000
,
0001
0001
1000
1000
0001
0001
0010
0010
,
0100
0000
1000
0000
0001
0100
1000
0100
,
0002
0000
0000
0000
0000
0000
0000
0003
0020
0000
0000
0000
0000
0000
0030
0000
,
0110
0110
1001
1001
,
0220
0330
2020
3030
,
0102
0000
1003
0001
0000
0001
1000
0000
,
0100
0000
0010
0000
0000
0000
0000
0010
0001
0000
0010
0000
0100
0000
1000
0000
,
0001
0000
0000
0000
0100
0000
0020
0000
0000
0000
0000
0030
1000
0000
0001
0000
,
1000
0000
0000
0000
0001
0000
0020
0000
0000
0000
0000
0030
0100
0000
1000
0000
,
1001
0000
0100
0010
0000
0010
1000
0001
,
1001
0000
0010
1000
0000
0100
0010
0002
,
0000
0013
0100
1000
0001
0100
0010
1000
,
0000
1000
0010
0100
0001
1000
0010
0200
,
0000
0300
0001
0010
0200
0000
2300
0000
,
3002
0203
0320
2030
,
3002
0000
1000
1000
1000
1000
1000
1000
,
0200
0000
0300
0000
0000
0000
0003
0000
1001
0000
0001
0000
1000
0001
0000
0001
,
0000
0000
0010
0000
0100
1000
0000
0001
0000
0100
0010
1000
0001
0100
0010
2000
,
0000
0000
0000
0000
3002
0000
0000
0000
0023
0000
0000
0000
0230
0000
0000
0000
2300
0000
0000
0000
3000
0000
0000
0000
0000
0000
0000
0000
0000
0000
1000
0100
,
0001
0000
0000
0000
0100
0000
0000
0000
0010
0000
0000
0000
1000
0000
0000
0000
0020
0000
0000
0000
0030
0000
0000
0000
0110
0000
0000
0010
0000
0000
0001
0000
,
0000
0000
0100
0000
0000
0000
0000
0000
0010
0000
0000
1000
0000
0000
0010
0000
0000
1000
0000
0000
0010
0000
0000
1000
0000
0000
0010
0000
0000
1000
0000
0000
0010
0000
0000
1000
0000
0000
0010
0000
0000
1000
0000
0000
0010
0000
0000
1000
0000
0000
0001
0000
0000
0100
0000
0000
0010
0000
0000
0000
0000
0000
0000
0000
,
0000
0000
1000
0000
0000
0001
1000
0000
1000
0000
0001
0000
0010
0000
0100
0000
,
0000
0100
0010
0000
0000
0010
0001
0000
0001
0000
0100
0000
0010
0000
1000
0000
,
0001
0100
0010
1000
0001
1000
0100
0010
,
0000
0011
0000
1100
0001
1000
0010
0200
,
0000
0000
0000
0320
0000
0000
0030
1010
,
0000
0000
0000
0101
0000
0000
0000
1100
,
0000
0000
0000
0011
0000
0000
0000
0002
,
0000
2003
0000
3020
0000
0130
0000
1010
,
0000
0000
0000
0101
0000
0000
0000
1100
,
0000
0000
0000
0011
0000
0000
0000
0002
,
0000
0203
0000
0320
0000
1030
0000
0101
,
0000
1100
0000
1010
0000
0011
0000
2002
,
0000
0000
0000
0000
0000
3003
0000
0220
,
0000
0000
0000
0000
0000
0330
0000
1001
,
0001
1000
0010
0000
0100
0001
0000
1000
,
0100
0010
0000
0110
0000
0110
0000
1001
,
1000
0000
0010
0000
0100
0000
0000
0000
0100
0000
0001
0000
1000
0001
1000
0000
,
0100
0010
0000
2002
0000
0000
0000
0000
,
3003
0000
0000
0000
;

//---------------dance-single - ----------------
#NOTES:
     dance-single:
     :
     Challenge:
     16:
     0.812306,1.121211,0.527236,0.373737,0.570616,852.000000,773.000000,79.000000,56.000000,0.000000,0.000000,0.812306,1.121211,0.527236,0.373737,0.570616,852.000000,773.000000,79.000000,56.000000,0.000000,0.000000:
// measure 0
0000
0000
0000
0000
1000
0001
0010
0001
,  // measure 1
1000
0000
0010
0000
0100
0000
0001
1000
0010
0000
1000
0000
0001
0000
0100
0000
,  // measure 2
0002
0000
0000
0000
0000
0000
0003
0000
1000
0000
0000
0100
0000
0000
0010
0000
,  // measure 3
0011
0000
1000
0100
0000
0010
0002
0000
,  // measure 4
0100
0000
0000
0000
,  // measure 5
0203
0000
0000
0000
0000
0000
0000
0000
0000
0000
0000
0000
0000
0000
0000
0300
,  // measure 6
0020
0000
0000
0000
0000
0030
0000
0000
1000
0000
0001
0000
0010
0000
0100
0000
,  // measure 7
0000
0000
0100
0010
0000
0001
2000
0000
,  // measure 8
0010
0000
0000
0000
0000
0000
0000
0000
0000
0000
0000
0000
0000
0000
0000
3000
,  // measure 9
0020
0000
0100
0100
0100
0100
0130
0100
,  // measure 10
1001
0000
0000
0001
1000
0000
1000
0000
0001
0000
0001
0000
0010
0000
0010
0000
,  // measure 11
0010
0000
0000
0100
1000
0000
0100
0000
1000
0000
0001
0000
0010
0000
0100
0000
,  // measure 12
1000
0000
0010
0000
0010
0100
0000
0020
,  // measure 13
0000
0000
0000
0000
0000
0030
2000
0000
0000
0000
0000
0000
0000
0000
0000
0000
,  // measure 14
0000
3000
0000
0000
0001
0000
0000
0000
0010
0000
0001
0000
1000
0000
1000
0000
,  // measure 15
1000
0000
0100
0010
0100
0000
0010
0000
0010
0000
0001
0000
1000
0000
0000
0000
,  // measure 16
0000
0000
0010
0100
0010
0100
0000
0200
,  // measure 17
0000
0000
0000
0000
0000
0000
0302
0000
0000
0000
0000
0000
1003
0100
1000
0000
,  // measure 18
0002
0000
0000
0000
,  // measure 19
0103
0010
0100
0010
0100
0010
0100
0010
0100
0010
0100
0010
0100
0010
1000
0001
,  // measure 20
0100
0000
0000
0000
1001
0000
0000
1000
0010
0000
0010
0100
0001
0000
1000
0000
,  // measure 21
0100
0000
0000
0100
0010
0000
0000
0010
0001
0000
0001
1000
0100
0000
1000
0000
,  // measure 22
0100
0100
0010
0010
0001
0001
0010
0100
,  // measure 23
1000
0000
0110
0000
0011
0011
0000
2100
,  // measure 24
0000
0000
0000
0000
0000
0000
0000
3000
0010
0000
1000
0100
1000
0000
0001
0100
,  // measure 25
0101
0101
1010
1010
,  // measure 26
2002
0000
0000
0000
3003
0000
0000
0000
0110
0000
1000
0010
0100
0001
0010
0100
,  // measure 27
1001
0000
0010
1000
0010
0100
0001
0001
,  // measure 28
0001
0000
0100
0000
0001
0000
0001
0000
1000
0000
0100
0010
0001
0000
0001
0010
,  // measure 29
0100
0010
0100
1000
1001
0000
0010
0100
,  // measure 30
1001
0000
1000
0000
1001
0001
0000
0100
,  // measure 31
0000
0000
0001
1000
0010
0100
0001
1000
0010
0100
0001
1000
0010
0100
0001
1000
,  // measure 32
0010
0100
0001
1000
0010
0100
0001
1000
0010
0100
0001
1000
0010
0100
0001
0010
,  // measure 33
0100
0000
0100
0000
1000
0000
1000
0000
0001
0000
0000
0000
0001
0000
0000
0001
,  // measure 34
1000
0000
0000
1000
0100
0000
0000
0100
0010
0000
0100
0000
0100
0000
2000
0000
,  // measure 35
0100
0000
3000
0000
0001
0000
0000
0000
1000
0000
0010
1000
0010
0000
0100
0001
,  // measure 36
0100
1000
1001
0001
0000
0000
1000
0100
,  // measure 37
0001
0000
0100
2000
0000
3000
1000
0100
,  // measure 38
0001
0001
0010
0010
,  // measure 39
2000
0000
0000
0000
0000
3000
0010
0001
0100
0000
0000
0000
0010
0000
0000
0000
,  // measure 40
0010
1000
1000
0010
0100
1000
0100
0010
,  // measure 41
1000
0000
0001
0001
1000
0000
1000
0000
,  // measure 42
0110
0000
0001
0100
1100
0000
1000
0100
,  // measure 43
0101
0000
0000
0000
0001
0000
1000
0000
0110
0000
0100
0001
0010
0000
0100
1000
,  // measure 44
0010
0000
0000
0000
1000
0100
1000
0100
0010
0001
0010
0001
0100
0000
0010
0000
,  // measure 45
1000
0000
0001
0000
0100
0000
0010
1000
0010
0000
0100
0000
0001
0000
0001
0000
,  // measure 46
2000
0000
0000
0000
3100
0010
0001
0010
0100
1000
0100
0010
0001
0000
0100
0000
,  // measure 47
0002
0000
0000
0000
0103
0000
0010
0100
0010
0000
0100
0010
0100
0010
1000
0001
,  // measure 48
0110
1000
0001
0010
1100
0010
1000
0100
,  // measure 49
0011
0100
1000
0001
1010
0100
0001
1000
,  // measure 50
0101
0010
1000
0001
0110
1000
0001
0100
,  // measure 51
1001
0000
0010
0000
1000
0000
0001
0000
1001
0000
0010
1000
0010
0000
0100
1000
,  // measure 52
0100
0000
0010
0000
1000
0000
0100
0010
0001
0000
0010
0000
0100
0000
0100
1000
,  // measure 53
0001
0000
0000
0000
1000
0010
0100
0010
0100
0000
0000
0001
0000
0000
0010
0000
,  // measure 54
0100
0000
1000
0100
1000
0100
0010
0001
0020
0031
0100
0010
0100
0010
1000
0001
,  // measure 55
1000
0001
1000
0001
1000
0001
1000
0001
1000
0001
1000
0001
1000
0010
0100
0001
,  // measure 56
0010
0000
0000
0000
1001
0000
0000
1000
0001
0000
1000
0001
0010
0000
0100
1000
,  // measure 57
0100
0000
0000
0100
1000
0000
0000
1000
0010
0000
0100
0000
0001
0000
1000
0010
,  // measure 58
0100
0000
0010
0000
0100
0000
0100
0000
0001
0000
0001
0000
0010
0000
1000
0010
,  // measure 59
0001
0000
0011
0000
1100
1000
0100
0010
,  // measure 60
0001
0000
1000
0000
0001
1000
0001
0100
0020
0000
0000
0230
0000
0000
0301
1000
,  // measure 61
0020
0000
0000
0000
2030
0000
0000
0000
3200
0000
0000
0000
0310
0000
0001
1000
,  // measure 62
0002
0100
0100
0010
0013
1000
0010
0100
,  // measure 63
0001
0000
1000
0001
1000
0000
0001
0100
0001
0000
1000
0100
1000
0000
0010
0100
,  // measure 64
0110
0000
0000
0100
0001
0000
0000
0001
1000
0000
1000
0100
0010
0000
0010
0100
,  // measure 65
0010
0000
0000
0100
1000
0000
0000
1000
0010
0000
0010
0100
0001
0000
0001
0010
,  // measure 66
1000
0000
1000
0010
0001
0000
0001
0010
1000
0000
1000
0010
0001
0000
0001
0100
,  // measure 67
0010
0000
1000
0100
1000
0010
0001
0010
,  // measure 68
2000
0000
0000
0000
0100
0000
0000
3000
0100
0000
0010
0100
0010
0000
0100
0010
,  // measure 69
0110
0110
1001
1001
,  // measure 70
0220
0000
0000
0000
0330
0000
0000
0000
0110
0000
0001
0100
0010
1000
0100
0010
,  // measure 71
1001
0000
0011
1010
0000
1100
0101
0000
,  // measure 72
0110
0000
1001
0000
0000
0000
0000
0100
1000
0000
0100
0000
0100
0000
0100
0000
,  // measure 73
0010
0000
0000
0000
0010
0000
0200
0000
0000
0000
0000
0300
1000
0000
0001
1000
,  // measure 74
0001
0000
0000
0000
1000
0000
0200
0000
0000
0000
0000
0300
0010
0000
0001
0100
,  // measure 75
1001
0000
0000
0000
0010
0000
1000
0100
1001
0000
0000
0000
1000
0000
0010
0100
,  // measure 76
1001
0000
0100
0001
0000
0010
0100
2000
,  // measure 77
0000
3100
0010
0001
1000
0010
0100
0001
,  // measure 78
0000
0001
0100
0010
1000
0001
0100
0020
,  // measure 79
0000
0030
1000
0100
0020
0000
0032
0000
,  // measure 80
2003
3020
0230
0302
,  // measure 81
2003
0000
0001
0001
0001
0001
0001
0001
,  // measure 82
0020
0000
0030
0000
0000
0000
3000
0000
1001
0000
1000
0001
0001
1000
0000
1000
,  // measure 83
0100
1000
0100
0010
0001
0100
0000
0010
0000
0010
0100
0001
1000
0010
0100
0002
,  // measure 84
0000
0000
0000
0000
2003
0000
0000
0000
3200
0000
0000
0000
0320
0000
0000
0000
0032
0000
0000
0000
0003
0000
0000
0000
0000
0000
0000
0000
0000
0000
0001
0010
,  // measure 85
1000
0000
0000
0000
0010
0000
0000
0000
0100
0000
0000
0000
0001
0000
0000
0000
0200
0000
0000
0000
0300
0000
0000
0000
0110
0000
0000
0100
0000
0000
1000
0000
,  // measure 86
0000
0000
0010
0000
0000
0000
0000
0000
0100
0000
0000
0001
0000
0000
0100
0000
0000
0001
0000
0000
0100
0000
0000
0001
0000
0000
0100
0000
0000
0001
0000
0000
0100
0000
0000
0001
0000
0000
0100
0000
0000
0001
0000
0000
0100
0000
0000
0001
0000
0000
1000
0000
0000
0010
0000
0000
1001
0000
0000
0000
0000
0000
0000
0000
,  // measure 87
0000
0000
0001
0000
0000
1000
0100
0000
0010
0001
0100
0000
0100
0000
0010
0000
,  // measure 88
0000
0010
0100
0000
0000
0100
1000
0000
1000
0100
0001
0000
0100
0000
0011
0000
,  // measure 89
1000
0010
0100
1010
0100
0001
0010
1001
,  // measure 90
0000
1100
0000
0011
0001
0001
0100
0020
,  // measure 91
0000
0000
0000
0000
0000
0000
0130
0000
0001
0100
0001
0000
1000
0010
0101
0000
,  // measure 92
0000
0001
0100
1010
0000
1000
0100
0011
,  // measure 93
0000
0001
0010
1100
0000
0000
0000
2000
,  // measure 94
0000
0000
3001
0000
0100
0010
0100
0010
1000
0001
0100
0010
1000
0000
0101
0000
,  // measure 95
0000
0001
0100
1010
0000
1000
0100
0011
,  // measure 96
0000
0001
0010
1100
0000
0000
0000
2000
,  // measure 97
0000
0000
3010
0000
0100
0001
0100
0000
0010
1000
0010
0000
1000
0000
1010
0000
,  // measure 98
0010
0011
0001
0101
0100
1100
1000
2002
,  // measure 99
0000
0000
0000
0000
0000
3003
0000
0220
,  // measure 100
0000
0000
0000
0000
0330
0000
0010
0100
0010
0100
0010
0100
0010
0100
1001
0000
,  // measure 101
1000
0001
0101
0000
1000
1100
0000
0001
,  // measure 102
0010
0100
0000
0110
0010
0110
0000
1001
,  // measure 103
0001
0100
0010
0000
0010
0000
0000
0000
0010
0000
1000
0000
0001
1000
0001
0000
,  // measure 104
0010
0100
0000
2002
0000
0000
0000
0000
,  // measure 105
3003
0000
0000
0000
;

//---------------dance-single - ----------------
#NOTES:
     dance-single:
     :
     Medium:
     8:
     0.472892,0.736671,0.273629,0.206890,0.046717,496.000000,455.000000,41.000000,31.000000,0.000000,0.000000,0.472892,0.736671,0.273629,0.206890,0.046717,496.000000,455.000000,41.000000,31.000000,0.000000,0.000000:
0000
0000
0000
0000
1000
0001
1000
0001
,
1000
0000
0010
0000
0100
0000
0010
0100
0010
0000
0100
0000
0001
0000
1000
0000
,
0002
0000
0000
0000
0000
0000
0003
0000
1000
0000
0000
0100
0000
0000
1000
0000
,
0100
0000
1000
0100
0000
1000
0002
0000
,
1000
0000
0000
0000
,
0203
0000
0000
0000
0000
0000
0000
0000
0000
0000
0000
0000
0000
0000
0000
0300
,
0020
0000
0000
0000
0000
0030
0000
0000
1000
0000
0001
0000
1000
0000
0001
0000
,
0000
0000
0100
0010
0000
1000
0200
0000
,
0010
0000
0000
0000
,
0320
0000
0000
0030
,
1001
0000
0000
0000
0000
0000
0010
0001
,
0010
0000
0000
0100
0000
0000
0000
1000
,
0000
0000
0000
0000
0010
0100
0000
0020
,
0000
0000
0000
0000
0000
0030
2000
0000
0000
0000
0000
0000
0000
0000
0000
0000
,
0000
3000
0000
0000
0001
0000
0000
0000
0010
0000
0001
0000
0010
0000
0010
0000
,
0010
0100
0010
0100
0010
0001
0000
0000
,
0000
0000
0010
0100
0010
0100
0000
0200
,
0000
0000
0000
2300
0000
0000
0000
3000
,
0002
0000
0000
0000
,
0203
0000
0000
0300
,
1001
0000
0001
0000
0100
0001
0100
0000
,
0010
0000
1000
0000
0100
1000
0100
0000
,
0010
0001
0010
0100
0010
0001
0010
0100
,
0010
0000
0001
0000
1000
0001
1000
0000
,
0001
0001
1000
1000
,
1010
1010
0101
0101
,
1001
0000
1001
0000
,
1001
0000
0000
0000
,
0000
0000
0000
0000
,
1000
0010
1000
0010
1000
0000
0001
0000
,
0100
0000
0001
0000
1000
0100
1000
0000
,
0001
0010
0001
0010
0001
0010
0001
0010
,
0001
0010
0001
0010
0001
0010
0001
0010
,
0100
0100
0100
1000
0001
0000
1000
0000
,
0001
0000
1000
0000
0001
0100
0001
0100
,
0001
0000
1000
0000
0100
1000
0100
1000
,
0010
0000
1000
0000
0001
0000
0100
0001
,
0100
0000
0010
0000
1000
0000
0001
1000
,
0001
1000
0100
0010
,
0001
0010
1000
0010
,
0001
0100
1000
0100
,
0001
0000
1000
0001
1000
0000
0100
0000
,
0010
0000
0001
0010
0001
0000
0010
0100
,
0010
0000
0100
1000
0100
0000
1000
0000
,
0001
1000
0001
0000
1000
0000
0010
0000
,
0100
0010
0100
0000
0010
0000
1000
0000
,
0100
1000
0100
0000
1000
0000
0010
0000
,
0100
0001
0100
0000
0001
0000
1000
0000
,
0001
1000
0001
0000
1000
0001
1000
0000
,
0100
0010
0100
0000
0010
0100
0010
0000
,
0100
1000
0001
0000
0100
0001
1000
0000
,
0010
1000
0001
0000
0010
0001
1000
0000
,
0001
0001
1000
1000
,
0010
0000
0100
0010
0100
0000
0010
0100
,
0010
0100
0010
0100
0010
0100
0010
0100
,
0010
0100
0010
0100
0010
0100
0010
0100
,
0010
0010
1000
1000
,
0001
0000
0001
0000
0100
0001
0100
0000
,
0001
0001
1000
1000
,
0100
0010
0001
0010
,
0110
0000
0000
0000
,
1000
0001
0100
0010
,
0110
0000
0000
0000
,
1000
0001
1000
0001
,
1000
0001
1000
0000
0001
0000
1000
0000
,
0001
1000
0001
0000
1000
0000
0100
0000
,
0010
0100
0010
0100
0010
0100
0010
0100
,
0010
0001
0001
1000
,
1010
0001
0101
0001
,
1001
1001
1001
1001
,
0110
0010
1010
0001
,
0101
1000
0100
1000
,
0001
0100
0001
1000
,
0001
1000
0001
1000
0001
0000
1000
0100
,
1000
0000
0001
0100
0001
0000
1000
0000
,
0100
0010
0100
0010
0100
0000
0010
0100
,
0010
0000
0100
0010
0100
0000
0010
0001
,
0100
0000
0010
1000
0100
0010
0001
0100
,
0000
0010
1000
0100
0010
0001
0100
0010
,
0000
0000
1000
0100
1000
0000
0001
0100
,
0001
1000
0001
0002
,
2003
0000
0000
0000
,
0000
0000
0000
0000
0000
0000
3000
0000
1001
0000
1000
0000
0001
1000
0000
1000
,
0000
0000
0100
0000
0010
0001
0000
1000
0000
0010
0100
0001
1000
0010
0100
0002
,
0000
0000
2003
0000
3200
0000
0320
0000
0032
0000
0003
0000
0000
0000
0000
0001
,
1000
0000
0000
0000
0010
0000
0000
0000
0100
0000
0000
0000
0001
0000
0000
0000
0200
0000
0000
0000
0000
0000
0000
0000
0300
0000
0000
0010
0000
0000
1000
0000
,
0000
0002
0000
0000
0000
0000
0000
0000
0000
0000
0000
0000
0000
0000
0000
0000
0000
0000
0000
0000
0000
0000
0000
0000
0000
0003
0000
0000
0100
0000
0000
0000
,
0000
0001
0000
1000
0010
1000
0000
0001
,
0000
0100
0000
0001
0100
0001
0000
1000
,
0100
1000
0000
0001
0010
0001
0000
1000
,
0010
1000
0000
0001
0000
1000
0000
0001
,
1000
0001
1000
0001
1000
0001
1000
1100
,
0000
0000
0000
0011
0000
0000
0000
0101
,
0000
0000
0000
1010
0000
0000
0000
1000
,
0000
1000
0000
0001
0000
0001
0000
0110
,
0000
0000
0000
1001
0000
0000
0000
0110
,
0000
0000
0000
1001
0000
0000
0000
0010
,
0000
0010
0000
0100
0000
0100
0000
1010
,
0000
0101
0000
0011
0000
1100
0000
2002
,
0000
0000
0000
3003
0000
0000
0000
0220
,
0000
0000
0000
0000
0000
0000
0330
2002
,
0000
0000
0000
0000
,
0000
3003
0000
1100
0000
0011
0000
0202
,
0000
0000
0303
0000
,
0000
1010
0000
0202
0000
0000
0000
0000
,
0000
0303
0000
0000
0000
0000
0000
0000
;

//---------------dance-single - ----------------
#NOTES:
     dance-single:
     :
     Easy:
     6:
     0.286977,0.490530,0.193542,0.060065,0.000000,301.000000,272.000000,29.000000,9.000000,0.000000,0.000000,0.286977,0.490530,0.193542,0.060065,0.000000,301.000000,272.000000,29.000000,9.000000,0.000000,0.000000:
0000
0000
0000
0000
,
0000
0000
0000
0000
,
0000
0000
0000
0000
,
0000
0000
0000
0000
,
0000
0000
0000
0000
,
0000
0000
0000
0000
,
0000
0000
0000
0000
,
0000
0000
0000
0000
,
0000
0000
0000
0000
,
0000
0000
0000
0000
,
0000
0000
0000
0000
,
0000
0000
0000
0000
,
0000
0000
0000
0000
,
0000
0000
0000
0000
,
0000
0000
0000
0000
,
0000
0000
0000
0000
,
0000
0000
0000
0000
,
0000
0000
0000
0000
,
0000
0000
0000
0000
,
0000
0000
0000
0000
,
1000
1000
0001
0001
,
0100
0100
0010
0010
,
1000
0010
0100
0001
,
0100
0010
0010
1000
,
0001
0001
0001
0001
,
1001
1001
1001
1001
,
1001
0000
0110
0000
,
0110
1000
0010
1000
,
0001
0100
0001
1000
,
0001
0001
1000
0000
,
1000
0000
0001
0000
,
0100
0010
0010
1000
,
1000
0001
0001
0100
,
0010
0000
1000
0000
,
0001
0000
0010
0000
,
0100
0000
1000
1000
,
0001
0000
0100
0010
0000
0000
1000
0000
,
1000
0000
0000
0001
0000
0000
0010
0000
,
0100
0010
0001
0100
,
0010
0000
1000
0000
,
0000
0001
0100
0010
,
1000
1000
0010
0100
,
0001
0001
1000
1000
,
0001
0001
1000
1000
,
1010
1010
0000
0000
,
0101
0101
0000
0000
,
1001
1001
0000
0000
,
1100
1100
0000
0010
,
0001
0010
0100
1000
,
0100
1000
0010
1000
,
0001
0100
0001
1000
,
0001
0000
0000
0000
,
1000
1000
0001
0001
,
1000
0010
0100
0010
,
0100
0010
0010
0100
,
0100
0001
0100
0001
,
1000
0000
1000
0000
0001
1000
0100
0000
,
1000
0000
0001
0000
1000
0001
0100
0000
,
0001
0001
1000
1000
,
0001
1000
0001
0010
,
0001
0000
1000
0100
1000
0000
0001
0000
,
1000
0010
0010
1000
,
1000
0001
0100
0010
,
1000
1000
0001
0001
,
0100
0000
0100
0000
0010
0100
0010
0000
,
0100
0000
0010
0000
0100
0010
0100
0000
,
0010
0010
1000
1000
,
0001
0010
0100
1000
,
0001
0001
0001
0001
,
1001
1001
1001
1001
,
1001
0000
0110
0000
,
0110
0000
0000
0000
,
0000
0000
0000
0000
,
0001
0010
0100
0000
,
1000
0100
0010
0000
,
0001
0100
1000
0100
,
0001
0000
0010
0000
,
0100
1000
0100
1000
,
0010
0000
0001
0100
,
0010
0000
1000
0001
,
0100
0001
1000
0100
,
0020
0000
0000
0000
0000
0000
0000
0030
,
1001
0000
1000
0000
,
0001
0000
0100
0010
,
0100
0000
0001
0000
,
1000
0000
0001
0000
,
0000
1000
0000
0000
0001
0000
0000
0100
,
0000
0100
0000
0010
0100
0010
0000
0100
,
0000
0100
0000
0010
0100
0010
0000
0100
,
0000
0100
0000
0001
0000
0001
0000
1000
,
0000
1000
0000
0001
0000
0010
0000
0100
,
0000
0100
0000
0100
0000
0100
0000
1000
,
0000
0000
0000
0001
0000
0000
0000
0100
,
0000
0000
0000
0010
0000
0000
0000
1000
,
0000
1000
0000
0001
0000
0001
0000
0100
,
0000
0000
0000
0001
0000
0000
0000
1000
,
0000
0000
0000
0100
0000
0000
0000
0010
,
0000
0010
0000
0001
0000
0001
0000
1000
,
0000
0010
0000
0100
0000
0001
0000
2000
,
0000
0000
0000
0000
0000
0000
3000
0002
,
0000
0000
0000
0000
0000
0000
0003
0220
,
0000
0000
0000
0000
,
0000
0330
0000
1001
0000
0110
0000
2002
,
0000
0000
0000
0000
0000
3003
0000
0000
,
0000
0110
0000
2002
0000
0000
0000
0000
,
3003
0000
0000
0000
;
