#TITLE:We Are -Remix-;
#SUBTITLE:One Piece Opening 10;
#ARTIST:TVXQ;
#TITLETRANSLIT:;
#SUBTITLETRANSLIT:;
#ARTISTTRANSLIT:;
#GENRE:;
#CREDIT:Magna Trick;
#BANNER:WABN.png;
#BACKGROUND:WAB.png;
#LYRICSPATH:;
#CDTITLE:Magna Trick title!.png;
#MUSIC:We Are -Remix-.mp3;
#OFFSET:-0.036185;
#SAMPLESTART:79.000000;
#SAMPLELENGTH:16.000000;
#SELECTABLE:YES;
#BPMS:0.000000=84.019997
,8.500000=168.039993
,62.000000=84.019997
,65.000000=168.039993
,183.500000=84.019997
,185.000000=168.039993
,262.000000=84.019997
,263.500000=168.039993
,332.500000=84.019997
,334.000000=168.039993
;
#STOPS:166.000000=0.178000,
166.500000=0.179000,
167.000000=0.178000,
167.500000=0.179000,
168.000000=0.089000,
168.500000=0.090000,
380.000000=0.357000
;
#BGCHANGES:0.083=We Are -Remix-.avi=1.000=0=0=1=====,
399.500=WAB.png=1.000=0=0=1=====,
99999=-nosongbg-=1.000=0=0=0 // don't automatically add -songbackground-
;
#KEYSOUNDS:;
#ATTACKS:;

//---------------dance-single - ----------------
#NOTES:
     dance-single:
     :
     Hard:
     10:
     0.519837,0.732187,0.313235,0.359887,0.049984,546.000000,499.000000,47.000000,54.000000,0.000000,0.000000,0.519837,0.732187,0.313235,0.359887,0.049984,546.000000,499.000000,47.000000,54.000000,0.000000,0.000000:
0000
0000
0000
0001
0000
0010
0100
0000
1000
0001
0000
0000
0000
1000
0000
0100
,
0010
0000
0000
0001
0000
1000
0001
0000
0100
0010
0000
1000
0000
1000
0000
0001
,
0000
0001
0000
0000
0010
0000
0000
0000
0100
0000
1000
0000
0000
0000
0001
0000
,
0100
0000
0010
0000
1000
0000
0001
0010
,
0000
0000
0001
0000
1000
0010
0000
1000
,
0001
1100
1100
0101
,
0101
0110
0110
1001
,
0001
0100
0010
1000
0001
0000
0100
0000
,
0010
0100
0010
0000
1000
0000
0001
0000
,
0010
0100
0010
0000
0001
1000
0010
0000
,
0100
0101
0101
1100
,
1100
0100
1000
0010
0100
0000
0001
0000
,
0100
1000
0100
0000
0001
0000
0010
0000
,
0100
0000
1000
0001
0100
0001
1000
0000
,
0100
0000
1000
0000
0100
0000
0010
0001
,
0010
0000
0100
0000
1000
0000
0000
0000
0002
0000
2003
0000
0000
3000
0020
0000
,
0000
0230
0000
0000
0301
0000
0000
0000
1000
0000
0100
0000
1000
0000
0001
0000
,
0100
0001
1000
0001
,
0010
1000
0010
0000
0001
0000
1000
0000
,
0010
1000
0001
0010
0001
0000
1000
0000
,
0001
0100
0010
0000
1000
0000
0100
0000
,
1000
0001
0100
0000
0010
0000
1000
0000
,
0001
1000
0010
0000
1000
0000
0001
0000
,
0010
0001
1000
0010
0000
1000
0000
1000
,
1000
0001
0100
0010
1000
1000
0001
1000
,
0001
0000
0010
0000
0100
1000
0001
0100
,
0010
0010
1000
0000
0101
0000
0100
0000
,
1100
0000
1000
0000
1001
0000
0001
0100
,
0000
0100
0010
1000
0001
0000
0001
0000
,
1000
0000
1000
0000
0100
0000
0010
0100
,
0000
0000
0100
0010
0001
0000
0100
0000
,
0010
0000
1000
0010
0001
0000
0010
1000
,
0000
0000
1000
0100
0000
0100
0001
0001
,
0010
0100
1000
0001
0100
0000
0010
0000
,
1000
0010
1000
0010
1000
0000
0001
0100
,
0000
0001
0100
0020
0000
0030
0020
0000
,
0000
1030
0001
1000
0002
0000
0000
0003
,
0020
0230
2300
3000
,
0100
0010
0000
0002
0000
0003
0001
0000
,
0010
0100
0000
2000
0000
0000
0000
0000
,
0000
0000
0000
0000
3000
0100
0010
0001
,
0100
0010
0100
0001
1010
1100
0011
0101
,
1001
0110
1001
0000
0000
0001
0100
0010
,
0100
0001
1000
0100
0000
0010
0001
0010
,
0000
0100
0000
1000
0000
0001
1000
0010
,
0000
1000
0001
0010
0000
0001
0000
1001
,
1001
0110
0110
0100
0001
1000
0100
0000
,
0010
0000
0001
0010
0100
0000
1000
0000
,
0001
0000
0001
0000
0100
0010
1000
0001
,
0100
0010
1000
0100
,
0010
0100
1000
0100
1000
0000
0010
0100
,
0001
0000
0001
0100
0010
0000
1000
0000
,
0001
1000
0001
1000
0010
0100
0010
0100
,
0000
0010
0000
1000
0002
0000
0000
2003
,
0000
3200
0000
0300
0020
0000
0000
0032
,
0000
0000
0000
0003
0200
0000
0000
0320
,
0000
0000
1030
0001
2000
0000
0000
0000
,
0000
0000
0000
3000
0011
0000
1100
0000
,
0000
0002
2003
3020
,
0230
0302
2003
3200
,
0320
0032
0203
0320
,
2030
0000
0000
0000
3002
0000
0000
0003
1100
0000
0000
0101
0000
0000
1001
0000
,
0000
0000
0001
0100
1000
0100
0001
0010
,
1000
0000
0010
0100
1000
0000
0001
0000
,
0100
0000
0010
1000
0001
0000
0010
0001
,
1000
0000
0001
0000
1001
1001
0110
0110
,
0010
1000
0001
0010
0000
0100
0000
1000
,
0001
1000
0000
0001
0000
0010
0000
0100
,
0000
0010
0100
0010
0100
0010
0000
0001
,
0000
1000
0000
0010
0000
0100
1000
0100
,
0001
0010
0000
0001
0010
0000
0001
0010
,
0001
0010
0000
0001
0010
0000
0100
0010
,
0100
1000
0100
1000
0100
0000
1000
0000
,
0100
1000
0000
0001
1000
0000
0001
0000
,
0100
0020
0000
0000
2030
0000
0000
0000
,
3000
0002
0000
0000
0023
0000
0000
0130
,
1000
0002
0000
0000
0000
0000
0000
0000
,
0003
1010
0000
0101
0000
0000
0000
0110
,
0000
1001
0000
0001
0000
1000
0000
0001
,
0000
0000
0011
0000
0000
1100
0000
0000
0110
0000
0000
0000
0000
0000
0001
0000
,
0100
1000
0100
0001
0010
0100
0000
1000
,
0001
1000
0000
0001
0000
0100
0000
0010
,
0100
0001
0000
1000
0100
0010
0000
0001
,
0000
0110
0110
1001
1001
0010
0100
0001
,
1000
0100
0010
0000
0010
0100
1000
0000
,
0001
0000
0100
0000
0001
0000
1000
0001
,
1000
0001
1000
0000
0001
0000
0010
0000
,
0100
0000
1000
0001
0100
0010
1000
0000
,
1000
0010
0000
0010
1000
0001
0100
0000
,
0100
0001
0000
0001
1000
0100
0010
0001
,
0010
0100
0000
1000
0000
0001
1000
0000
,
1000
0001
0000
0001
0000
1000
0200
0000
,
0000
0320
0000
0000
0000
0030
0002
0000
,
0000
0203
0000
0000
0310
1000
0002
0000
,
0000
0000
0000
0000
0000
0003
1100
0000
,
0011
2000
3200
0320
,
0032
0203
0320
2030
,
3002
0023
0230
1300
,
0001
0000
0100
0000
0010
0000
1000
0001
,
0000
0000
0010
0100
2000
0000
0000
3000
;

//---------------dance-single - ----------------
#NOTES:
     dance-single:
     :
     Challenge:
     13:
     0.658841,0.832031,0.453191,0.333229,0.093304,692.000000,624.000000,68.000000,50.000000,0.000000,0.000000,0.658841,0.832031,0.453191,0.333229,0.093304,692.000000,624.000000,68.000000,50.000000,0.000000,0.000000:
// measure 0
0000
0000
0000
1000
0000
0100
0010
0000
0001
1001
0000
0000
0000
0001
0000
0010
,  // measure 1
0100
0000
0000
1000
0000
0001
1000
0000
0010
0100
0000
0011
0000
0011
0000
1100
,  // measure 2
0000
0000
0000
1000
0100
0010
0001
0000
0000
0000
0000
0000
1001
0000
0000
0000
0000
0000
0000
0000
0000
0000
0000
0000
0010
0000
0000
0000
0000
0000
0011
0000
0000
0000
0000
0000
0000
0000
0000
0000
0000
0000
1000
0000
0000
0000
0000
0000
,  // measure 3
1010
0000
0100
0000
0001
0000
1100
0101
,  // measure 4
0010
0000
1001
0000
0100
0110
0000
0010
,  // measure 5
0110
0011
0011
1010
,  // measure 6
1010
0110
0110
1001
,  // measure 7
1000
0010
0100
0001
1000
0010
0010
0000
,  // measure 8
0100
0010
0100
0000
0001
1000
1000
0000
,  // measure 9
0100
0010
0100
0000
1000
0001
0001
0100
,  // measure 10
0010
1000
1010
0000
1010
0000
0011
0000
,  // measure 11
0011
0100
1000
0000
0001
0000
0100
0000
0010
0000
1000
0000
1000
0000
0000
0000
,  // measure 12
0010
0001
0010
0000
1000
0100
0100
0000
,  // measure 13
0010
0000
0001
1000
0010
1000
0001
0010
,  // measure 14
0010
0000
0001
0000
0010
0000
0100
1000
,  // measure 15
0100
0000
0010
0000
0001
0000
0000
0000
2000
0000
3002
0000
0000
0003
0200
0000
,  // measure 16
0000
0320
0000
0000
1030
0000
0000
0000
0001
0000
0010
0000
0001
0000
1000
0000
,  // measure 17
0010
0000
1000
0000
0001
0000
1000
1000
,  // measure 18
0100
0001
0100
0100
1000
0000
0001
0000
,  // measure 19
0100
0001
1000
0100
1000
0000
0001
0001
,  // measure 20
1000
0010
0100
1000
0100
0000
0010
0000
,  // measure 21
1000
0100
0010
0000
0100
0000
0001
0001
,  // measure 22
0100
1000
0100
0000
0020
0000
0031
0000
,  // measure 23
0100
0001
1000
0100
0000
0010
0000
0001
,  // measure 24
0001
1000
0010
0000
0100
0000
0100
0000
1001
0000
0010
0000
1000
0000
0001
0000
,  // measure 25
1000
0000
0100
0000
0010
0001
1000
0010
,  // measure 26
0100
0100
0001
0000
1010
0000
0010
0000
,  // measure 27
0011
0000
0001
0000
1001
0000
1000
0010
,  // measure 28
0000
0010
0110
0001
1000
0000
1000
0000
,  // measure 29
0001
0000
0001
0000
0010
0000
0100
0020
,  // measure 30
0000
0030
0010
0100
1000
0000
0010
0000
,  // measure 31
0100
0000
0001
0100
1000
0000
0100
0001
,  // measure 32
0000
0001
0001
0010
0000
0010
1000
1000
,  // measure 33
0010
0001
1000
0010
0100
0001
0100
0001
,  // measure 34
1000
0100
0010
0001
0010
0100
1000
0100
,  // measure 35
1000
0010
0100
0001
0010
0100
1001
0001
,  // measure 36
0100
0001
1000
1000
1000
0010
0100
0010
,  // measure 37
1000
1000
0100
0100
1000
0001
1000
0010
,  // measure 38
0100
0100
0001
0010
0010
0100
1000
1000
,  // measure 39
0001
0001
0100
0010
0100
0010
0100
0010
,  // measure 40
0100
0010
0100
0010
0100
0001
1000
0100
,  // measure 41
0010
0001
0010
0100
0101
0011
1100
1010
,  // measure 42
1001
0000
0110
0000
1001
0000
0000
0000
0001
0000
1000
0001
1000
0000
0100
0000
,  // measure 43
0010
0001
0001
0010
0000
0100
1000
0100
,  // measure 44
0000
0010
0010
0001
1000
1000
0001
0100
,  // measure 45
0000
0001
1000
0100
0100
0010
0010
1001
,  // measure 46
1001
0000
0110
0000
0010
1000
0010
0000
1000
0000
0001
0000
0010
0000
0100
0000
,  // measure 47
0100
0000
1000
0100
0010
0000
0001
0001
,  // measure 48
1000
0000
1000
0000
0010
0100
0001
1000
,  // measure 49
0010
0010
0100
0100
0001
0000
0010
0000
,  // measure 50
0100
0010
0001
0010
0001
0000
0100
0010
,  // measure 51
1000
1000
0100
0010
0001
0000
0001
0001
,  // measure 52
1000
0001
1000
1000
0100
0010
0100
0020
,  // measure 53
0000
0230
0000
1300
2100
0000
3000
0012
,  // measure 54
0003
0120
0000
0030
0200
0000
1000
2300
,  // measure 55
0100
0100
0100
3100
0020
0000
0100
0230
,  // measure 56
1000
1000
1300
1000
0002
0000
1000
1000
,  // measure 57
0000
1000
1000
0003
1100
0000
0011
0000
,  // measure 58
0000
2000
3002
0203
,  // measure 59
0320
2030
3002
0023
,  // measure 60
0230
2300
3020
0230
,  // measure 61
0302
0000
0000
0000
2003
0000
0000
3000
0011
0000
0000
1010
0000
0000
1001
0000
,  // measure 62
0000
0000
0001
0000
1000
0001
1000
0000
0001
0000
0010
0000
0100
0000
0100
0000
,  // measure 63
1000
0100
0100
0010
0001
0000
1000
1000
,  // measure 64
0010
0000
0100
0001
1000
0000
0100
1000
,  // measure 65
0001
0000
0001
0000
1000
0000
1000
0000
1001
0000
1001
0000
0110
0000
0100
0001
,  // measure 66
0100
0001
1000
0100
0100
0010
0000
0001
,  // measure 67
1000
0001
0000
1000
1000
0100
0010
0010
,  // measure 68
0000
0100
0010
0100
0100
0010
0010
0001
,  // measure 69
1000
0001
0000
0100
0000
0010
0001
0010
,  // measure 70
1000
0100
0000
1000
0100
0000
1000
0100
,  // measure 71
1000
0100
0000
1000
0100
0000
0010
0100
,  // measure 72
0010
0001
0010
0001
0010
0000
0001
0000
,  // measure 73
0010
0011
0000
1000
1010
0000
1001
0000
,  // measure 74
0010
0200
0000
0001
0302
1000
1000
1000
,  // measure 75
1003
2000
0000
0100
3200
0000
0010
0301
,  // measure 76
0001
2000
0000
0100
0100
0000
0100
0100
,  // measure 77
3000
0101
0000
1010
0000
0000
0000
0110
,  // measure 78
0000
1001
0000
1000
0000
0001
0000
1000
,  // measure 79
0000
0000
1100
0000
0000
0011
0000
0000
0110
0000
1000
0001
1000
0001
0010
0100
,  // measure 80
0010
0100
1000
0000
0010
0000
1000
0000
0100
0000
0100
0000
0010
0000
0001
0000
,  // measure 81
0001
1000
0000
1000
1000
0010
0000
0100
,  // measure 82
0010
1000
0000
0001
0010
0100
0100
1000
,  // measure 83
1000
0000
0110
0000
0110
0000
1001
0000
0001
0100
0001
0000
0010
0000
1000
0000
,  // measure 84
0010
0010
0100
1000
0100
0100
0010
0000
,  // measure 85
0001
1000
0010
0000
1000
1000
0001
1000
,  // measure 86
1000
0001
0001
0001
1000
1000
0100
0000
,  // measure 87
0010
0000
0001
1000
0010
0100
0001
0000
,  // measure 88
0001
0100
0000
0100
0001
1000
0010
0000
,  // measure 89
0010
1000
0000
1000
0001
0010
0100
1000
,  // measure 90
0100
0010
0000
0001
0000
1000
1100
0000
,  // measure 91
0001
0101
0000
1001
0000
0001
0020
0000
,  // measure 92
0100
0230
1000
1000
1000
1300
2000
0000
,  // measure 93
0010
3020
0100
0100
0130
0001
2000
0000
,  // measure 94
0001
0001
0000
0001
0001
3000
0011
0000
,  // measure 95
1100
0002
0023
0230
,  // measure 96
2300
3020
0230
0302
,  // measure 97
2003
3200
0320
0031
,  // measure 98
1000
0000
0010
0000
0100
0000
0001
1000
,  // measure 99
0000
0000
0100
0010
0002
0000
0000
0003
;

//---------------dance-single - ----------------
#NOTES:
     dance-single:
     :
     Medium:
     7:
     0.450335,0.566489,0.139956,0.226596,0.043320,473.000000,452.000000,21.000000,34.000000,0.000000,0.000000,0.450335,0.566489,0.139956,0.226596,0.043320,473.000000,452.000000,21.000000,34.000000,0.000000,0.000000:
0000
0000
0000
1000
0000
0000
0001
0000
0000
0100
0000
0000
0000
0001
0000
0010
,
0100
0000
0000
1000
0000
0000
0001
0000
0000
0010
0000
0001
0000
0001
0000
1000
,
0000
1000
0000
0000
0001
0000
0000
0000
0001
0000
0000
0000
1000
0000
0000
0000
,
1000
0000
0000
0000
0010
0100
0010
0100
,
0000
0001
0001
1000
,
1000
0000
0100
0010
0100
0000
0010
0000
,
0010
0000
0100
0010
0100
0000
0010
0000
,
0010
1000
0001
1000
,
0001
0001
1000
0001
,
0010
0100
0100
0010
,
0001
1001
1001
0110
,
0110
0010
1000
0001
,
0100
0001
1000
0100
,
1000
0001
0001
1000
,
0001
1000
0010
0010
,
0100
0000
1001
0000
0001
0001
0000
1000
,
0000
1000
0000
0000
0001
0000
0000
0000
1000
0000
0000
0000
1000
0000
0000
0000
,
0001
0000
1000
0000
0200
0000
0000
0300
,
0000
0000
0010
0010
,
0001
0001
0200
0000
,
0300
0000
0010
0010
,
1000
1000
0200
0300
,
0010
0001
2000
3000
,
0010
0000
1000
0000
0001
1000
0000
0001
,
0000
1000
0001
1000
0001
0000
1000
0000
,
1000
0001
0010
0000
,
0000
0000
0100
1000
0010
0000
0010
0000
,
0101
0000
0010
1000
0100
0000
1000
0000
,
1100
0000
0001
1000
0001
0000
1000
0000
,
1000
0000
0001
0000
0001
0000
0000
1000
,
0000
0000
0010
0100
0001
0000
0001
0000
,
1000
0000
1000
0000
0100
0000
0010
0001
,
0000
0000
0010
0100
0000
0100
1000
0010
,
0000
1000
0001
0000
1000
0000
0001
0000
,
1000
0001
1000
0001
1000
0000
0001
0000
,
0100
0010
0100
0010
0100
0000
0010
0000
,
0010
1000
0001
1000
0001
0000
1000
0000
,
0001
0001
0010
0100
,
1000
0100
1000
0100
1000
0000
0001
0000
,
0100
0001
0100
0001
0100
0000
0010
0000
,
1000
0000
0001
0000
1000
0001
1000
0001
,
1000
0001
1000
0001
1000
1000
0001
0001
,
0100
0010
1000
0000
0000
0001
1000
0001
,
1000
0000
0000
0100
0000
1000
0200
0000
,
0300
0010
0001
0010
0000
0001
0000
0100
,
0000
0010
0100
0010
0000
0100
0000
0010
,
0010
1000
1000
0000
0001
0100
0001
1000
,
0100
0000
1000
0100
1000
0000
0001
0000
,
0010
0001
0010
0000
0001
0000
1000
0010
,
1000
0001
0100
0000
0001
0000
1000
0000
,
0001
0000
1000
0001
1000
0000
0001
1000
,
0000
0001
1000
0001
1000
0000
1000
0001
,
0000
1000
0001
1000
0001
1000
0001
1000
,
0000
0001
0000
0010
0100
0000
0100
0010
,
0000
0010
0000
0100
0020
0000
0000
0032
,
0000
0000
0000
0000
2003
0000
0000
3020
,
0000
0000
0130
0001
2000
0000
0000
0000
,
0000
0000
0000
3000
1001
0000
1001
0000
,
0000
0200
0320
2030
,
3002
0203
0320
2030
,
3002
0203
0320
2030
,
3001
0000
0000
0000
0100
0000
0000
0000
0001
0000
0000
1000
0000
0000
0001
0000
,
0000
0000
1000
0001
1000
0001
1000
0000
,
0001
0000
0010
0100
0010
0000
0100
0000
,
1000
0000
0001
0100
0001
0000
1000
0100
,
1000
0000
0001
0000
1001
1001
0110
0110
,
0000
1000
0001
1000
0000
0001
0000
0010
,
0100
0010
0000
0100
0000
1000
0000
0001
,
0000
0100
0001
0100
0001
0100
0000
0001
,
0000
1000
0000
0001
0000
0010
0000
0100
,
0010
0100
0000
1000
0100
1000
0000
0001
,
0100
0001
0000
1000
0000
0001
0000
0010
,
0100
1000
0100
0010
0001
0000
0010
0000
,
0100
2000
0000
3000
0002
0000
0203
0000
,
0300
0020
0000
0000
2030
0000
0000
0000
,
0000
3002
0000
0000
0203
0000
0000
0310
,
1000
0200
0000
0000
0000
0000
0000
0000
,
0300
0110
0000
0110
0000
0000
0000
1000
,
0000
0001
0000
1000
0000
0001
0000
1000
,
0000
0000
0001
0000
0000
1000
0000
0000
0001
0000
0000
0000
0000
0000
0100
0000
,
0001
1000
0001
0000
0000
1000
0000
0001
,
2000
0000
0000
0000
3000
0000
0000
0001
,
0010
0100
0000
1000
0100
0010
0000
0001
,
0000
1001
1001
0110
0110
0000
0010
1000
,
0010
0000
0100
0000
0001
0100
0001
0000
,
1000
0000
0001
0000
1000
0000
0001
0010
,
0100
1000
0100
0000
1000
0000
0100
0000
,
1000
0000
0010
0000
0100
0010
0100
0000
,
0010
0100
0001
0000
0100
0001
0100
0000
,
0001
0000
1000
0000
0001
0010
0100
1000
,
0100
0010
0000
0001
0000
1000
0001
0000
,
0001
1000
0000
1000
0000
0010
0100
0000
,
0001
0200
0000
0000
0300
0000
0010
0000
,
1000
0020
0000
0030
0010
1000
0200
0000
,
0000
0000
0000
0000
0000
0300
1001
0000
,
1001
0010
1000
0001
,
0100
0010
1000
0001
,
0100
0010
1000
0001
,
0100
0010
1000
0100
,
0010
0001
2000
0000
,
3000
0000
0000
0000
;

//---------------dance-single - ----------------
#NOTES:
     dance-single:
     :
     Easy:
     5:
     0.328469,0.466520,0.146621,0.173279,0.009997,345.000000,323.000000,22.000000,26.000000,0.000000,0.000000,0.328469,0.466520,0.146621,0.173279,0.009997,345.000000,323.000000,22.000000,26.000000,0.000000,0.000000:
0000
0000
0000
0000
,
0000
0000
0000
0000
,
0000
0000
1000
0000
0000
0001
0000
0000
,
0100
0000
0000
0000
0010
0000
1000
0010
,
0000
0000
1000
0000
0000
0001
0000
0000
,
0010
0100
0100
0010
,
0010
0001
0001
1000
,
1000
0010
0000
0100
,
0000
0001
0000
1000
,
0000
0100
0000
0010
,
0000
1001
1001
0110
,
0110
1000
0000
0001
,
0000
0100
0000
0001
,
0000
1000
0000
0100
,
0000
0010
0000
0001
,
1000
0000
0001
0000
1000
1000
0000
0001
,
0000
0001
0000
0000
0000
0000
0000
0000
1000
0000
0000
0000
1000
0000
0000
0000
,
0001
0000
0001
0000
2000
0000
0000
3000
,
0000
0000
0001
0001
,
1000
0000
1000
0000
0002
0000
0000
0003
,
0000
0000
0010
0010
,
0100
0000
0100
0000
0020
0000
0000
0030
,
0001
0000
1000
0000
0002
0000
0000
0003
,
1000
0000
0001
0000
1000
0001
0000
1000
,
0000
0001
0000
1000
0001
0000
1000
0000
,
0010
0100
0020
0000
,
0030
1000
1000
0001
,
0001
0100
0200
0000
,
0300
0000
0010
0010
,
1000
0000
1000
0000
0002
0000
0000
0023
,
0000
0030
0100
0000
1000
0000
0001
0000
,
0100
0010
2000
0000
,
3000
0000
0001
0000
,
1000
1000
0001
0000
,
0001
0001
1000
0000
,
1000
0010
1000
0000
,
0001
0100
0001
0000
,
1000
1000
0001
0000
,
0001
0001
1000
0010
,
0100
0010
0200
0000
,
0000
0000
0300
0010
,
1000
0000
0010
0000
1000
0001
0100
0010
,
1000
0001
0100
0000
0000
0010
0000
0010
,
0000
1000
0000
0001
0000
1000
0000
0001
,
0000
0100
0000
0010
0000
1000
0000
0100
,
0000
0010
0000
0001
0000
0010
0000
0110
,
0110
1001
1001
0000
0010
0000
1000
0000
,
0001
0100
0010
1000
,
0001
0100
0010
0010
,
0010
0010
0010
1000
,
0001
1000
1000
0000
,
0001
0000
1000
0000
,
0001
0000
1000
0100
,
1000
0000
0001
0000
0010
0000
0000
0001
,
0000
1000
0000
0000
0020
0000
0000
0230
,
0000
0000
0000
0000
0302
0000
0000
2003
,
0000
3100
0020
0000
,
0000
0030
1001
1001
,
0000
1000
0010
1000
,
0010
1000
0010
1000
,
0010
1000
0010
1000
,
0010
0000
0000
0000
1000
0000
0000
0000
0001
0000
0000
1000
0000
0000
0001
0000
,
0000
1000
0001
1000
,
0001
1000
0001
0010
,
0100
0010
0100
0010
,
0100
0000
1000
0000
1001
1001
0110
0110
,
0000
0010
0000
1000
0000
0010
0000
1000
,
0000
0010
0000
1000
0000
0001
0000
0100
,
0000
0001
0000
0100
0000
0010
0000
1000
,
0000
0001
0000
0100
0000
0010
0000
1000
,
0000
1000
0000
0001
0000
0001
0000
1000
,
0000
0001
0000
0000
0000
0000
0000
1000
,
0000
0001
0000
1000
0000
0100
0000
0010
,
0000
0100
0000
0000
1000
0000
0001
0000
,
0000
0200
0000
0000
0320
0000
0000
0000
,
0030
2000
0000
0000
3002
0000
0000
0013
,
0000
0200
0000
0000
0000
0000
0000
0000
,
0300
1001
0000
1001
0000
0000
0000
0001
,
0000
1000
0000
0001
0000
1000
0000
0001
,
0000
0000
1000
0000
0000
0001
0000
0000
1000
0000
0000
0000
0000
0000
0001
0000
,
0000
0100
0000
0010
0000
0100
0000
0001
,
0000
1000
0000
0100
0000
0010
0000
0100
,
0000
1000
0000
0001
0000
1000
0000
0001
,
0000
1001
1001
0110
0110
0000
0010
0000
,
1000
0001
0100
0010
,
1000
0010
0100
0001
,
0100
0001
1000
0100
,
0010
0001
0010
0010
,
0000
0100
0000
1000
,
0000
0000
0001
0100
,
0010
1000
0100
0010
,
0000
0001
0000
1000
0000
0000
0002
0000
,
0000
0203
0000
0000
0000
0000
0320
0000
,
0000
2030
0000
0000
3001
0100
0020
0000
,
0000
0000
0000
0000
0000
0030
1001
0000
,
1001
1000
0001
1000
,
0001
1000
0001
1000
,
0001
0100
0010
0100
,
0010
0100
0010
0100
,
0010
1000
0002
0000
,
0003
0000
0000
0000
;
