#TITLE:Watashi Ga Motenai;
#SUBTITLE:Watamote Opening;
#ARTIST:Konomi Susuki;
#TITLETRANSLIT:;
#SUBTITLETRANSLIT:;
#ARTISTTRANSLIT:;
#GENRE:;
#CREDIT:;
#BANNER:WGMBN.jpg;
#BACKGROUND:WGMBG.jpg;
#LYRICSPATH:;
#CDTITLE:cdtitleitachi.png;
#MUSIC:Watamote! Opening (TV Size) (ENRomaji lyrics).ogg;
#OFFSET:-0.096000;
#SAMPLESTART:52.369659;
#SAMPLELENGTH:21.749996;
#SELECTABLE:YES;
#BPMS:0.000000=200.000000
,51.000000=100.000000
,53.000000=200.000000
,117.000000=100.000000
,129.000000=200.000000
,214.500000=400.000000
,215.500000=200.000000
;
#STOPS:214.500000=0.075000,
215.000000=0.075000,
215.500000=0.150000,
256.000000=0.075000,
256.250000=0.075000,
256.500000=0.150000,
257.000000=0.075000,
257.250000=0.075000,
257.500000=0.075000,
257.750000=0.075000,
258.000000=0.150000,
258.500000=0.075000,
258.750000=0.075000,
259.000000=0.075000,
259.250000=0.075000,
259.500000=0.075000,
259.750000=0.075000,
260.000000=0.075000,
260.250000=0.075000,
260.500000=0.075000,
260.750000=0.075000,
261.000000=0.075000,
261.250000=0.075000,
261.500000=0.150000,
262.000000=0.300000
;
#BGCHANGES:0.063=1.avi=1.000=0=0=1=====,
262.000=WGMBG.jpg=1.000=0=0=1=====,
99999=-nosongbg-=1.000=0=0=0 // don't automatically add -songbackground-
;
#KEYSOUNDS:;
#ATTACKS:;

//---------------dance-single - ----------------
#NOTES:
     dance-single:
     :
     Hard:
     15:
     0.721022,1.089537,0.431664,0.210298,0.332049,456.000000,417.000000,39.000000,19.000000,0.000000,0.000000,0.721022,1.089537,0.431664,0.210298,0.332049,456.000000,417.000000,39.000000,19.000000,0.000000,0.000000:
0000
0000
0000
0000
,
0000
0000
0000
1001
,
0000
0000
0110
0000
0000
0000
0000
0000
1000
0001
0100
0010
1000
0000
0110
0000
,
0000
0110
1010
1010
,
0010
1000
0000
0000
1010
0000
0001
0100
,
0010
0000
1000
0000
0001
1000
0001
0000
0010
0100
1000
0000
0000
0000
0001
0000
,
0010
0100
1000
0010
0100
0010
0000
1000
,
0100
0010
0001
1000
0100
1000
0000
0001
,
0010
0100
1000
0100
1000
0010
0100
0010
,
1000
0001
0010
0100
1000
0100
0000
0100
,
1000
0010
1000
0010
0100
0010
0000
0010
,
0100
0001
0010
0001
0010
0100
1000
0010
,
0000
0000
0010
0000
0100
0000
0001
0000
0000
0000
1000
0000
0001
1000
0001
0100
,
0001
0010
0200
0000
1300
0000
0000
0000
1100
0000
0000
0000
0010
0000
0000
0000
,
0100
0010
0000
1000
0100
1000
0010
0100
,
0001
1100
1100
1010
,
0010
0100
0000
0100
0001
1000
0100
0010
,
0001
0000
1001
0000
0110
0000
0010
0100
,
0000
0010
0000
1000
0001
1000
0100
0000
,
1001
0000
1000
0000
0100
1000
0000
0010
,
0000
1001
0000
0100
0000
0000
0110
0000
,
0110
0001
1000
0100
,
1000
0010
0000
1000
0010
0100
0001
1000
,
0100
1000
0100
1000
,
0010
0100
0000
0100
0010
1000
0001
1000
,
0100
0000
1100
0000
1010
0000
0110
0110
,
0000
0000
0101
0000
0000
0000
0001
0000
1000
0000
0100
0000
1000
0001
1000
0001
,
1000
0000
0000
0001
0000
0000
1000
0000
0000
0000
0000
0000
0001
0000
0000
1000
0000
0000
0001
0000
0010
0000
0100
0000
,
0000
0000
1001
0000
0000
0000
0000
0000
0000
1000
0000
0000
0001
0000
0000
0000
0000
0000
1000
0000
0100
0000
0010
0000
,
0001
0000
1000
0000
0001
0000
1000
0000
0010
1000
0000
0010
0100
0000
0010
0100
0000
0001
1000
0000
0100
1000
0000
0100
,
0000
0000
0000
0000
0000
0000
0000
0000
0000
0000
0000
0000
0000
0000
0000
0000
0000
0000
0000
0000
0000
0000
0000
0000
0000
0000
0000
0000
0000
0000
0000
0000
0000
0000
0000
0000
0000
0000
0000
0000
0010
0000
0000
0000
0000
0000
0000
0000
1000
0000
0000
0000
0000
0000
0000
0000
0000
0000
0000
0000
0000
0000
0000
0000
0010
0000
0000
0000
0000
0000
0000
0000
0100
0000
0000
0000
0000
0000
0000
0000
0000
0000
0000
0000
0000
0000
0000
0000
0000
0000
0000
0000
0000
0000
0000
0000
0100
0000
0000
0000
0000
0000
0000
0000
0000
0000
0000
0000
0000
0000
0000
0000
0000
0000
0000
0000
0000
0000
0000
0000
0001
0000
0000
0000
0000
0000
0000
0000
0000
0000
0000
0000
0000
0000
0000
0000
0000
0000
1001
0000
0000
0000
0000
0000
0000
0000
0000
0000
0000
0000
0000
0000
0000
0000
0000
0000
0000
0000
0000
0000
0000
0000
1001
0000
0000
0000
0000
0000
0000
0000
0000
0000
0000
0000
0000
0000
0000
0000
0000
0000
0000
0000
0000
0000
0000
0000
1001
0000
0000
0000
0000
0000
,
0000
0000
0000
0000
0001
0000
1000
0000
0000
0100
0000
1000
0000
0000
0000
0000
0000
0000
0001
0000
0000
1000
0000
0002
,
0000
0000
0000
0000
0000
0000
0000
0000
0003
0000
0000
0000
1000
0000
0000
0100
0000
0000
0010
0000
0000
0000
0000
0000
0000
0000
0000
0000
0000
0000
0001
0000
0000
0010
0000
0000
0100
0000
0000
0000
0000
0000
0000
0000
0000
0000
0000
0000
,
1001
0000
0000
0000
1000
0100
1000
0010
1000
0100
1000
0010
1000
0000
0001
0000
,
0100
0010
0000
0000
1000
0000
0001
1000
,
0010
0101
0000
0001
0010
0100
1000
0001
,
0010
0000
0001
0000
0000
0000
0000
0000
2000
0001
3100
0000
0002
0010
0103
0000
,
2000
0001
3100
0000
0002
0000
0013
0000
0200
0000
1300
0000
0002
0000
0013
0000
,
0200
0000
0000
0000
1300
0000
0000
0000
0000
0000
0000
0000
0000
0000
0000
1000
0000
0000
0000
0001
0000
0000
0000
1000
0000
0000
0000
0010
0000
0000
0000
1000
,
0000
0000
0000
0100
0000
0000
0000
0000
0000
0000
0011
0000
0000
0000
0000
0000
0000
0000
0110
0000
0000
0000
0000
0000
2200
0000
3300
0000
2002
0000
0000
0000
,
3003
0101
0000
0001
1000
0000
0100
1000
,
0100
1000
0000
0010
0100
0000
0100
0001
,
0000
1100
0000
0000
1100
0000
0010
0000
,
0100
0000
0001
0000
1000
0100
0000
1001
,
0000
1100
0000
0000
0100
1000
0010
0100
,
0000
0001
1000
0100
0001
0100
0000
1000
,
0010
0001
0010
0000
1000
0000
0010
0000
,
1000
0010
0000
0010
0100
0001
1000
0100
,
1000
0100
0000
0000
1000
0100
0001
0100
,
1000
0010
0001
0010
1000
0100
0010
0001
,
1000
0010
0001
0010
0000
1000
0100
0000
,
0001
0100
0000
1000
0100
1000
0010
0100
,
0010
0100
0001
1000
0001
1000
0000
0100
,
0000
0000
0000
0000
0000
0000
0000
0000
0000
0000
0000
0000
0000
0000
0000
0000
0000
0000
0000
0000
0000
0000
0000
0000
1000
0000
0000
0000
0000
0000
0000
0000
0000
0000
0000
0000
0000
0000
0000
0000
0000
0000
0000
0000
0000
0000
0000
0000
0000
0000
0000
0000
0000
0000
0000
0000
0000
0000
0000
0000
0000
0000
0000
0000
0000
0000
0000
0000
0000
0000
0000
0000
1100
0000
0000
0000
0000
0000
0000
0000
0000
0000
0000
0000
0000
0000
0000
0000
0000
0000
0000
0000
0000
0000
0000
0000
0000
0000
0000
0000
0000
0000
0000
0000
0000
0000
0000
0000
0000
0000
0000
0000
0000
0000
0000
0000
0000
0000
0000
0000
0020
0030
0000
0000
0000
0000
0000
0000
0000
0000
0000
0000
0000
0000
0000
0000
0000
0000
0000
0000
0000
0000
0000
0000
2000
3000
0000
0000
0000
0000
0000
0000
0000
0000
0000
0000
0000
0000
0000
0000
0000
0000
0000
0000
0000
0000
0000
0000
0020
0030
0000
0000
0000
0000
0000
0000
0000
0000
0000
0000
0000
0000
0000
0000
0000
0000
0000
0000
0000
0000
0000
0000
,
0010
0100
1000
0000
0100
0010
0001
0000
,
0010
0100
1000
0000
0100
0010
0001
0000
,
0010
0100
1000
0000
1000
0100
0010
0000
,
0100
0010
1000
0000
0100
0001
0100
0000
,
0000
1000
0010
0001
0010
0000
0100
1000
,
0100
0000
0100
0001
0010
0000
1000
0010
,
0000
0001
1000
0100
0010
0000
0100
0001
,
0100
0000
1000
0100
0010
0000
0001
1000
,
0200
0000
0000
0000
,
0300
0000
0000
0000
0000
0000
0000
0001
1000
0001
1000
0000
0001
1000
0001
1000
,
0001
0010
0100
0000
0100
0010
0001
0001
1000
0000
0100
1000
0010
0100
0001
1000
,
0100
0010
0001
1000
0001
0100
0010
0000
2002
0000
3003
0000
0000
0000
0000
0000
;

//---------------dance-single - ----------------
#NOTES:
     dance-single:
     :
     Challenge:
     18:
     0.974012,1.125855,1.029353,0.398459,0.747111,616.000000,523.000000,93.000000,36.000000,0.000000,0.000000,0.974012,1.125855,1.029353,0.398459,0.747111,616.000000,523.000000,93.000000,36.000000,0.000000,0.000000:
// measure 0
0000
0000
0000
0000
,  // measure 1
0000
0000
0000
1001
,  // measure 2
0000
0000
0110
0000
0000
0000
0000
0000
1000
0100
0010
0100
1000
0000
0110
0000
,  // measure 3
0000
0000
0000
0000
0110
0000
0000
0000
1010
0000
0000
0000
1000
0100
0010
0000
,  // measure 4
0001
0000
0100
0010
1000
0000
0001
0000
0010
0100
1000
0000
0001
0010
0001
0000
,  // measure 5
1000
0100
0010
0001
0010
0000
0001
0000
0010
0100
1000
0000
0000
0000
0001
0000
,  // measure 6
0010
0000
0100
0000
1000
0000
0010
0100
0001
0000
0010
0000
0000
0000
1000
0000
,  // measure 7
0100
0000
0010
0000
0001
0000
1000
0100
1000
0000
0001
0000
0000
0000
0001
0000
,  // measure 8
0010
0000
0100
0000
1000
0000
0100
0010
0001
0000
0010
0000
0100
0000
1000
0000
,  // measure 9
1000
0000
0001
0000
0010
0100
1000
0001
0010
0000
0100
0000
0000
0000
0100
0000
,  // measure 10
1000
0000
0010
0000
1000
0000
0010
0100
0001
0000
1000
0000
0000
0000
0010
0100
,  // measure 11
0010
0000
1000
0000
0001
1000
0001
0010
0100
1000
0001
1000
0001
0100
0010
0000
,  // measure 12
0000
0000
0000
0000
0010
0000
0100
0000
0001
0000
1000
0000
0001
0000
0000
0000
0000
0000
0000
0000
1000
0000
0000
0000
0001
0010
0001
0010
0100
1000
0100
1000
,  // measure 13
0100
0010
0100
0010
0002
0000
0000
0000
1003
0000
0000
0000
0100
0000
0000
0000
0010
0000
0000
0000
0100
0000
0000
0000
1001
0000
0000
0000
0010
0000
0000
0000
,  // measure 14
0100
0010
0000
1000
0100
1000
0010
0100
,  // measure 15
0001
0000
1100
0000
1100
0000
1001
0010
,  // measure 16
1000
0100
0001
0100
0001
1000
0100
0010
,  // measure 17
0001
0000
1001
0000
0110
0000
0010
0100
,  // measure 18
0000
0110
0000
1000
0010
0001
0010
0000
,  // measure 19
1001
0000
1000
0000
0100
1000
0000
0010
,  // measure 20
0000
0000
0011
0000
0000
0000
0100
0000
0000
0000
0000
0000
1000
0100
0010
0000
,  // measure 21
0001
0010
0100
0000
1001
0000
0000
0000
1000
0000
0000
0000
0100
0000
0000
0000
,  // measure 22
1000
0010
0000
1000
0101
0010
0101
1000
,  // measure 23
0101
1000
0100
1000
,  // measure 24
0010
0100
0000
0010
0101
1000
0101
0010
,  // measure 25
0101
0000
1100
0000
1010
0000
0110
0110
,  // measure 26
0000
0000
0101
0000
0000
0000
0001
0000
1000
0000
0100
0000
1000
0001
1000
0001
,  // measure 27
1000
0000
0000
0001
0000
0000
1001
0000
0000
1001
0000
0000
0000
0000
0000
1001
0000
0000
0001
0000
0010
0000
0100
0000
,  // measure 28
0000
0000
1001
0000
0000
0000
0000
0000
0000
1000
0000
0000
0001
0000
0000
0000
0000
0000
1000
0000
0100
0000
0010
0000
,  // measure 29
0001
0000
1000
0000
0001
0000
1000
0000
0100
0001
0000
0100
1000
0000
0010
0001
0000
0010
0100
0000
0001
1000
0000
0100
,  // measure 30
0000
0000
0000
0000
0000
0000
0000
0000
0000
0000
0000
0000
0000
0000
0000
0000
0000
0000
0000
0000
0000
0000
0000
0000
0000
0000
0000
0000
0000
0000
0000
0000
0000
0000
0000
0000
0000
0000
0000
0000
0010
0000
0000
0000
0000
0000
0000
0000
0001
0000
0000
0000
0000
0000
0000
0000
0000
0000
0000
0000
0000
0000
0000
0000
0010
0000
0000
0000
0000
0000
0000
0000
0100
0000
0000
0000
0000
0000
0000
0000
0000
0000
0000
0000
0000
0000
0000
0000
0000
0000
0000
0000
0000
0000
0000
0000
1000
0000
0000
0000
0000
0000
0000
0000
0000
0000
0000
0000
0000
0000
0000
0000
0000
0000
0000
0000
0000
0000
0000
0000
0001
0000
0000
0000
0000
0000
0000
0000
0000
0000
0000
0000
0000
0000
0000
0000
0000
0000
1100
0000
0000
0000
0000
0000
0000
0000
0000
0000
0000
0000
0000
0000
0000
0000
0000
0000
0000
0000
0000
0000
0000
0000
0110
0000
0000
0000
0000
0000
0000
0000
0000
0000
0000
0000
0000
0000
0000
0000
0000
0000
0000
0000
0000
0000
0000
0000
0011
0000
0000
0000
0000
0000
,  // measure 31
0000
0000
0000
0000
0001
0000
1000
0000
0000
0100
0000
1000
0000
0000
0000
0000
0000
0000
0101
0000
0000
1010
0000
0002
,  // measure 32
0000
0000
0000
0000
0000
0000
0000
0000
0003
0000
0000
0000
1000
0000
0000
0100
0000
0000
0001
0000
0000
0000
0000
0000
0000
0000
0000
0000
0000
0000
0001
0000
0000
0100
0000
0000
2000
0000
0000
0000
0000
0000
3000
0000
0000
0000
0000
0000
,  // measure 33
1001
0000
0000
0000
1000
0100
0001
0100
1000
0100
0001
0100
1000
0100
0010
0001
,  // measure 34
1000
0010
0100
0000
0000
0000
0000
0000
1001
0000
0110
0000
0001
0000
1000
0000
,  // measure 35
0010
0101
0000
0001
0110
0100
1001
0101
,  // measure 36
0110
0000
1001
0000
0000
0000
1000
0100
2000
0010
3100
0001
2000
0001
3010
0100
,  // measure 37
2000
0010
3100
0001
2000
0000
3001
0100
0001
0100
0010
1000
0010
1000
0100
0010
,  // measure 38
0001
0000
0010
0000
0001
0000
0000
0000
0000
0000
0000
0000
0000
0000
0000
2000
0000
0010
0000
3001
0000
0010
0000
0100
0000
2000
0000
3200
0000
0320
0030
2000
,  // measure 39
3000
0100
0000
0020
0000
0000
0000
0030
0000
0000
0011
0000
0000
0000
0000
0000
0000
0000
0110
0000
0000
0000
0000
0000
2200
0000
3300
0000
0220
0000
0330
0000
,  // measure 40
0000
0101
0000
0011
1000
0000
0001
1000
,  // measure 41
0010
1000
0000
0010
0100
0000
0110
0011
,  // measure 42
0000
1000
0000
0010
1000
0000
0010
0100
,  // measure 43
0001
1000
0010
0100
1000
0001
0010
1000
,  // measure 44
0010
0001
0000
0000
0110
1010
0110
1010
,  // measure 45
0010
0011
1010
0110
0011
0110
0000
1001
,  // measure 46
0010
0001
0101
0100
0010
1000
1010
0100
,  // measure 47
1000
0000
0011
0000
0100
0000
0011
0000
1000
0000
0011
0000
1000
0100
1000
0010
,  // measure 48
1000
0100
0010
0000
0000
0000
0000
0000
0001
0010
0100
1000
0100
0001
0100
0001
,  // measure 49
0100
1000
0001
0100
1000
0100
0001
0100
1000
0001
0010
0000
0000
0000
0100
0000
,  // measure 50
1000
1000
1000
0110
0000
1001
0110
0000
,  // measure 51
0001
0100
0000
1000
0100
1000
1000
0001
,  // measure 52
0001
1000
0101
1100
0110
1001
0010
0100
,  // measure 53
0010
0000
0000
0000
0000
0000
0000
0000
0000
0000
0000
0000
0000
0000
0000
0000
0000
0000
0000
0000
0000
0000
0000
0000
1001
0000
0000
0000
0000
0000
0000
0000
0000
0000
0000
0000
0000
0000
0000
0000
0000
0000
0000
0000
0000
0000
0000
0000
0000
0000
0000
0000
0000
0000
0000
0000
0000
0000
0000
0000
0000
0000
0000
0000
0000
0000
0000
0000
0000
0000
0000
0000
1001
0000
0000
0000
0000
0000
0000
0000
0000
0000
0000
0000
0000
0000
0000
0000
0000
0000
0000
0000
0000
0000
0000
0000
0000
0000
0000
0000
0000
0000
0000
0000
0000
0000
0000
0000
0000
0000
0000
0000
0000
0000
0000
0000
0000
0000
0000
0000
0020
0030
0000
0000
0000
0000
0000
0000
0000
0000
0000
0000
0000
0000
0000
0000
0000
0000
0000
0000
0000
0000
0000
0000
2000
3000
0000
0000
0000
0000
0000
0000
0000
0000
0000
0000
0000
0000
0000
0000
0000
0000
0000
0000
0000
0000
0000
0000
0020
0030
0000
0000
0000
0000
0000
0000
0000
0000
0000
0000
0000
0000
0000
0000
0000
0000
0000
0000
0000
0000
0000
0000
,  // measure 54
0010
0100
1000
0100
0010
0000
0000
0000
0100
0010
0001
0010
0100
0000
0000
0000
,  // measure 55
0010
0100
1000
0100
0010
0000
0000
0000
0100
0010
0001
0010
0100
0000
0000
0000
,  // measure 56
0010
0100
1000
0100
0010
0000
0000
0000
1000
0100
0010
0100
1000
0000
0000
0000
,  // measure 57
0100
0010
0100
1000
0100
0000
0000
0000
0100
0010
0001
0010
0100
0000
0000
0000
,  // measure 58
0000
1100
1010
1100
1001
0000
0101
0011
,  // measure 59
1001
0000
1100
1010
1001
0000
0110
1001
,  // measure 60
0000
0001
1000
0101
0010
0000
0100
1001
,  // measure 61
0100
0000
1000
0101
0010
0000
0001
1001
,  // measure 62
0200
0000
0000
0001
0000
1000
0000
0001
,  // measure 63
0300
0000
0100
0000
0002
0203
0320
2030
3002
0023
0032
2003
3200
2300
3200
0320
,  // measure 64
0032
0013
0100
0000
0001
0100
0010
0001
1000
0000
0100
0010
1000
0010
0100
1000
,  // measure 65
0100
0010
0001
1000
0001
0100
0010
0000
2002
0000
3003
0000
0000
0000
0000
0000
;

//---------------dance-single - ----------------
#NOTES:
     dance-single:
     :
     Medium:
     12:
     0.566065,0.616228,0.343118,0.044273,0.110683,358.000000,327.000000,31.000000,4.000000,0.000000,0.000000,0.566065,0.616228,0.343118,0.044273,0.110683,358.000000,327.000000,31.000000,4.000000,0.000000,0.000000:
0000
0000
0000
0000
,
0000
0000
0000
1001
,
0000
1001
0000
0000
1001
0000
0000
1001
,
0000
0011
0110
1010
,
0000
0110
0000
0000
1000
0001
1000
0001
,
0010
0100
1000
0001
1000
1000
0000
0000
,
0010
0000
0100
0010
0100
0001
0000
0000
,
0001
0000
0010
0100
0010
0001
0000
0000
,
0010
0000
0100
0000
1000
0001
0000
0000
,
0010
0000
0100
0001
0010
0001
0000
0100
,
0010
0000
1000
0010
1000
0010
0000
0100
,
0001
0000
1000
0100
1000
0000
0100
0100
,
0000
0010
0010
0010
0000
1001
1001
0000
,
0000
1001
0110
0101
,
0001
1000
0000
0100
1000
0010
0100
0001
,
0010
1100
0110
0101
,
0010
1000
0000
0010
1000
0001
0100
0010
,
1000
0000
0001
0000
1000
0000
0010
0100
,
0000
0001
0000
1000
1000
0010
1000
0000
,
0010
0000
0100
0000
0001
0100
0000
0001
,
0000
1000
0000
0100
1000
0000
1100
0000
,
0011
0010
0100
1001
,
1000
0100
0000
1000
0100
1000
0100
0010
,
0100
0010
0001
0000
0100
0000
0001
0000
,
0100
0010
0000
0001
0010
0100
1000
0100
,
1000
1000
0010
1000
,
0010
1000
0000
0001
0100
0010
0100
0000
,
0001
0000
1000
0000
0001
0010
0000
0101
,
0000
1000
0000
0001
0100
0000
1001
0000
,
0000
0000
0000
0000
0000
0000
1000
0000
0000
0000
0000
0000
0010
0000
0000
0000
0000
0000
0100
0000
0000
0010
0000
0010
,
0000
0000
0000
0000
0000
0000
1000
0000
0000
0010
0000
0000
0100
0000
0000
0001
0000
0100
0000
0000
0000
0000
0000
0100
,
0000
0000
0000
0000
0000
0000
0010
0000
0000
0000
0000
1000
0000
0000
0000
0000
0000
0000
0010
0000
0000
0000
0000
0100
,
0000
0000
1000
0100
0010
0001
0000
0000
,
0110
0000
0000
0000
0001
0000
1000
0010
,
1000
0001
0000
0000
0100
0000
0010
0100
,
0000
1001
0000
0000
0100
0000
1000
0010
,
1000
0010
0000
1000
0100
1000
0010
0100
,
0001
1000
0100
0010
0001
1000
0010
0100
,
0001
0000
0000
0000
1000
0000
0000
0000
0000
0000
0000
0000
0000
0000
0000
0100
0000
0000
0000
1000
0000
0000
0000
0100
0000
0000
0000
1000
0000
0000
0000
0010
,
0000
0000
0000
0100
0000
0000
0000
0000
0000
0000
0000
0110
0000
0000
0000
0000
0000
0000
0000
0101
0000
0000
0000
0000
0000
0000
0000
0000
0000
0000
0000
0000
,
0000
2002
0000
0000
3003
0000
0110
0000
,
0010
0200
0000
0000
0000
0300
0001
0010
,
0000
0001
0000
0000
1000
0000
0010
0000
,
0000
0001
1000
0000
0100
0100
0000
1000
,
0000
1100
0000
0000
1000
0100
0010
0001
,
0000
1000
0100
0010
0001
1000
0000
0010
,
0100
0001
1000
0000
0100
0000
1000
0010
,
0100
0001
0000
1000
0010
1000
0000
0000
,
0000
0000
0000
0000
0100
1000
0010
1000
,
0001
0100
0010
1000
0100
0010
0000
0001
,
1000
0000
0010
0100
0000
0001
1000
0000
,
0100
0010
0000
0001
1000
0010
0100
0001
,
0001
1000
0100
1000
0100
1000
0000
1100
,
0000
1010
0000
1001
0000
0001
1000
0001
,
1000
0001
1000
0000
0100
1000
0100
0000
,
1000
0010
1000
0000
0010
0100
0010
0000
,
0100
0001
1000
0000
0010
0100
0001
0000
,
1000
0010
0100
0000
0001
1000
0010
0000
,
0000
1000
0100
1000
0100
0000
0010
0001
,
0010
0000
0100
1000
0100
0000
1000
0100
,
0000
0010
0001
0010
0100
0000
1000
0100
,
0010
0000
0001
0010
0100
0000
1000
0100
,
0002
0000
0000
0000
,
0000
0000
0000
0000
0000
0000
0000
0003
,
0000
1000
0000
0000
0010
0000
0000
0000
0100
0000
0000
0010
0000
1000
0000
1000
,
0000
0001
1000
0001
1000
0001
1000
0000
0001
0000
0000
0000
0000
0000
0000
0000
;

//---------------dance-single - ----------------
#NOTES:
     dance-single:
     :
     Easy:
     5:
     0.243503,0.543731,0.232435,0.243503,0.066410,154.000000,133.000000,21.000000,22.000000,0.000000,0.000000,0.243503,0.543731,0.232435,0.243503,0.066410,154.000000,133.000000,21.000000,22.000000,0.000000,0.000000:
0000
0000
0000
0000
,
0000
0000
0000
0000
,
0000
0000
0000
0000
,
0000
0000
0000
0000
,
0000
0000
0000
0000
,
0000
0000
0000
0000
0000
2000
0000
0000
,
0000
3000
0000
0000
0000
0020
0000
0000
,
0000
0000
0030
0000
0000
0200
0000
0000
,
0000
0000
0300
0000
0000
0020
0000
0000
,
0000
0030
0000
0000
0000
2000
0000
0000
,
0000
0000
3000
0000
0000
0020
0000
0000
,
0000
0030
0000
0000
0000
0000
1001
0000
,
0000
1001
0000
2002
,
3003
1000
0000
1000
,
0000
1000
0000
1000
,
1000
0010
0000
0010
,
0000
0010
0010
0010
,
0000
1000
0000
0010
,
0000
0010
0000
0000
0100
0000
0100
0000
,
0100
0000
0001
0000
0000
0001
0000
0000
,
0000
0001
0000
0000
0000
0000
1001
0000
,
1001
0001
0000
1000
,
0000
0010
0000
0000
0010
0000
0010
0000
,
0100
0001
0000
1000
,
0000
0010
0000
0000
0000
0000
0010
0000
,
0010
1000
0000
0001
,
0000
0100
0000
0000
0010
0000
0100
0000
,
0010
0000
1000
0000
0000
0001
0000
0000
,
0000
1000
0000
0000
1001
0000
1001
0000
,
0000
1000
0000
0000
,
0000
0010
0000
0000
,
0000
0000
0000
0000
0000
0000
1000
0000
0000
0000
0000
1000
0000
0000
0000
0000
0000
0000
0010
0000
0000
0000
0000
0010
,
0000
0000
1001
0000
0000
1001
0000
0000
,
2002
0000
0000
0000
0000
0000
0000
3003
,
0000
0000
1000
0010
,
0000
0100
0000
0000
0001
0000
1000
0000
,
0000
1001
0000
0000
1001
0000
0110
0000
,
1001
1100
0110
0011
,
0000
0000
0000
0000
1000
0000
0000
0000
0000
0000
0000
0000
0000
0000
0000
0001
0000
0000
0000
0000
0000
0000
0000
1000
0000
0000
0000
0000
0000
0000
0000
0000
,
0000
0000
0000
0010
0000
0000
0000
0000
0000
0000
0000
0010
0000
0000
0000
0000
0000
0000
0000
0010
0000
0000
0000
0000
0000
0000
0000
0000
0000
0000
0000
0000
,
0000
2000
0000
0000
3000
0000
0010
0000
,
0000
0010
0000
0000
0000
0000
0100
0000
,
0000
0100
0000
0000
0200
0000
0000
0300
,
0000
0000
0010
0000
0000
0010
0000
0010
,
0000
0010
0000
0000
1000
0000
0001
0000
,
0000
0000
1000
0000
0000
0100
0000
0000
,
1000
0010
0000
0010
,
0000
0100
0000
0000
0200
0000
0000
0300
,
0000
0000
1000
0010
,
0100
0001
1000
0010
,
0100
0001
0000
1000
,
0000
0020
0000
0000
0000
0030
0000
0000
,
0000
0000
1000
0000
0000
0010
0000
0000
,
0000
0010
0000
0000
0000
0020
0000
0030
,
1000
0000
0010
0000
,
0100
0000
0010
0000
,
1000
0000
0001
0000
,
1000
0000
0000
0000
0020
0030
0000
0000
,
0000
2001
0000
0000
0000
0000
0000
0000
,
0000
0000
3000
0000
,
0000
2000
0000
3000
0020
0000
0030
0000
,
0200
0300
0002
0003
,
2000
0000
0000
0000
,
0000
0000
3000
0000
,
0000
0001
0000
0000
0000
1000
0000
0000
0001
0000
0000
0000
0000
1000
0000
0000
,
0000
1001
0000
0000
0000
1001
0000
0000
1001
0000
0000
0000
0000
0000
0000
0000
;
