#TITLE:Viajes Johto;
#SUBTITLE:Pokemon Johto Opening Latino;
#ARTIST:Oscar Roa;
#TITLETRANSLIT:;
#SUBTITLETRANSLIT:;
#ARTISTTRANSLIT:;
#GENRE:;
#CREDIT:Magna Trick;
#BANNER:VJBN.jpg;
#BACKGROUND:VJBG.jpg;
#LYRICSPATH:;
#CDTITLE:Magna Trick title!.png;
#MUSIC:Viajes Johto.mp3;
#OFFSET:0.076700;
#SAMPLESTART:26.280001;
#SAMPLELENGTH:14.000000;
#SELECTABLE:YES;
#DISPLAYBPM:116.000000;
#BPMS:0.000000=116.099998
,83.500000=115.800003
;
#STOPS:
;
#BGCHANGES:0.125=Viajes Johto.avi=1.000=0=0=1=====,
116.500=VJBG.jpg=1.000=0=0=1=====,
99999=-nosongbg-=1.000=0=0=0 // don't automatically add -songbackground-
;
#KEYSOUNDS:;
#ATTACKS:;

//---------------dance-single - ----------------
#NOTES:
     dance-single:
     :
     Challenge:
     13:
     0.645828,0.658341,0.500517,0.581245,0.508590,280.000000,249.000000,31.000000,36.000000,0.000000,0.000000,0.645828,0.658341,0.500517,0.581245,0.508590,280.000000,249.000000,31.000000,36.000000,0.000000,0.000000:
// measure 0
0000
0000
0010
1000
0100
0000
0010
0001
0100
0000
0001
1000
0010
0000
0100
0000
,  // measure 1
0002
0000
0000
2003
0000
0000
3000
0000
0000
0000
1000
0001
0100
0000
0010
0000
,  // measure 2
1000
0000
0100
0010
0100
0000
1001
0000
0110
0000
0001
1000
0100
0000
0010
0000
,  // measure 3
0002
0000
0000
2003
0000
0000
3000
0000
0000
0000
1000
0001
0010
0000
0100
0000
,  // measure 4
2000
0000
0000
3001
0010
0100
1000
0010
1001
0000
0001
0010
1000
0001
0100
1000
,  // measure 5
0010
0000
0100
0002
0000
0000
2003
0000
0000
3000
0001
0100
1000
0100
0001
0010
,  // measure 6
1010
0000
0110
0000
0011
0000
0000
0000
0000
0000
1000
0010
0001
1000
0100
0001
,  // measure 7
0020
0000
0230
0000
2300
0000
3002
0000
0003
0000
0001
0100
1000
0000
0100
0010
,  // measure 8
1000
0100
0010
0000
1001
0000
0000
0000
0000
0000
1100
0000
0011
0000
0000
0000
,  // measure 9
0000
0000
0101
0000
1010
0000
0000
0000
0000
0000
0010
0000
1000
0001
1000
0010
,  // measure 10
0200
0302
2003
3020
0030
1010
0101
0000
,  // measure 11
0000
1100
0011
1000
0001
0100
2001
0000
,  // measure 12
3001
0000
1000
0000
0110
0000
1001
0000
0001
1000
0000
1000
0001
0010
0100
1000
,  // measure 13
0020
0000
0230
0000
0302
0000
1003
0100
,  // measure 14
0001
0000
0100
1000
0010
0000
0001
0000
2000
0000
0000
3200
0000
0000
1300
0100
,  // measure 15
0002
0000
0023
0000
0230
0000
1300
0010
,  // measure 16
0100
0000
0001
0010
1000
0000
0010
0000
0002
0000
0000
2003
0000
0000
3001
0010
,  // measure 17
0011
0000
0000
0000
1100
0000
0000
0000
1001
0000
0000
0000
0010
0000
1000
0010
,  // measure 18
1000
0000
0001
0100
0000
0020
0000
0000
2030
0000
0000
3000
0001
0000
1000
0000
,  // measure 19
2100
0000
3000
0000
0001
0000
0100
0000
0010
0100
1000
0001
0010
1000
0001
0100
,  // measure 20
2002
0000
0000
3003
0000
0000
1000
0100
0010
0000
0001
1000
0000
0200
0000
0300
,  // measure 21
0010
0000
0001
0010
0100
0000
0001
0000
0100
0000
1000
0001
1000
0000
0110
0000
,  // measure 22
1001
0000
1000
0100
0010
0000
0001
0000
0100
0000
0001
0010
0001
0000
1000
0000
,  // measure 23
0100
0000
0010
0100
1000
0000
0001
0000
0100
0000
0010
1000
0010
0000
0110
0000
,  // measure 24
1001
0000
0010
0100
1000
0000
0100
0000
0010
0000
0001
1000
0001
0000
0100
0000
,  // measure 25
0010
0000
1000
0010
0001
0000
0010
0000
1000
0000
0001
0010
0001
0000
0110
0000
,  // measure 26
1001
0000
1000
0010
0100
0000
0001
0000
0100
0000
0010
1000
0010
0000
0100
0000
,  // measure 27
0001
0000
1000
0100
0001
0000
0100
0000
1000
0000
0001
1000
0002
0000
2003
0000
,  // measure 28
3001
0000
0100
0010
1000
0000
0010
0000
0001
0000
0010
1000
0100
0000
0110
0000
,  // measure 29
2002
3003
0000
0000
0000
0000
0000
0000
;

//---------------dance-single - ----------------
#NOTES:
     dance-single:
     :
     Hard:
     10:
     0.565099,0.540780,0.290623,0.791139,0.411715,245.000000,227.000000,18.000000,49.000000,0.000000,0.000000,0.565099,0.540780,0.290623,0.791139,0.411715,245.000000,227.000000,18.000000,49.000000,0.000000,0.000000:
0000
0000
0000
0000
0000
0000
0000
0000
0000
0000
0001
1000
0001
0000
0100
0000
,
0002
0000
0000
2003
0000
0000
3000
0000
0000
0000
1000
0001
1000
0000
0010
0000
,
1000
0000
0100
0010
0100
0000
0020
0000
0032
0000
1003
0010
1000
0000
0001
0000
,
0002
0000
0000
2003
0000
0000
3000
0000
0000
0000
0100
0010
0100
0000
1000
0000
,
2000
0000
0000
3002
0000
0000
0003
0000
0000
0000
0001
0010
0001
0010
0100
1000
,
0100
0000
0010
0002
0000
0000
2003
0000
0000
3000
0001
0100
0001
0100
0010
1000
,
0002
0003
2000
3000
0110
0000
0000
0000
0000
0000
0010
0100
0010
0100
0001
1000
,
0020
0000
0230
0000
0302
0000
2003
0000
3000
0000
0001
0100
0001
0000
0100
0010
,
0100
0010
0100
0000
1001
0000
0000
0000
0000
0000
1100
0000
0011
0000
0000
0000
,
0000
0000
0101
0000
1010
0000
0000
0000
0000
0000
0010
0000
1000
0001
1000
0001
,
0200
0302
2003
3020
0030
1010
0101
0000
,
0000
1100
0011
1000
0001
0100
2001
0000
,
3001
1000
0020
0230
0300
0000
0001
0100
,
0020
0000
0230
0000
0302
0000
1003
0100
,
0001
0000
0100
1000
0100
0000
0010
0000
0002
0000
0000
0203
0000
0000
0310
1000
,
0020
0000
2030
0000
3200
0000
1300
0010
,
0100
0000
0001
0010
0001
0000
0010
0000
0002
0000
0000
2003
0000
0000
3001
0010
,
0100
0000
0000
0000
1100
0000
0000
0000
1001
0000
0000
0000
0010
0000
1000
0010
,
1000
0000
0001
0100
0000
0020
0000
0000
2030
0000
0000
3000
0001
0000
0010
0000
,
0200
0300
1000
0010
0101
0000
1100
0000
,
2002
0000
0000
3003
0000
0000
0001
0010
0001
0000
1000
0001
0000
0020
0000
0030
,
0100
0000
1000
0100
1000
0000
0001
0000
0010
0000
0001
1000
0001
0000
0020
0000
,
0230
0000
1300
0001
1000
0000
0010
0000
0100
0000
0001
1000
0001
0000
0010
0000
,
0100
0000
1000
0010
1000
0000
0100
0000
0010
0000
0001
0010
0001
0000
0200
0000
,
0320
0000
1030
0100
1000
0000
0010
0000
0100
0000
0001
0100
0001
0000
0010
0000
,
0100
0000
0010
0100
0010
0000
0100
0000
0010
0000
0100
0010
0100
0000
2000
0000
,
3002
0000
0013
1000
0010
0000
0100
0000
0010
0000
0100
0001
0100
0000
1000
0000
,
0001
0000
0010
0100
0010
0000
0100
0000
1000
0000
0001
1000
0002
0000
2003
0000
,
3010
0000
0100
0001
1000
0000
0100
0000
0010
0000
0001
1000
0010
0000
0110
0000
,
2002
3003
0000
0000
0000
0000
0000
0000
;

//---------------dance-single - ----------------
#NOTES:
     dance-single:
     :
     Medium:
     6:
     0.357512,0.330583,0.016146,0.226040,0.129166,155.000000,154.000000,1.000000,14.000000,0.000000,0.000000,0.357512,0.330583,0.016146,0.226040,0.129166,155.000000,154.000000,1.000000,14.000000,0.000000,0.000000:
0000
0000
0000
0000
,
0000
0000
0000
0000
,
0000
0001
1000
0010
0100
0001
1000
0001
,
1000
0000
0000
0001
0000
0000
0000
0000
0000
0000
0010
0000
0001
0000
0010
0000
,
0001
0000
0000
1000
0000
0000
0000
0000
0000
0000
1000
0000
0100
0000
1000
0000
,
0100
1000
0100
0010
0000
0001
0010
0001
,
0010
0100
0100
0000
0000
1000
0001
1000
,
0001
1000
0010
0010
0000
0100
0001
0100
,
0001
1000
1000
0000
0000
0010
1000
0000
,
0000
0001
0100
0000
0000
0001
0010
1000
,
0010
0001
1000
0010
0000
0010
0010
0000
,
0000
0100
0100
0001
0100
1000
0100
0000
,
1000
0100
0001
0010
0000
0000
0001
1000
,
0020
0000
0230
0000
0302
0000
1003
0100
,
0010
0000
0001
1000
0001
0000
1000
0000
0010
0000
0000
0100
0000
0000
0000
0000
,
0002
0000
0203
0000
0320
0000
1030
0001
,
1000
0000
0001
0010
0001
0000
0010
0000
0100
0000
0000
1000
0000
0000
0000
0000
,
0002
0000
0000
0000
2003
0000
0000
0000
3020
0000
0000
0000
0030
0000
0100
0001
,
0100
0010
1000
0001
0010
0000
0100
1000
,
0100
0000
0000
0000
0010
0000
0001
0000
0020
0000
0000
0030
0200
0000
0000
0000
,
2300
0000
0000
3000
0000
0000
0000
0000
0001
0000
1000
0010
0000
0100
0000
0000
,
0000
0000
0001
0000
1000
0000
0001
0000
1000
0000
0000
0001
0000
0000
0000
0000
,
0000
0000
1000
0000
0001
0000
1000
0000
0001
0000
0000
1000
0000
0000
0000
0000
,
0000
0000
0010
0000
0100
0000
0010
0000
0100
0000
0000
0010
0000
0000
0000
0000
,
0000
0000
0100
0000
0010
0000
0100
0000
0010
0000
0000
0100
0000
0000
0000
0000
,
0000
0000
0001
0000
0100
0000
0010
0000
1000
0000
0000
0001
0000
0000
0000
0000
,
0000
0000
1000
0000
0100
0000
0010
0000
0001
0000
0000
1000
0000
0000
0000
0000
,
0000
0000
0010
0000
0100
0000
0001
0000
1000
0000
0000
0100
0000
0000
0000
0000
,
0000
0001
0001
0001
0001
0100
0010
1000
,
2002
3003
0000
0000
;

//---------------dance-single - ----------------
#NOTES:
     dance-single:
     :
     Easy:
     1:
     0.202974,0.212518,0.016146,0.193748,0.000000,88.000000,87.000000,1.000000,12.000000,0.000000,0.000000,0.202974,0.212518,0.016146,0.193748,0.000000,88.000000,87.000000,1.000000,12.000000,0.000000,0.000000:
0000
0000
0000
0000
,
0000
1000
0000
0001
,
0000
0010
0010
0001
,
0000
1000
0000
0010
,
0000
0100
0001
1000
,
1000
1000
0000
0001
,
0001
0010
0000
0100
,
0100
1000
0000
0010
,
0100
0001
0000
1000
,
0000
0001
0000
0010
,
0010
0010
0000
0100
,
0000
1000
0001
0001
,
0100
0010
0000
1000
,
0002
0023
0230
2300
,
3010
0100
0001
1000
,
0200
0320
0032
2003
,
3010
0100
0100
0100
,
0001
0000
0001
0000
2000
0000
0000
3000
,
0001
0001
0010
0100
,
1000
1000
0001
0100
,
0020
0030
0000
0000
,
0100
0001
0001
0001
,
0000
1000
1000
1000
,
0000
0010
0010
0010
,
0000
0100
0100
0100
,
0000
0001
0001
0001
,
0000
1000
1000
1000
,
0000
0010
0010
0010
,
0000
0100
0100
0001
,
2002
3003
0000
0000
;
