#TITLE:Viajemos a la ciudad!;
#SUBTITLE:Sakura Card Captor Ending 1 Latino;
#ARTIST:Marcia Peņa;
#TITLETRANSLIT:;
#SUBTITLETRANSLIT:;
#ARTISTTRANSLIT:;
#GENRE:;
#CREDIT:;
#BANNER:VALCBN.jpg;
#BACKGROUND:VALCBG.jpg;
#LYRICSPATH:;
#CDTITLE:cdtitleitachi.png;
#MUSIC:Ending Sakura Card Captor (Espaņol Latino) con letra Pandatio.ogg;
#OFFSET:0.200000;
#SAMPLESTART:46.209999;
#SAMPLELENGTH:14.000000;
#SELECTABLE:YES;
#DISPLAYBPM:122.000000;
#BPMS:0.000000=123.000000
,51.000000=122.000000
,70.000000=124.000000
,71.000000=123.000000
,93.000000=124.000000
,94.000000=123.000000
,102.000000=121.000000
,103.000000=123.000000
;
#STOPS:
;
#BGCHANGES:0.063=Sakura Card Captors Ending 1 (Espaņol Latino).avi=1.000=0=0=1=====,
135.000=VALCBG.jpg=1.000=0=0=1=====,
99999=-nosongbg-=1.000=0=0=0 // don't automatically add -songbackground-
;
#KEYSOUNDS:;
#ATTACKS:;

//---------------dance-single - ----------------
#NOTES:
     dance-single:
     :
     Challenge:
     10:
     0.404523,0.691979,0.324021,0.309933,0.007044,201.000000,178.000000,23.000000,22.000000,0.000000,0.000000,0.404523,0.691979,0.324021,0.309933,0.007044,201.000000,178.000000,23.000000,22.000000,0.000000,0.000000:
// measure 0
0000
0000
0000
0000
0000
0000
1000
0100
,  // measure 1
0010
0000
0001
0010
0000
1001
0000
0001
,  // measure 2
0010
0000
0100
1000
0001
1000
0010
0010
,  // measure 3
0100
0100
0001
0010
0001
2002
0000
0000
,  // measure 4
3003
0000
1001
0000
0110
0000
0000
1000
,  // measure 5
0100
1000
0010
0100
0001
1000
0000
0100
,  // measure 6
1000
0100
1000
0010
1000
0010
0000
0100
,  // measure 7
0010
0100
0010
1000
0100
0020
0001
0030
,  // measure 8
0000
0001
0000
1000
0010
1000
0000
0001
,  // measure 9
1000
0000
0000
0100
1000
0010
0000
0100
,  // measure 10
0001
0000
0000
0000
1000
0100
0000
1000
,  // measure 11
0010
0000
0000
0200
0300
0000
0001
0010
,  // measure 12
0100
1000
0000
0020
0000
0030
0001
1000
,  // measure 13
0100
0010
0001
1000
0010
0100
0000
0001
,  // measure 14
1000
0001
0010
0100
1000
0001
0000
1000
,  // measure 15
0100
1000
0010
0100
0001
0020
0100
0000
,  // measure 16
0030
0100
0000
0010
0001
0100
0000
0010
,  // measure 17
0100
0000
0000
0001
0010
0002
0000
0000
,  // measure 18
1003
0020
0000
0200
,  // measure 19
0000
0030
0002
0000
0300
0000
1000
0000
,  // measure 20
1003
1000
0000
0010
0000
0200
0000
0000
,  // measure 21
0000
0000
0000
0000
0300
0000
0001
0000
0000
0010
0000
0000
0200
0000
0000
0000
,  // measure 22
0000
0000
0300
0000
0000
2002
3003
0000
,  // measure 23
2002
3003
1001
0000
0110
0000
0010
0100
,  // measure 24
0001
1000
0100
0010
0000
1001
0000
0010
,  // measure 25
0100
0001
0010
0100
0000
0000
0001
0010
,  // measure 26
0001
1000
0100
1000
0010
0100
0000
0010
,  // measure 27
0100
0010
0000
1000
0100
0000
1000
0010
,  // measure 28
0100
0001
1000
0100
0000
0010
0000
0001
,  // measure 29
1000
0010
1000
0010
0000
0000
0100
0001
,  // measure 30
1000
0100
0010
0100
0010
0002
0000
0013
,  // measure 31
0010
0002
0003
0000
1000
0100
0010
0110
,  // measure 32
1001
1001
0101
0101
0011
0011
0110
0110
,  // measure 33
1100
1100
0110
0000
2002
3003
0220
0330
;

//---------------dance-single - ----------------
#NOTES:
     dance-single:
     :
     Medium:
     5:
     0.221381,0.239494,0.056352,0.211318,0.000000,110.000000,106.000000,4.000000,15.000000,0.000000,0.000000,0.221381,0.239494,0.056352,0.211318,0.000000,110.000000,106.000000,4.000000,15.000000,0.000000,0.000000:
0000
0000
0000
1000
,
0000
1000
0000
1000
,
0000
0000
0000
0010
,
0000
0000
0010
0000
0010
0020
0000
0000
,
0030
1000
0001
1000
,
0010
0000
0100
0001
0100
0001
0000
0000
,
1000
0000
0010
0000
0100
0010
0000
0000
,
1000
0000
0001
1000
0001
2000
0000
3000
,
0000
0000
0000
0000
0000
0010
0000
0010
,
0010
0000
0000
0000
0000
0100
0000
0100
,
0100
0000
0000
0000
0000
0010
0000
0010
,
0010
0000
0000
2000
3000
0000
0010
0000
,
0000
0100
0000
0200
0300
0000
0010
0000
,
1000
0000
0010
0000
0000
0010
0000
0000
,
0100
0000
0001
0000
0000
0001
0000
0000
,
1000
0000
0100
0000
0000
0200
0300
0000
,
0000
0000
0000
1000
1000
1000
0000
1000
,
1000
0000
0000
0010
0010
0010
0000
0000
,
0010
0100
0000
0200
,
0000
0000
0000
0300
0000
0000
0010
0000
,
0000
0010
0000
1000
0000
0002
0000
0000
,
0000
0003
0000
1000
0000
0000
0020
0000
,
0000
0000
0030
0000
0000
2002
0000
3003
,
0000
1000
0010
1000
,
0001
1000
0010
0100
,
0001
1000
0000
0010
,
0100
0000
0001
0100
0001
0100
0000
0001
,
0100
0002
0000
0003
0000
0000
1000
0000
,
0100
0000
1000
0100
0000
1000
0000
0000
,
0010
0000
0100
0001
0000
0000
1000
0000
,
0100
0000
1000
0000
0010
0100
0000
0010
,
0100
0010
0000
0000
0000
0000
1000
0000
,
0001
1000
0001
2002
,
0000
3003
0110
2002
,
3003
0000
0000
0000
;

//---------------dance-single - ----------------
#NOTES:
     dance-single:
     :
     Hard:
     7:
     0.348172,0.359241,0.253582,0.197230,0.007044,173.000000,155.000000,18.000000,14.000000,0.000000,0.000000,0.348172,0.359241,0.253582,0.197230,0.007044,173.000000,155.000000,18.000000,14.000000,0.000000,0.000000:
0000
0000
0000
1001
,
0110
1001
0000
0110
,
1001
1001
0000
0110
,
1001
0000
0001
1000
0001
2000
0000
0000
,
3000
0000
0110
0000
0101
0000
0000
0001
,
1000
0010
1000
0010
1000
0010
0000
0100
,
0001
0100
0001
0100
0001
0100
0000
0010
,
0100
0010
0100
0010
0100
0020
0000
0030
,
0000
0000
0000
1000
0001
1000
0000
0100
,
1000
0000
0000
0010
0100
0001
0000
0100
,
0001
0000
0000
0000
1000
0010
0000
1000
,
0010
0000
0000
2000
0000
3000
0010
0000
,
0100
0100
0000
0010
0010
0000
0000
0001
,
1000
0001
1000
0001
1000
0001
0000
0100
,
0001
0100
0001
0100
0001
0100
0000
0010
,
0100
0010
0100
0010
0100
0020
0000
0000
,
0030
0000
0000
1000
0100
1000
0000
0010
,
1000
0000
0000
0010
0100
0020
0000
0030
,
0100
0100
0000
0020
,
0000
0000
0000
0030
0000
0000
1000
0000
,
0001
1000
0000
0001
0000
2000
0000
0000
,
0000
0000
3000
0000
0000
0000
0010
0000
0000
0100
0000
0000
2002
0000
0000
0000
,
0000
0000
3003
0000
0000
0220
0000
0330
,
0000
0000
1001
0000
0110
0000
0001
1000
,
0001
1000
0010
1000
0000
0010
0000
0100
,
0001
0100
0001
0100
0000
0000
0100
1000
,
0100
1000
0010
1000
0010
0100
0000
0010
,
0100
0020
0000
0030
0000
0000
1000
0100
,
1000
0100
1000
0001
0000
0100
0000
0001
,
0100
0001
0100
0010
0000
0000
1000
0001
,
1000
0100
1000
0100
0010
0100
0000
0010
,
0001
0010
0000
0000
0001
1000
0001
0000
,
1000
0010
0100
1001
,
0110
1001
0010
0220
,
0330
0000
0000
0000
;

//---------------dance-single - ----------------
#NOTES:
     dance-single:
     :
     Easy:
     2:
     0.134841,0.263443,0.070439,0.295845,0.007044,67.000000,62.000000,5.000000,21.000000,0.000000,0.000000,0.134841,0.263443,0.070439,0.295845,0.007044,67.000000,62.000000,5.000000,21.000000,0.000000,0.000000:
0000
0000
0000
0000
,
0000
0000
0000
0000
,
0000
0000
0000
0000
,
0000
0000
0000
0000
,
0000
0000
0000
1000
,
0000
0000
0000
1000
,
0000
0000
0000
0001
,
0000
0000
0000
0001
,
0000
0000
0000
0000
0000
0002
0000
0000
,
0000
0003
0000
0000
0000
0000
0000
2000
,
0000
3000
0000
0000
0010
0000
0000
0000
,
0000
0000
0000
0020
0030
0000
0010
0000
,
0000
0010
0000
0020
0000
0030
0000
0000
,
1000
1000
2000
3000
,
0010
0010
0010
0000
,
0100
0000
0100
0000
0000
0200
0000
0000
,
0300
0000
0000
0000
0000
0020
0000
0000
,
0030
0000
0000
0000
0000
0200
0000
0300
,
0100
0200
0300
0200
,
0000
0000
0000
0300
0000
0000
0010
0000
,
0000
0010
0000
0010
0000
0020
0000
0000
,
0000
0000
0030
0000
0000
0000
0010
0000
0000
0010
0000
0000
0020
0000
0000
0000
,
0000
0000
0000
0030
0000
0020
0030
0000
,
2002
3003
1001
0000
1001
0000
1000
0000
,
1000
1000
0000
0010
,
0010
0010
0000
1000
,
1000
0000
1000
0000
0000
1000
0000
0000
,
0000
2000
0000
3000
0000
0000
0010
0000
,
0100
0000
0010
0000
0000
1000
0000
0000
,
0001
2000
3000
0010
,
0100
0000
0010
0000
0000
0100
0000
0000
,
0000
0200
0000
0300
0010
0000
2000
0000
,
0000
0000
0000
0000
0000
3000
0000
0000
,
0000
0000
1001
2002
,
3003
0000
0000
0000
;
