#TITLE:Unravel;
#SUBTITLE:Tokyo Ghoul Opening 1;
#ARTIST:PelleK;
#TITLETRANSLIT:;
#SUBTITLETRANSLIT:;
#ARTISTTRANSLIT:;
#GENRE:;
#CREDIT:Magna Trick;
#BANNER:UNBN.jpg;
#BACKGROUND:UNBG.jpg;
#LYRICSPATH:;
#CDTITLE:Magna Trick title!.png;
#MUSIC:Unravel.mp3;
#OFFSET:0.029323;
#SAMPLESTART:1.000000;
#SAMPLELENGTH:14.000000;
#SELECTABLE:YES;
#BPMS:0.000000=135.000000
,0.500000=67.500000
,9.500000=135.000000
,54.000000=270.000000
,62.000000=135.000000
,66.000000=202.500000
,70.500000=405.000000
,73.500000=270.000000
,105.500000=135.000000
,136.000000=270.000000
,142.000000=135.000000
,174.000000=270.000000
,214.000000=135.000000
;
#STOPS:123.000000=0.667000,
136.000000=0.444000
;
#BGCHANGES:0.063=Unravel.avi=1.000=0=0=1=====,
225.750=UNBG.jpg=1.000=0=0=1=====,
99999=-nosongbg-=1.000=0=0=0 // don't automatically add -songbackground-
;
#KEYSOUNDS:;
#ATTACKS:;

//---------------dance-single - ----------------
#NOTES:
     dance-single:
     :
     Challenge:
     17:
     0.746822,1.004484,0.166489,0.366276,0.738102,471.000000,456.000000,15.000000,33.000000,0.000000,0.000000,0.746822,1.004484,0.166489,0.366276,0.738102,471.000000,456.000000,15.000000,33.000000,0.000000,0.000000:
// measure 0
0000
0000
0000
0000
0000
0001
0020
0030
0100
0000
1000
0002
0003
0200
0300
0100
,  // measure 1
0000
0010
0100
0020
0030
0100
0002
0000
0003
1000
0200
0000
0310
0002
0000
0003
,  // measure 2
0000
0000
0000
0000
0000
0000
0001
0000
2000
0000
0000
3000
0010
0000
2000
0000
,  // measure 3
0000
3000
0100
0000
2000
0000
0001
3100
0001
0000
0010
0000
0100
0000
1000
0000
,  // measure 4
0000
0000
0001
0000
0000
0000
1000
0000
0200
0000
0000
0300
0001
0000
0200
0000
,  // measure 5
0000
0300
0010
0000
0200
0000
1000
0301
1000
0000
0010
0000
0100
0000
0001
0000
,  // measure 6
0000
0000
1000
0000
0000
0000
0001
0000
2001
0000
0000
0000
3002
0000
1000
0103
,  // measure 7
1000
0200
0000
0310
1001
0200
0000
0301
,  // measure 8
1000
0002
0000
0103
0120
0000
0030
0010
,  // measure 9
0100
0000
1000
0000
0100
0000
0002
0000
1000
0000
0103
0010
0000
0010
0100
0000
,  // measure 10
1000
0000
0000
0001
0000
0000
1000
0000
0002
0000
0000
0003
0100
0000
0002
0000
,  // measure 11
0000
0003
0010
0000
0002
0000
0000
0000
1000
0003
0100
1000
0000
1000
0100
0000
,  // measure 12
0010
0000
0000
0001
0000
0000
0100
0000
1001
0000
0000
0000
1000
0001
1000
0001
,  // measure 13
1000
0001
0010
0100
1000
0001
1000
0001
1001
0000
0001
0000
0000
0000
1000
0000
,  // measure 14
0000
0001
1000
0000
1001
1000
0000
0010
,  // measure 15
0100
0000
0001
0000
1000
0000
0010
0000
0100
0001
0010
0100
0001
0100
0010
0001
,  // measure 16
1000
0000
0010
0000
0100
0000
1000
0000
0100
0000
0001
0000
1000
0000
0100
0000
0010
0000
0000
0001
0000
0000
0000
0000
0000
1000
0000
0000
0000
0000
0000
0001
,  // measure 17
0000
0000
0100
0000
0000
0000
0000
0000
0010
0000
0000
1000
0000
0000
0100
0000
0000
0010
0000
0000
0002
0000
0000
0000
0000
0000
0000
0000
0000
0000
0000
0000
,  // measure 18
0000
0000
0000
0000
0000
0000
0000
0000
0000
1003
0000
0010
0000
1000
0000
0010
0000
0000
0100
0000
0000
0001
0000
0000
,  // measure 19
0100
0000
0000
1000
0000
0000
0100
0000
0000
0001
0000
1000
0000
0001
0000
1000
0000
0000
0100
0000
0000
0010
0000
0001
,  // measure 20
0000
0010
0000
0001
0000
0000
1000
0000
0000
0010
0000
0100
0000
0010
0000
0100
0000
0000
0001
0000
0000
0010
0000
0000
,  // measure 21
1000
0000
0000
0010
0000
0000
0100
0000
0000
0010
0000
0001
0000
0010
0000
0001
0000
0000
0100
0000
0000
0010
0000
1000
,  // measure 22
0000
0010
0000
1000
0000
0000
0001
0000
0000
0100
0000
0000
1000
0000
0000
0100
0000
0000
0001
0000
0000
1000
0000
0000
,  // measure 23
0100
0000
0000
0010
0000
0000
0001
0000
0000
1000
0000
0010
0000
1000
0000
0010
0000
0000
0100
0000
0000
0001
0000
0010
,  // measure 24
0000
0001
0000
0010
0000
0000
0100
0000
0000
1000
0000
0000
0100
0000
0000
0001
0000
0000
0100
0000
0000
1000
0000
0000
,  // measure 25
0010
0000
0000
0100
0000
0000
0001
0000
0000
1000
0000
0100
0000
1000
0000
0100
0000
0010
0000
0001
0000
0010
0000
0001
,  // measure 26
0000
0000
1000
0000
0000
0000
0010
0000
0000
0000
0000
0000
0000
0000
0000
0000
0000
0000
0100
0000
0000
0001
0000
0000
0000
0000
0000
1000
0000
0000
0000
0000
0000
0000
0000
0000
0010
0000
0000
0000
0000
0000
0100
0000
0000
0010
0000
0000
,  // measure 27
0000
1000
0001
0000
0010
0000
1002
0000
0000
0103
0000
0000
2001
0000
3000
0000
,  // measure 28
0000
0000
0010
0000
0100
0000
2001
0000
0000
3010
0000
0000
1002
0000
0000
0003
,  // measure 29
0000
0000
0010
0001
1000
0000
0100
0000
0000
0010
0000
0000
1002
0000
0000
0000
,  // measure 30
0013
0000
0000
0000
0000
0000
0000
0000
1000
0000
0001
0000
0200
0000
0000
0000
0000
0000
0000
0000
0300
0000
0000
0000
0020
0030
0000
0000
1000
0000
0000
0000
,  // measure 31
0010
0000
1000
0001
0000
0000
0100
0000
0010
0000
0100
0001
0000
0000
0001
0000
,  // measure 32
1000
0000
0100
0010
0000
0000
0010
0000
0100
0000
1000
0001
0000
0000
0001
0000
,  // measure 33
0100
0000
0000
0000
0000
0000
0010
0000
0000
0100
0000
0000
0000
0000
0000
0000
0000
0000
0001
0000
0000
0000
0000
0000
1000
0000
0000
0000
0000
0000
0100
0000
0000
0010
0000
0000
0001
0000
1000
0000
0001
0000
1000
0000
0001
0000
0000
0000
,  // measure 34
1001
0000
0010
0000
1000
0001
1000
0001
,  // measure 35
0100
0000
0000
0000
0000
0000
0000
0000
1001
0000
0010
0100
0000
0001
0100
0000
,  // measure 36
0010
0000
1000
0100
0000
0010
0100
0000
1000
0000
0001
0100
0000
0010
1000
0000
,  // measure 37
0001
1000
0100
0001
0100
1000
0001
0100
1000
0000
0100
0001
0000
0010
0001
0000
,  // measure 38
1000
0000
0010
0100
0000
0010
1000
0000
0001
0000
1000
0100
0000
1000
0001
0000
,  // measure 39
0010
0000
0100
0000
1000
0001
0100
0001
0100
0000
0010
1000
0000
0001
1000
0000
,  // measure 40
0100
0000
0010
0000
0001
0010
0100
0010
0001
0000
1000
0010
0000
0100
0001
0000
,  // measure 41
1000
0000
0010
0000
1000
0000
0010
0000
0000
0100
0000
0000
1000
0000
0000
0100
0000
0000
0001
0000
0000
0010
0000
0000
0100
0000
0000
0000
0000
0000
1000
0000
0000
0100
0000
0000
0000
0000
0000
0010
0000
0000
0001
0000
0000
0000
0000
0000
,  // measure 42
1000
0000
0001
0100
1000
0001
0010
1000
0001
0000
0010
0100
0000
1000
0010
0000
,  // measure 43
0100
0000
0001
0000
0010
1000
0010
0001
0100
0000
0000
0000
0100
0000
0001
0000
,  // measure 44
0000
1000
0100
0000
0010
0000
1000
0010
,  // measure 45
0000
0100
1000
0000
0001
0000
0100
0010
,  // measure 46
0000
0001
0010
0000
1000
0000
0100
0000
,  // measure 47
0010
1000
0010
0100
1000
0000
0001
1000
,  // measure 48
0000
0010
0100
0000
0001
0000
0100
1000
,  // measure 49
0000
0001
0010
1000
0010
0000
0100
0001
,  // measure 50
0000
1000
0100
0000
0010
0000
1000
0000
,  // measure 51
0010
0100
0001
0100
1000
0000
0010
1000
,  // measure 52
0000
0100
0010
0000
0001
0000
0010
0000
,  // measure 53
0100
1000
0010
0001
0110
0000
1000
0001
,  // measure 54
1001
0000
1000
0000
0000
0000
2000
0000
3100
0010
0001
1000
0100
0010
0001
1000
,  // measure 55
0100
0010
0001
1000
0100
0001
0100
0010
0100
1000
0100
0010
0001
0010
1000
0010
,  // measure 56
0001
0100
0010
1000
0100
0010
0001
0200
0000
0300
0000
0000
0000
0000
0000
0000
;

//---------------dance-single - ----------------
#NOTES:
     dance-single:
     :
     Hard:
     14:
     0.585090,1.004484,0.099893,0.521666,0.443971,369.000000,360.000000,9.000000,47.000000,0.000000,0.000000,0.585090,1.004484,0.099893,0.521666,0.443971,369.000000,360.000000,9.000000,47.000000,0.000000,0.000000:
0000
0000
0000
0000
0000
1000
0200
0300
0010
0000
0001
2000
3000
0020
0030
0010
,
0000
0100
0010
0200
0300
0010
2000
0000
3000
0001
0020
0000
0130
2000
0000
3000
,
0000
0000
0000
0000
0000
0000
1000
0000
0002
0000
0000
0003
0100
0000
0002
0000
,
0000
0003
0010
0000
0002
0000
0000
0003
0000
0000
0000
0000
0000
0000
0000
0000
,
0000
0000
0000
0000
0000
0000
0001
0000
0020
0000
0000
0030
1000
0000
0020
0000
,
0000
0030
0100
0000
0020
0000
0000
0030
0000
0000
0000
0000
0000
0000
0000
0000
,
0000
0000
0000
0000
0000
0000
1000
0000
0002
0000
0000
0000
2003
0000
0000
3000
,
0001
0020
0000
0130
0000
2000
0000
3001
,
0100
0000
0020
0000
0000
0000
1030
0000
0200
0000
0000
0300
0000
0000
0100
0000
,
0020
0000
0000
0030
0001
0000
2000
0000
0000
0000
3000
0000
0000
0000
0000
0000
,
0000
0000
0000
0000
0000
0000
0001
0000
2000
0000
0000
3000
0010
0000
2000
0000
,
0000
3000
0100
0000
2000
0000
0000
0000
0000
3000
0000
0000
0000
0000
0000
0000
,
0000
0000
0000
0000
0000
0000
0100
0000
1001
0000
0000
0000
0001
1000
0001
1000
,
0001
1000
0001
1000
0001
1000
0001
1000
0001
0000
1000
0000
0000
0000
0001
0000
,
0000
1000
0001
0000
1000
0001
0000
0100
,
0010
0000
1000
0000
0001
0000
0100
0000
0010
1000
0100
0010
0001
1000
0100
0010
,
0001
0000
1000
0000
0100
0000
0010
0000
0001
0000
1000
0000
0001
0000
0010
0000
0100
0000
0000
1000
0000
0000
0000
0000
0000
0001
0000
0000
0000
0000
0000
1000
,
0000
0000
0010
0000
0000
0000
0000
0000
0100
0000
0000
0001
0000
0000
0010
0000
0000
0100
0000
0000
2000
0000
0000
0000
0000
0000
0000
0000
0000
0000
0000
0000
,
0000
0000
0000
3001
0100
0001
0100
0010
,
0000
1000
0000
0010
0100
0010
0100
0001
,
1000
0100
1000
0100
0010
0001
1000
0100
,
0000
0010
0000
0100
1000
0001
1000
0010
,
0100
0001
1000
0010
0100
0010
1000
0001
,
0000
1000
0000
0001
0100
0001
0100
0010
,
1000
0100
1000
0100
0010
0001
0100
0010
,
0000
1000
0000
0100
0010
0001
1000
0100
,
0010
0000
0001
0000
1000
0000
0010
1000
0000
0001
0000
0000
0100
0000
0010
0100
,
0000
0001
1000
0000
0100
0000
2001
0000
0000
3010
0000
0000
1002
0000
0003
0000
,
0000
0000
0100
0000
0010
0000
1002
0000
0000
0103
0000
0000
2001
0000
0000
3000
,
0000
0000
0100
1000
0001
0000
0010
0000
0000
0100
0000
0000
2001
0000
0000
0000
,
3100
0000
0000
0000
0000
0000
0000
0000
0001
0000
1000
0000
0020
0000
0000
0000
0000
0000
0000
0000
0030
0000
0000
0000
0200
0300
0000
0000
0001
0000
0000
0000
,
0100
0000
0001
1000
0000
0000
0010
0000
0100
0000
0010
1000
0000
0000
1000
0000
,
0001
0000
0010
0100
0000
0000
0100
0000
0010
0000
0001
1000
0000
0000
1000
0000
,
0010
0000
0000
0000
0000
0000
0100
0000
0000
0010
0000
0000
0000
0000
0000
0000
0000
0000
1000
0000
0000
0000
0000
0000
0001
0000
0000
0000
0000
0000
0010
0000
0000
0100
0000
0000
1000
0000
0001
0000
1000
0000
0001
0000
1000
0000
0000
0000
,
1001
0000
1000
0000
0001
1000
0001
1000
,
0010
0000
0000
0000
0000
0000
0000
0000
1001
0000
0010
1000
0000
1000
0100
0000
,
0001
0000
0010
0001
0000
0001
0100
0000
0010
0000
1000
0001
0000
0001
1000
0000
,
0001
0000
0100
0000
0010
0000
1000
0000
0100
0000
0010
0100
0000
0100
0010
0000
,
0100
0000
1000
0001
0000
0001
1000
0000
0010
0000
0000
0100
0000
0000
0002
0000
,
0000
0000
2003
0000
0000
0000
3100
0000
0010
0000
0001
0010
0000
0010
0100
0000
,
1000
0000
0001
0000
0000
0000
0100
0010
1000
0000
0000
0000
0100
0010
0001
0000
,
0000
0200
0000
0320
1000
0030
1000
0000
,
1000
0000
0000
0000
0001
0000
0010
0000
0100
0000
0000
1000
0000
0000
0002
0000
,
0000
0203
0000
0310
1000
0000
0001
1000
,
0000
0001
1000
0000
0001
0000
0010
0001
,
0000
0010
0001
0000
1000
0000
0010
1000
,
0000
0010
1000
0000
0001
0000
0100
0000
,
0010
0000
1000
0000
0100
0000
0010
0100
,
0000
0010
0100
0000
0010
0000
0001
1000
,
0000
0001
1000
0000
0020
0000
0000
0230
,
0000
0302
0000
2003
,
0000
0000
3100
0000
0010
0000
0100
0010
,
0000
0100
0010
0000
0002
0000
0000
0000
,
1003
0000
0001
0000
0210
0000
0301
2000
,
0000
0000
3001
0000
0000
0000
0002
0000
0013
0100
1000
0001
0010
0100
1000
0001
,
0010
0100
1000
0001
0100
0010
1000
0100
0010
0001
0100
0001
1000
0100
0010
0001
,
1000
0010
0100
0001
0010
0100
1000
0020
0000
0030
0000
0000
0000
0000
0000
0000
;

//---------------dance-single - ----------------
#NOTES:
     dance-single:
     :
     Medium:
     9:
     0.356762,0.485038,0.055496,0.466169,0.160939,225.000000,220.000000,5.000000,42.000000,0.000000,0.000000,0.356762,0.485038,0.055496,0.466169,0.160939,225.000000,220.000000,5.000000,42.000000,0.000000,0.000000:
0000
0000
0000
0000
0000
0001
0020
0030
0100
0000
1000
0002
0003
0200
0300
0100
,
0000
0010
0100
0020
0030
0100
0002
0000
0003
1000
0200
0000
0310
0002
0000
0003
,
0000
0000
0000
0000
0000
0000
0001
0000
2000
0000
0000
3000
0010
0000
2000
0000
,
0000
3000
0100
0000
2000
0000
0000
3000
0000
0000
0000
0000
0000
0000
0000
0000
,
0000
0000
0000
0000
0000
0000
1000
0000
0200
0000
0000
0300
0001
0000
0200
0000
,
0000
0300
0010
0000
0200
0000
0000
0300
0000
0000
0000
0000
0000
0000
0000
0000
,
0000
0000
0000
0000
0000
0000
0001
0000
2000
0000
0000
0000
3002
0000
0000
0003
,
1000
0200
0000
0310
0000
0002
0000
1003
,
0010
0000
0200
0000
0000
0000
0301
0000
0020
0000
0000
0030
0000
0000
0010
0000
,
0200
0000
0000
0300
1000
0000
0002
0000
0000
0000
0003
0000
0000
0000
0000
0000
,
0000
0000
0000
0000
0000
0000
1000
0000
0002
0000
0000
0003
0100
0000
0002
0000
,
0000
0003
0010
0000
0002
0000
0000
0000
0000
0003
0000
0000
0000
0000
0000
0000
,
0000
0000
0000
0000
0000
0000
0010
0000
0002
0000
0000
0003
1000
0000
0200
0000
,
0000
0300
1000
0000
0002
0000
0000
0003
1001
0000
0000
0000
0000
0000
0000
0000
,
0000
0000
1001
0000
,
0001
0000
1000
0000
0001
0000
1000
0000
0100
0000
0000
0010
0000
0000
0001
0000
,
1000
0000
0000
0000
0000
0000
0010
0000
0000
0000
0000
0000
0100
0000
0000
0000
0010
0000
0000
1000
0000
0000
0000
0000
0000
1000
0000
0000
0000
0000
0000
0010
,
0000
0000
1000
0000
0000
0000
0000
0000
0010
0000
0000
0000
0000
0000
1000
0000
0000
0001
0000
0000
2000
0000
0000
0000
0000
0000
0000
0000
0000
0000
0000
0000
,
0000
0000
0000
3001
0000
0100
0000
0001
,
0000
0000
0000
1000
0000
0010
0000
1000
,
0000
0010
0000
1000
0000
0001
0000
0100
,
0000
0000
0000
0001
0000
0010
0000
1000
,
0000
0010
0000
0100
0000
1000
0000
0100
,
0000
0000
0000
1000
0000
0010
0000
1000
,
0000
0010
0000
0100
0000
0001
0000
0100
,
0000
0000
0000
0001
0000
0010
0000
0100
,
0000
0000
1000
0000
0000
0000
0100
0010
0000
0001
0000
0000
1000
0000
0001
1000
,
0000
0001
0000
0000
1000
0000
0002
0000
0000
0103
0000
0000
2000
0000
3000
0000
,
0000
0000
0010
0000
0100
0000
2000
0000
0000
3010
0000
0000
0002
0000
0000
0003
,
0000
0000
0000
0000
1000
0000
0100
0000
0000
0010
0000
0000
0002
0000
0000
0000
,
0013
0000
0000
0000
0000
0000
0000
0000
0200
0000
0000
0000
0000
0000
0000
0000
0000
0000
0000
0000
0300
0000
0000
0000
0020
0030
0000
0000
0000
0000
0000
0000
,
1000
0001
0010
0000
0001
1000
0010
0000
,
0100
0001
1000
0000
0100
1000
0001
0000
,
0010
0001
1000
0000
0010
1000
0001
1000
,
1001
0000
1000
1000
,
0001
0000
0000
0000
0000
0000
0000
0000
1001
0000
0000
0010
0000
0000
1000
0000
,
0100
0000
0000
1000
0000
0000
0001
0000
0000
0000
0100
0000
0000
0000
0010
0000
,
0000
0000
0010
0000
0000
0000
1000
0000
0001
0000
0000
0010
0000
0000
0001
0000
,
1000
0000
0100
0000
0000
0000
0010
0000
0001
0000
0000
1000
0000
0000
0001
0000
,
0000
0000
0100
0000
0000
0000
0010
0000
0100
0000
0000
0001
0000
0000
0001
0000
,
1000
0100
0000
0010
0001
0000
0010
0100
,
0000
1000
0000
0002
0000
0000
0000
0000
,
0000
0003
0000
0100
0010
0100
0000
0002
,
0000
2003
0000
3000
0001
0000
0000
1000
,
0000
0000
0010
0000
1000
0000
0000
0100
,
0000
0000
0010
0000
0001
0000
0000
0001
,
0000
1000
0000
0010
,
0000
0000
0100
0000
0001
0000
0000
0100
,
0000
0000
0010
0000
0100
0000
0000
1000
,
0000
0000
0100
0000
0010
0000
0000
0010
,
0000
1000
0000
0001
,
0000
0000
1000
0000
0001
0000
0000
1000
,
0000
0100
0020
0000
,
0000
0030
0100
0000
1002
0000
1003
0002
,
0000
1003
0000
2000
0000
3000
0000
0000
;

//---------------dance-single - ----------------
#NOTES:
     dance-single:
     :
     Easy:
     6:
     0.250526,0.454723,0.044397,0.399574,0.027748,158.000000,154.000000,4.000000,36.000000,0.000000,0.000000,0.250526,0.454723,0.044397,0.399574,0.027748,158.000000,154.000000,4.000000,36.000000,0.000000,0.000000:
0000
0000
0000
0000
,
0000
0000
0000
0000
,
0000
0000
0000
0000
0000
0000
0000
0000
0002
0000
0000
0003
0000
0000
0002
0000
,
0000
0003
0000
0000
0002
0000
0000
0003
0000
0000
0000
0000
0000
0000
0000
0000
,
0000
0000
0000
0000
0000
0000
0000
0000
0020
0000
0000
0030
0000
0000
0020
0000
,
0000
0030
0000
0000
0020
0000
0000
0030
0000
0000
0000
0000
0000
0000
0000
0000
,
0000
0000
0000
0000
0000
0000
0000
0000
0002
0000
0000
0000
2003
0000
0000
3000
,
0001
0002
0000
1003
0000
2000
0000
3002
,
0000
0023
0000
0130
0200
0000
0300
0010
,
0020
0000
0000
0030
0001
0000
0002
0000
0000
0000
0003
0000
0000
0000
0000
0000
,
0000
0000
0000
0000
0000
0000
0000
0000
2000
0000
0000
3000
0000
0000
2000
0000
,
0000
3000
0000
0000
2000
0000
0000
0000
0000
3000
0000
0000
0000
0000
0000
0000
,
0000
0000
0000
0000
0000
0000
0000
0000
2000
0000
0000
3000
0000
0000
0020
0000
,
0000
0030
0000
0000
2000
0000
0000
3000
1001
0000
0000
0000
0000
0000
0000
0000
,
0000
0000
1001
0000
,
2000
0000
3010
0000
,
0000
0000
0000
0000
0200
0000
0000
0000
0000
0000
0000
0000
0300
0000
0000
0000
0001
0000
0000
0000
0000
0000
0000
0000
0000
0001
0000
0000
0000
0000
0000
0000
,
0000
0001
0000
0000
0001
0000
0000
0000
0000
0000
0002
0000
0000
0000
0000
0000
,
0000
0000
0000
1003
0000
0010
0000
1000
,
0000
0000
0000
0001
0000
0100
0000
0001
,
0000
0100
0000
0001
0000
1000
0000
0010
,
0000
0000
0000
1000
0000
0001
0000
1000
,
0000
0001
0000
0100
0000
0010
0000
0100
,
0000
0000
0000
0010
0000
1000
0000
0010
,
0000
1000
0000
0001
0000
0100
0000
0001
,
0000
0000
0000
0001
0000
0010
0000
0001
,
0000
0000
0010
0000
0000
0000
0100
0000
0000
1000
0000
0000
0001
0000
0100
0000
,
0000
0010
0000
0000
1000
0000
2000
0000
0000
3000
0000
0000
0002
0000
0003
0000
,
0000
0000
0000
0000
0000
0000
0002
0000
0000
0003
0000
0000
2000
0000
0000
3000
,
0000
0000
0000
0000
0001
0000
0010
0000
0000
0100
0000
0000
2000
0000
0000
0000
,
3100
0000
0000
0000
0000
0000
0000
0000
0020
0000
0000
0000
0000
0000
0000
0000
0000
0000
0000
0000
0030
0000
0000
0000
0200
0300
0000
0000
1000
0000
0000
0000
,
0001
1000
0001
0000
1000
0001
1000
0000
,
0001
1000
0001
0000
1000
0001
1000
0000
,
0001
1000
0001
0000
1000
0001
1000
0001
,
1001
0000
0001
0001
,
1000
0000
1000
0000
,
0010
0000
0100
0001
,
0010
0000
0100
0000
,
1000
0000
0001
0100
,
0010
0000
1000
0000
,
0001
0000
0000
0000
0010
0000
0100
0010
,
0000
0100
0010
0002
0000
0000
0000
0000
,
0000
0003
0000
1000
0001
0000
1000
0001
,
0000
0200
0300
0000
0010
0000
0000
0000
,
0010
0000
1000
0000
,
1000
0000
0001
0000
,
0010
0000
0001
0000
,
1000
0000
0100
0000
,
0100
0000
1000
0000
,
0001
0000
0100
0000
,
0010
0000
0100
0010
,
0100
0000
0001
0000
,
0001
0000
1000
0000
,
1000
0000
0000
0000
2001
0000
3001
2000
,
0000
3001
0000
0002
0000
0003
0000
0000
;
