#TITLE:Traitor's Requiem;
#SUBTITLE:Jojo's Bizarre Adventure Vento Aureo Opening 2;
#ARTIST:Daisuke Hasegawa;
#TITLETRANSLIT:;
#SUBTITLETRANSLIT:;
#ARTISTTRANSLIT:;
#GENRE:;
#CREDIT:Magna Trick;
#BANNER:TRBN.png;
#BACKGROUND:TRB.png;
#LYRICSPATH:;
#CDTITLE:Magna Trick title!.png;
#MUSIC:Traitor's requiem.mp3;
#OFFSET:-0.027000;
#SAMPLESTART:53.011166;
#SAMPLELENGTH:16.000000;
#SELECTABLE:YES;
#BPMS:0.000000=84.000000
,35.000000=168.000000
,145.000000=336.000000
,149.000000=84.000000
,162.000000=336.000000
,166.000000=168.000000
,200.000000=84.000000
,212.000000=168.000000
,236.000000=173.399994
,244.000000=163.000000
;
#STOPS:145.000000=0.715000
;
#BGCHANGES:0.063=Traitor's requiem.avi=1.000=0=0=1=====,
260.000=TRB.png=1.000=0=0=1=====,
99999=-nosongbg-=1.000=0=0=0 // don't automatically add -songbackground-
;
#KEYSOUNDS:;
#ATTACKS:;

//---------------dance-single - ----------------
#NOTES:
     dance-single:
     :
     Hard:
     14:
     0.571344,0.849331,0.139110,0.252137,0.386899,460.000000,444.000000,16.000000,29.000000,0.000000,0.000000,0.571344,0.849331,0.139110,0.252137,0.386899,460.000000,444.000000,16.000000,29.000000,0.000000,0.000000:
0000
0000
0000
0000
,
0000
0000
0000
0000
,
0000
0000
0000
0000
,
0000
0000
0000
0000
,
0000
0000
0000
0000
0000
0000
0000
0000
0000
0000
0000
0000
0000
0000
0000
0000
0000
1001
0000
0000
0000
0000
0000
0001
0000
1000
0000
0000
0000
1001
0000
0000
,
0000
0000
0000
0000
0000
1000
0000
0000
0000
0010
0000
1000
0000
0001
0000
0000
0000
0110
0000
0000
0000
0000
0000
0100
0000
0010
0000
0000
0000
0110
0000
0010
,
0000
0100
0000
0000
0000
0010
0000
0010
0000
1000
0000
1000
0000
0010
0000
1000
0000
0001
0000
0001
0000
0000
0000
1000
0000
0001
0000
0000
0000
0100
0000
0000
,
0000
0000
0001
0000
0001
0000
0000
0000
1000
0000
0000
0000
0010
0000
1000
0001
0100
0010
0100
0010
0100
0000
0000
0010
0100
0000
0000
0000
2001
0000
0000
0000
,
0000
0001
0100
0000
0001
0000
3010
0000
0000
0000
0000
0000
0001
0000
0010
0000
,
0100
1000
0001
0010
0100
1000
0001
0010
,
0100
1000
0001
0010
0100
1000
0010
0100
,
0001
1000
0010
0100
0001
1000
0010
0100
,
0001
0000
1000
0000
0010
1000
0010
1000
0010
0000
1000
0000
0001
0000
0001
0000
,
0100
0010
1000
0100
0100
0100
0000
1000
,
0000
0001
1000
0001
0000
0000
0100
0100
,
0010
1000
0100
0010
0010
0010
0000
0001
,
0000
0100
0000
0010
0001
0010
0100
0100
,
0001
1000
0010
1000
0100
0100
0000
1000
,
0100
1000
0001
0001
1000
1000
0100
0010
,
0000
0001
0000
0010
0100
1000
1000
0001
,
0100
0000
0010
0000
1000
0100
1000
0100
0010
0001
0010
0001
0100
0000
0100
0000
,
0010
0010
1000
2000
0000
3001
0000
1000
,
0001
0010
0100
2000
0000
3000
0001
0001
,
0100
0100
0010
2000
0000
3001
0000
0010
,
0100
1000
0010
0100
1000
0001
0010
1000
,
1000
0010
1000
1000
0100
1000
0001
0100
,
0010
1000
0001
0001
0010
0010
0100
1000
,
1000
0000
0001
0000
0100
0000
0100
0000
0010
0000
1000
0000
0100
0000
0010
0001
,
0010
1000
0010
0100
0010
0001
0100
0010
1000
0010
0100
0001
1000
0000
0000
0000
,
0001
0100
0010
0000
0010
0100
1000
0001
,
1000
0000
0100
0000
0001
0000
0010
0000
0100
0000
1000
0100
0010
0000
0000
0001
,
0000
0000
0010
0100
1000
0000
0000
0010
0000
0000
0100
0001
0010
0000
0000
0000
,
0100
0000
0000
0000
1000
0001
1000
0001
1000
0001
0100
0010
1000
0000
0001
0000
,
0010
0000
0001
0000
1000
0000
0010
0000
1000
0000
0000
0100
0010
0000
0000
0000
,
0100
0000
1000
0100
0100
0001
0010
1000
,
0100
0000
0001
0000
0010
0000
1000
0000
0100
0000
0001
0000
0010
0000
1000
0100
,
0001
0010
1000
0001
0200
0000
0300
0000
2002
0000
0000
0000
0000
0000
0000
0000
,
3003
0002
0203
0320
,
2030
3200
0320
0032
,
2003
3020
0032
2003
,
3200
0302
0023
0000
,
0000
0000
0000
0000
0000
0000
0000
0000
0031
1000
0001
1000
0001
1000
0001
0000
,
2000
0000
0000
3200
0000
0000
0302
0000
,
0000
0023
0000
0000
2030
0000
3200
0000
,
0310
0001
1000
0100
0010
0001
0100
0010
1000
0100
0010
0001
,
0100
1000
0100
0001
0010
0001
1000
0000
0000
0100
0000
0000
,
1001
0001
0001
0001
0001
0001
0001
0001
,
0001
1000
1000
1000
0010
0010
0001
0001
,
0100
0100
0100
0100
0100
0100
0100
0100
,
0100
0100
0100
0001
0100
1000
0100
0010
,
1001
0000
0001
1000
0000
1000
0010
0100
0001
0000
0001
0100
0000
0000
0000
0000
,
1001
0000
0010
0100
0000
0100
0010
1000
0100
0000
0010
0001
0000
0001
0100
0000
,
1001
0000
0000
0000
0000
0000
0000
0000
0000
0000
0001
0000
0100
0000
0010
0000
1000
0000
0000
1000
0000
0000
0010
0000
0100
0000
0000
0001
0000
0000
1000
0000
,
0010
0100
0001
0100
0010
1000
0100
0001
,
0100
1000
0010
0001
1000
0100
0010
1000
,
0100
0010
0001
0010
1000
0010
0100
1000
,
0001
0100
0010
1000
0100
0010
0001
0010
,
0110
0100
0100
0100
1000
1000
1000
1000
,
0010
0010
0010
0010
0100
1000
0100
0001
,
0110
0000
0010
0000
1000
0001
0100
0010
,
1000
0000
0001
0000
0010
0100
1000
0001
,
0010
0000
0100
0000
1000
0001
0010
0100
,
1000
0101
1010
1100
,
0202
0000
0000
0000
,
0000
0000
0000
0000
,
0000
0303
0000
0000
0000
0000
0000
0000
;

//---------------dance-single - ----------------
#NOTES:
     dance-single:
     :
     Challenge:
     16:
     0.666982,0.934264,0.104332,0.252137,0.691202,537.000000,525.000000,12.000000,29.000000,0.000000,0.000000,0.666982,0.934264,0.104332,0.252137,0.691202,537.000000,525.000000,12.000000,29.000000,0.000000,0.000000:
// measure 0
0000
0000
0000
0000
,  // measure 1
0000
0000
0000
0000
,  // measure 2
0000
0000
0000
0000
,  // measure 3
0000
0000
0000
0000
,  // measure 4
0000
0000
0000
0000
0000
0000
0000
0000
0000
0000
0000
0000
0000
0000
0000
0000
0000
1001
0000
0000
0000
0000
0000
1000
0000
0001
0000
0000
0000
1001
0000
0000
,  // measure 5
0000
0000
0000
0000
0000
0001
0000
0000
0000
0100
0000
0001
0000
1000
0000
0000
0000
0110
0000
0000
0000
0000
0000
0010
0000
0100
0000
0000
0000
0110
0000
0100
,  // measure 6
0000
0010
0000
0000
0000
0100
0000
0100
0000
0001
0000
0001
0000
0100
0000
0001
0000
1000
0000
1000
0000
0000
0000
0001
0000
1000
0000
0000
0000
0010
0000
0000
,  // measure 7
0000
0000
1000
0000
1000
0000
0000
0000
0001
0000
0000
0000
0100
0000
0001
1000
0010
0100
0010
0100
0010
0000
0000
0100
0010
0000
0000
0000
1002
0000
0000
0000
,  // measure 8
0000
1000
0010
0000
1000
0000
0103
0000
0000
0000
0000
0000
1000
0100
0010
0001
,  // measure 9
1000
0100
0010
0001
1000
0100
0010
0001
1000
0100
0010
0001
1000
0100
0010
0001
,  // measure 10
1000
0100
0010
0001
1000
0010
0001
1000
0100
0010
1000
0001
0100
0010
1000
0100
,  // measure 11
0010
0001
0100
0010
1000
0001
0100
1000
0100
0010
0001
0010
1000
0100
1000
0001
,  // measure 12
0100
0010
1000
0100
0010
0001
0100
0001
0100
0000
0001
0000
1000
0000
1000
0000
,  // measure 13
0010
0100
0001
0010
0010
0010
0001
0100
,  // measure 14
0010
0000
0000
0010
0100
0000
0001
0000
0010
0000
0000
0100
0010
0000
0010
0000
,  // measure 15
0100
1000
0010
0100
0100
0100
0001
1000
,  // measure 16
0000
1000
0010
0000
0000
0010
0100
0000
1000
0000
0100
0000
0010
0000
0010
0000
,  // measure 17
0100
0000
0000
0001
0100
0000
0001
0000
0010
0000
0010
0000
0001
0000
0010
0000
,  // measure 18
0100
0000
0000
0100
1000
0000
1000
0000
0001
0000
0001
0000
0010
0000
0100
0000
,  // measure 19
0000
0000
1000
0000
0000
0000
1000
0001
1000
0000
0001
0000
0001
0000
1000
0000
,  // measure 20
0010
0000
0100
0000
0001
0010
0001
0010
0100
1000
0100
1000
0010
0000
0010
0000
,  // measure 21
0100
0100
0001
0002
0103
0010
1000
0100
,  // measure 22
0100
0010
0001
0002
0103
0010
1000
1000
,  // measure 23
0010
0010
0100
0002
1003
0100
0010
0100
,  // measure 24
0001
0000
0010
0000
1000
0000
0100
0000
0001
0000
1000
0100
0001
0000
1000
0000
,  // measure 25
1000
0100
0001
0001
0010
0100
1000
0010
,  // measure 26
0010
0000
0100
0000
0001
0000
0001
0000
0100
0000
0100
0000
0010
1000
0001
0000
,  // measure 27
0001
0000
1000
0000
0010
0000
0010
0000
0100
0000
0001
0000
0010
0000
0100
1000
,  // measure 28
0100
0001
0100
0010
0100
1000
0010
0100
0001
0100
0010
1000
0001
0000
0000
0000
,  // measure 29
1000
0000
0000
0001
1000
0000
0000
0000
1000
0000
0000
0001
0010
0000
0000
0010
,  // measure 30
0100
0000
0000
0100
1000
0000
0000
1000
0010
0000
1000
0010
0100
0000
0000
0001
,  // measure 31
0000
0000
0100
0010
1000
0000
0000
0100
0000
0000
0010
0001
0100
0000
0000
0000
,  // measure 32
0010
0000
0000
0000
1000
0100
0010
0001
0010
0100
1000
0100
0010
0000
0010
0000
,  // measure 33
0001
0000
1000
0000
0001
0000
0100
0000
0001
0000
0010
0100
1000
0000
0001
0000
,  // measure 34
0100
0010
1000
0010
0010
1000
0100
0001
,  // measure 35
0010
0000
1000
0000
0100
0000
0001
0000
0010
0000
1000
0000
0100
0000
0001
0010
,  // measure 36
1000
0100
0001
1000
0020
0000
0030
0000
2002
0000
0000
0000
0000
0000
0000
0000
,  // measure 37
3003
2000
3020
0230
,  // measure 38
0302
0023
0230
2300
,  // measure 39
3002
0203
2300
3002
,  // measure 40
0023
2030
3200
0000
,  // measure 41
0000
0000
0000
0000
0000
0000
0000
0000
1300
0001
1000
0001
1000
0001
1000
0000
,  // measure 42
0002
0000
0000
0023
0000
0000
2030
0000
,  // measure 43
0000
3200
0000
0000
0302
0000
0023
0000
,  // measure 44
0130
1000
0001
0010
0100
1000
0010
0100
0001
0010
0100
1000
,  // measure 45
0010
0001
0010
1000
0100
1000
0001
0000
0000
0010
0000
0000
,  // measure 46
1001
1000
1000
1000
1000
1000
1000
1000
,  // measure 47
1000
0001
0001
0001
0100
0100
1000
1000
,  // measure 48
0010
0010
0010
0010
0010
0010
0010
0010
,  // measure 49
0010
0100
0010
0000
0010
0000
1000
0100
0010
0000
0001
0000
0010
0100
1000
0000
,  // measure 50
1001
0000
1000
0001
0000
0001
0100
0010
1000
0000
1000
0010
0000
0000
0000
0000
,  // measure 51
1001
0000
0100
0010
0000
0010
0100
0001
0010
0000
0100
1000
0000
1000
0010
0000
,  // measure 52
1001
0000
0000
0000
0000
0000
0000
0000
0000
0000
1000
0000
0010
0000
0100
0000
0001
0000
0000
0001
0000
0000
0100
0010
0100
0010
0100
0001
1000
0001
1000
0100
,  // measure 53
0010
0001
1000
0010
0100
0001
0010
1000
,  // measure 54
0010
0001
0100
1000
0001
0010
0100
0001
,  // measure 55
0010
0000
0100
0000
1000
0000
0100
0001
0100
0000
1000
0000
0010
0000
0001
0000
,  // measure 56
1000
0000
0010
0000
0100
0000
0001
0010
0001
0000
0100
0000
1000
0000
0100
0000
,  // measure 57
0110
0010
0010
0010
0001
0001
0001
0001
,  // measure 58
0100
0000
0100
0000
0100
0000
0100
0000
0010
1000
0001
0000
0001
0100
0010
1000
,  // measure 59
0001
0000
0000
0000
0100
0000
0000
0000
0001
1000
0010
1000
0010
0100
0001
0100
,  // measure 60
0001
0000
0000
0000
1000
0000
0000
0000
0100
0010
0100
0010
0001
1000
0001
1000
,  // measure 61
0100
0000
0010
0000
0001
1000
0100
0010
,  // measure 62
0001
1000
0001
0000
1000
0100
1000
0100
0010
0001
0010
0001
0100
0010
0100
0010
,  // measure 63
2002
0000
0000
0000
,  // measure 64
0000
0000
0000
0000
,  // measure 65
0000
3003
0000
0000
0000
0000
0000
0000
;

//---------------dance-single - ----------------
#NOTES:
     dance-single:
     :
     Medium:
     6:
     0.356469,0.509599,0.104332,0.269525,0.034777,287.000000,275.000000,12.000000,31.000000,0.000000,0.000000,0.356469,0.509599,0.104332,0.269525,0.034777,287.000000,275.000000,12.000000,31.000000,0.000000,0.000000:
0000
0000
0000
0000
,
0000
0000
0000
0000
,
0000
0000
0000
0000
,
0000
0000
0000
0000
,
0000
0000
0000
0000
,
0000
0000
0000
0000
,
0000
0000
0000
0000
,
0000
0000
0000
0000
0000
0000
0000
1001
,
0000
0001
0100
0000
0001
0000
0010
0000
0000
0000
0000
0000
0001
0000
1000
0000
,
0001
1000
0001
1000
0001
1000
0001
1000
,
0001
1000
0010
0100
0010
0100
0001
1000
,
0001
1000
0001
1000
0001
1000
0001
1000
,
0001
1000
0010
0100
0001
1000
0001
0000
,
1000
0000
0001
0000
1000
0000
0100
0010
,
0100
0010
0100
0000
0010
0000
0001
0000
,
1000
0000
0001
0000
0100
0000
0001
0100
,
0001
0100
0010
1000
0010
1000
0001
0000
,
1000
0000
0100
1000
0100
0000
1000
0000
,
0001
0000
0100
0001
0100
0000
0010
0000
,
1000
0000
0001
0000
0010
0000
0100
1000
,
0100
1000
0001
0010
0001
0010
0100
0000
,
1000
0000
0001
0100
0001
0000
1000
0000
,
0010
0000
1000
0100
1000
0000
0001
0000
,
1000
0000
0010
0100
0010
0000
1000
0000
,
0001
0000
0010
0001
0010
0100
0010
0000
,
0100
0000
1000
0100
1000
0000
0001
0000
,
0100
0000
0010
0100
0010
1000
0001
0000
,
1000
0000
0001
0000
0010
0000
0100
0010
,
0100
0010
0001
1000
0001
1000
0010
0000
,
0010
0000
0100
0000
0100
0000
0001
0100
,
0001
0100
0010
1000
0010
0000
1000
0000
,
1000
0000
0001
0000
0001
0000
0010
0100
,
0010
0001
1000
0001
,
0001
1000
1000
0010
,
0100
0000
0001
0000
1000
0000
0100
1000
,
0100
1000
0001
0010
0001
0010
0100
1000
,
0001
1000
0200
0300
2002
0000
0000
0000
,
3003
0002
0203
0320
,
2030
3200
0320
0032
,
2003
3020
0032
2003
,
3200
0302
0023
0000
,
0000
0000
0000
0000
0000
0000
0000
0000
0031
1000
0001
1000
0001
1000
0001
0000
,
2000
0000
0000
3200
0000
0000
0320
0000
,
0000
0032
0000
0000
2003
0000
3200
0000
,
0310
0001
0100
0001
0010
0001
0100
0001
,
0010
0001
0100
0001
1000
0000
0100
0000
,
1002
0000
0000
0000
,
0000
2003
0000
0000
3002
0000
2003
0000
,
3200
0000
0000
0000
,
0000
0000
0300
0000
,
1001
0000
0001
1000
0000
0000
0000
0000
1001
0000
0001
1000
0000
0000
0000
0000
,
1001
0000
1000
0001
0000
0000
0000
0000
1001
0000
0001
1000
0000
0000
1000
0000
,
0001
0000
0010
0100
,
1001
1000
0001
0100
,
0001
0100
0001
0100
0001
0000
1000
0000
,
0100
1000
0100
1000
0100
0000
0010
0100
,
0010
0000
0001
0010
0001
0000
1000
0001
,
1000
0001
1000
0001
1000
0001
1000
0001
,
1000
1000
0001
0002
,
0000
0000
0000
0000
,
0000
0000
0000
0000
,
1003
0000
0001
0000
1000
0001
1000
0001
,
1000
1001
1001
1001
,
0220
0000
0000
0000
,
0000
0000
0000
0000
,
0000
0330
0000
0000
0000
0000
0000
0000
;

//---------------dance-single - ----------------
#NOTES:
     dance-single:
     :
     Easy:
     3:
     0.234748,0.424666,0.052166,0.278220,0.017389,189.000000,183.000000,6.000000,32.000000,0.000000,0.000000,0.234748,0.424666,0.052166,0.278220,0.017389,189.000000,183.000000,6.000000,32.000000,0.000000,0.000000:
0000
0000
0000
0000
,
0000
0000
0000
0000
,
0000
0000
0000
0000
,
0000
0000
0000
0000
,
0000
0000
0000
0000
,
0000
0000
0000
0000
,
0000
0000
0000
0000
,
0000
0000
0000
0000
,
0000
0000
0000
1000
,
1000
0001
0001
0100
,
0100
0010
1000
0001
,
0001
0010
0010
0100
,
0100
1000
0001
1000
,
0000
0010
0000
0100
,
0000
0001
0000
0100
,
0100
0000
0001
0000
,
1000
0000
0100
0010
,
0010
0000
0001
0000
,
1000
0000
0010
0100
,
0100
0000
0001
1000
,
0001
1000
0001
0010
,
0010
0100
0100
1000
,
0001
1000
0000
0010
,
0010
0100
0100
0001
,
1000
0001
1000
0001
,
0001
1000
1000
0100
,
0010
0001
1000
0010
,
0010
0100
0100
0001
,
1000
0000
0001
1000
0001
0000
0010
0000
,
0000
0100
0000
1000
,
1000
0001
0000
0001
,
0000
0100
0000
0010
,
0010
1000
0001
0010
,
0000
0100
0000
0010
,
0000
0001
0000
1000
,
1000
0001
0001
1000
,
0001
0000
0020
0030
2002
0000
0000
0000
,
3003
2000
3020
0230
,
0302
0023
0230
2300
,
3002
0203
2300
3002
,
0023
0230
2300
0000
,
0000
0000
0000
3000
2000
0000
0000
0000
,
3002
0000
0000
0023
0000
0000
0230
0000
,
0000
2300
0000
0000
3002
0000
0023
0000
,
0130
1000
0100
1000
0100
1000
0100
1000
,
0100
1000
0100
1000
0100
0000
0010
0000
,
0002
0000
0000
0000
,
0003
2000
0000
3000
0002
0000
2003
0000
,
3020
0000
0000
0000
,
0000
0000
0030
0000
,
0001
0000
1000
0001
0000
0000
0000
0000
0001
0000
1000
0001
0000
0000
0000
0000
,
1000
0000
0001
1000
0000
0000
0000
0000
0001
0000
1000
0001
0000
0000
1000
0000
,
0001
0000
0100
0010
,
1001
0001
1000
0010
,
1000
1000
1000
0001
,
0010
0010
0010
0100
,
0100
1000
1000
0001
,
0001
0001
0001
0001
,
0001
0001
1000
2000
,
0000
0000
0000
0000
,
0000
0000
0000
0000
,
3001
0000
1000
0000
0001
1000
0001
1000
,
0001
1001
1001
1001
,
0220
0000
0000
0000
,
0000
0000
0000
0000
,
0000
0330
0000
0000
0000
0000
0000
0000
;
