#TITLE:Touch You;
#SUBTITLE:Yarichin ☆ Bitch Club Opening;
#ARTIST:遠野高志/加島優/矢口恭介/ジミー/百合絢斗/田村唯/明美圭一/糸目幸士郎/鹿谷樹;
#TITLETRANSLIT:;
#SUBTITLETRANSLIT:;
#ARTISTTRANSLIT:;
#GENRE:;
#CREDIT:Magna Trick;
#BANNER:TYBN.jpg;
#BACKGROUND:TYBG.jpg;
#LYRICSPATH:;
#CDTITLE:Magna Trick title!.png;
#MUSIC:Touch You.mp3;
#OFFSET:-0.258544;
#SAMPLESTART:99.000000;
#SAMPLELENGTH:20.000000;
#SELECTABLE:YES;
#BPMS:0.000000=135.009995
,32.000000=67.504997
,34.000000=135.009995
,354.000000=67.504997
,358.000000=101.257004
,376.000000=135.009995
;
#STOPS:
;
#BGCHANGES:0.083=Touch You.avi=1.000=0=0=1=====,
436.000=TYBG.jpg=1.000=0=0=1=====,
99999=-nosongbg-=1.000=0=0=0 // don't automatically add -songbackground-
;
#KEYSOUNDS:;
#ATTACKS:;

//---------------dance-single - ----------------
#NOTES:
     dance-single:
     :
     Hard:
     12:
     0.575177,0.646916,0.528599,0.207487,0.301351,815.000000,708.000000,107.000000,42.000000,0.000000,1.000000,0.575177,0.646916,0.528599,0.207487,0.301351,815.000000,708.000000,107.000000,42.000000,0.000000,1.000000:
0000
0000
0000
0000
,
0002
2003
3002
2003
,
3010
0100
0010
0100
0001
1000
0100
0010
,
0001
0000
0000
0010
0000
0000
0100
0000
1000
0000
0000
0000
0001
0000
1000
0000
,
0010
0000
0000
0100
0000
0000
0001
0000
1000
0000
0000
0000
0010
0000
1000
0000
,
1010
1100
0011
0101
,
1001
1000
0010
0100
0001
1000
0100
0010
,
0001
0000
0000
1000
0000
0000
1000
0000
0001
0000
0000
0000
1000
0000
0010
0000
,
0100
0001
1000
0010
0100
0000
0001
0000
1001
0000
0000
0000
0010
0000
0000
0000
,
1010
0001
1010
0101
,
1010
0001
1010
0001
,
1010
0001
1010
0101
,
1010
0101
1010
0001
,
1010
0001
1010
0101
,
1010
0001
1010
0001
,
1010
0001
1010
0101
,
0011
1100
0002
2003
,
3200
0000
0010
0000
0320
0000
0001
0030
0100
0000
0000
0010
0000
0000
0100
0000
,
0001
0000
0000
1000
0000
0000
0100
0000
0010
0000
0010
0000
0010
0001
0000
0010
,
0000
0200
0000
1300
0001
0010
1000
0010
,
0001
0000
0000
1000
0000
0000
0100
0000
0001
0000
0000
0100
0000
0000
1000
0000
,
0010
0100
1000
0000
0100
1000
0100
0000
,
0001
0000
0100
0000
0001
0000
0000
0000
0010
0000
0000
0010
0000
0000
0010
0000
,
0100
0000
1000
0000
0001
0000
0100
0010
0100
0000
0001
1000
0001
0000
1000
0010
,
1000
0000
0000
0110
0000
0000
2001
0000
0000
0000
0001
0000
0001
0000
3000
0000
,
0100
0010
1000
0001
0020
0000
0000
0030
,
1000
0010
0001
2000
0000
3010
0100
0001
,
0000
0001
0100
0010
1000
0100
1000
0100
,
1000
0010
0100
0001
0010
0001
0010
0100
,
1100
0000
0000
0000
1100
0000
0000
0000
0001
0000
0000
0010
0001
0000
0010
0000
,
0001
0000
1000
0000
0010
0000
0100
0000
0001
0000
0100
0001
0100
0000
0010
0000
,
1000
0001
0010
1000
1000
0010
0010
0001
,
0001
0000
0100
0000
0100
0000
0001
0000
1000
0010
0000
0100
0000
0001
0000
0010
,
1000
0000
1001
0000
0001
0010
1000
0010
,
0001
0010
1000
0010
0100
1000
0001
0010
,
0001
0000
0100
0000
0010
0000
1000
0000
0001
0000
0000
1000
0000
0000
0100
0000
,
0010
0000
0000
0000
0001
0000
0010
0001
0010
0000
0000
0100
0000
0000
1000
0000
,
0001
0000
1000
0100
0001
0100
1000
0100
,
0001
0100
1000
0100
0010
0001
1000
0010
,
1000
0000
0010
0000
0100
0000
0001
0000
0010
0000
0000
0100
0000
0000
1000
0000
,
0001
0000
0000
0000
0100
0000
1000
0000
0100
0000
0000
0001
0000
0000
0010
0000
,
2000
0000
0000
0000
3010
0100
0010
0100
0010
0000
0000
0001
0000
0000
0001
0000
,
2000
0000
3001
0100
0110
0000
0011
0000
,
0101
1100
1010
0001
,
1010
0001
1010
0101
,
1010
0001
1010
0001
,
1010
0001
1010
0101
,
1010
0000
0000
0000
0101
0000
0000
0000
1001
0000
0000
0001
0000
0000
0001
0000
,
1000
0000
0000
1000
0000
0000
1000
0000
0010
0000
0100
0000
0010
0100
0000
0001
,
0000
2000
0000
3100
0010
0100
0010
0001
,
1000
0000
0000
1000
0000
0000
0001
0000
0100
0000
0000
0010
0000
0000
1000
0000
,
0001
0000
0010
0000
1000
0000
0000
0000
0010
0000
0000
0001
1000
0001
1000
0000
,
0001
1000
0010
1000
0100
0010
0001
0100
,
0010
1000
0100
0000
0110
0000
1001
0000
,
0011
0000
0000
1100
0000
0000
0012
0000
0000
0000
1000
0000
1000
0003
0010
0000
,
0100
0000
0001
1000
0001
0000
1000
0000
0020
0000
0000
0000
0000
0000
0030
0000
,
1000
0100
1000
0002
0000
0013
0001
0200
,
0000
0310
1000
0001
0100
0100
0010
0010
,
1000
1000
0001
0001
0010
0100
1000
0001
,
0100
0010
0100
0010
2000
0000
0000
0000
,
3001
0100
0001
0010
0000
0010
0001
0100
,
0000
0010
1000
0100
2000
0000
3020
0000
,
0230
0301
1001
1001
,
0020
0000
0000
0000
0100
0000
0030
0000
0001
1000
0000
0001
0000
0000
0010
0000
,
0001
0000
0010
0000
1000
0000
0010
0000
0100
1000
0000
0001
0000
0000
1000
0000
,
0010
0000
1000
0000
0100
0000
1000
0000
0100
0010
0000
0001
0000
0000
0001
0000
,
0010
0001
0100
0001
1010
0000
0101
0000
,
1100
0000
0000
0000
0011
0000
0000
0000
0100
0010
0100
0010
0100
0000
0000
0000
,
0110
0000
0000
0000
0110
0000
0000
0000
0001
1000
0001
1000
0001
0000
0000
0000
,
1001
0000
0000
0000
1001
0000
0000
0000
1000
0000
0100
1000
0100
0000
1000
0000
,
1100
1100
0011
1010
,
0101
0000
0000
0000
1010
0000
0000
0000
0001
0000
1000
0010
1000
0000
0001
0100
,
0001
0000
1000
0000
0100
0000
0010
0000
0000
0000
0010
0000
0100
1000
0100
1000
,
0001
0000
0000
0100
0010
0000
0100
0000
0002
0000
0000
0000
0013
0100
0000
1000
,
0000
0000
1000
0000
0001
0000
0010
0001
0010
0000
0100
0000
1000
0000
1000
0000
,
0020
0000
0000
0000
0130
0001
0100
0001
0100
0010
0100
0000
0010
0000
0100
0001
,
0100
0000
0001
0000
0100
0001
0100
0000
0002
0000
0023
0000
0230
0000
2300
0000
,
3020
0230
0302
2003
3220
0330
0110
0000
,
0110
0000
0000
0000
0110
0000
0000
0000
0110
0000
0001
1000
0001
1000
0001
1000
,
0000
0001
1000
0001
1000
0001
1000
0010
0200
0000
0000
0000
0000
0000
0300
0000
,
1000
0100
0001
0002
0000
0103
0010
1000
,
0000
1000
0010
0100
0001
0010
0001
0010
,
0001
0100
0010
1000
0100
1000
0100
0010
,
0011
0000
0000
0000
0011
0000
0000
0000
1000
0000
0000
0100
1000
0000
0100
0000
,
1000
0000
0001
0000
0100
0000
0010
0000
1000
0000
0010
1000
0010
0000
0100
0000
,
0001
1000
0100
0001
0001
0100
0100
1000
,
1000
0000
0010
0000
0010
0000
1000
0000
0001
0100
0000
0010
0000
1000
0000
0100
,
0001
0000
0000
0000
1001
0000
0000
0000
1000
0010
0000
0100
0000
0001
0000
0010
,
0001
0000
1001
0000
0010
0010
0010
0010
,
0010
0000
0000
0000
0000
0000
0000
0000
0100
0000
0000
0000
0001
0000
0000
0000
0100
0000
0000
0000
0010
0000
0000
0000
1000
0000
0000
0000
0001
0000
0000
0000
0010
0000
0000
0000
0000
0000
0000
0000
0000
0010
0000
0000
0000
0000
0000
0000
0000
0000
0100
0000
0000
0000
0000
0000
1000
0000
0000
0000
0000
0000
0000
0000
,
0000
0000
0000
0000
0001
0000
0000
0000
0000
0000
1000
0000
0000
0010
0000
0000
1000
0000
0000
0000
0000
0000
0000
0000
0000
0001
0000
0000
0000
0000
0000
0000
0000
0000
0100
0000
0000
0000
0000
0000
0001
0000
0000
0000
0000
0000
0000
0000
0000
0000
0000
0000
0010
0000
0000
0000
0000
0000
0100
0000
0000
0000
0000
0000
,
0110
0000
0000
0000
0000
0000
0110
0000
0000
0000
0000
0000
1001
0000
0000
0000
0000
0000
1001
0000
0000
0000
0000
0000
1000
0000
0000
0001
0000
0000
1000
0000
,
0000
0000
0010
0000
0000
0000
0000
0000
0100
0000
0000
0000
0000
0000
0001
0000
0000
0000
0000
0000
1000
0000
0000
0000
0000
0000
0001
0000
0000
0000
0000
0000
0010
0000
0000
0000
0000
0000
0000
0000
0000
0010
0000
0000
0000
0000
0000
0000
0000
0000
0001
0000
0000
0000
0000
0000
1000
0000
0000
0000
0000
0000
0000
0000
,
0000
0000
0000
0000
0010
0000
0000
0000
0000
0000
0100
0000
0000
0001
0000
0000
0100
0000
0000
0000
0000
0000
0000
0000
0000
1000
0000
0000
0000
0000
0000
0000
0000
0000
0100
0000
0000
0000
0000
0000
0001
0000
0000
0000
0000
0000
0010
0000
0000
0000
0000
0000
0100
0000
0000
0000
0000
0000
1000
0000
0000
0000
0000
0000
,
0110
0110
1001
1001
,
0110
0000
0001
1000
0010
0100
0001
0010
,
0100
0000
0000
1000
0000
0000
0100
0000
0010
0000
0000
0000
1000
0000
0010
0000
,
0001
0000
0000
0010
0000
0000
0100
0000
0010
0000
0000
0000
0001
0000
1000
0000
,
0110
0110
1001
1001
,
0110
0000
0001
1000
0010
0100
0001
1000
,
0100
0000
0000
0010
0000
0000
0001
0000
0020
0000
0000
0000
0030
0000
1000
0000
,
0001
0000
0000
0100
0000
0000
0001
0000
0010
0000
0000
0000
1000
0100
1000
0100
,
0010
0000
0000
0001
0000
0000
1000
0000
0200
0000
0000
0000
0000
0300
1000
0000
,
1010
0101
0011
1100
,
1010
0001
1010
0001
,
1010
0101
1010
0001
,
1010
0001
1010
0001
,
1010
0101
1010
0101
,
0010
1000
0010
0000
1000
0001
1000
0000
0001
0010
0100
1000
0002
0000
0200
0003
,
0000
0300
0000
0000
0000
0000
0000
0000
;

//---------------dance-single - ----------------
#NOTES:
     dance-single:
     :
     Challenge:
     15:
     0.755141,0.943419,0.790428,0.182786,0.585411,1070.000000,910.000000,160.000000,37.000000,0.000000,1.000000,0.755141,0.943419,0.790428,0.182786,0.585411,1070.000000,910.000000,160.000000,37.000000,0.000000,1.000000:
// measure 0
1000
0010
0100
0001
0010
0001
0010
0100
1000
0010
0100
0001
1000
0000
0000
0000
,  // measure 1
2100
0000
0000
3000
0200
0000
0000
0300
0021
0000
0000
0030
0002
0000
0000
0003
,  // measure 2
1001
0010
0100
0010
1001
0100
1001
0010
,  // measure 3
1100
0000
0000
0100
0000
0000
0010
0000
0011
0000
0000
0000
0001
0000
1000
0010
,  // measure 4
0100
0000
0000
0000
0000
0000
0000
0000
0000
1010
0000
0000
0000
0000
0000
0000
0000
0000
1100
0000
0000
0000
0000
0000
1001
0000
0000
0000
0000
0000
0010
0000
0100
0000
0010
0000
0100
0000
0000
0000
0000
0000
0001
0000
0000
0000
0000
0000
,  // measure 5
0101
0011
1100
1010
,  // measure 6
1001
0000
0001
0000
0100
0000
0010
0000
1000
0000
0001
0000
0010
0000
0100
1000
,  // measure 7
0001
0000
0100
0010
0100
0001
1000
0100
1000
0001
0010
0001
0100
0010
1000
0001
,  // measure 8
0010
0100
1000
0100
0020
0000
0031
0000
1001
0000
1000
0000
0010
0000
0000
0000
,  // measure 9
0101
0001
1000
0000
0101
0001
1010
1000
,  // measure 10
0101
0001
1000
0000
0101
0001
1000
0000
,  // measure 11
0101
0001
1000
0000
0101
0001
1010
1000
,  // measure 12
0101
0001
1010
1000
0101
0001
1000
0000
,  // measure 13
0101
0001
1000
0000
0101
0001
1010
1000
,  // measure 14
0101
0000
0001
0000
1000
0000
0000
0000
0001
0010
0100
1000
0001
0010
0100
0010
,  // measure 15
0001
0100
1000
0001
0010
1000
0100
0010
0101
0000
0000
0000
1010
0000
0000
0000
,  // measure 16
1100
0000
1000
0000
0011
0100
1000
0100
1000
0000
0001
0000
1000
0010
0000
0100
,  // measure 17
0000
0000
0000
0001
0000
0000
0000
0000
0000
0100
0000
0000
0010
0000
1000
0000
0010
0000
1000
0000
0010
0000
1000
0000
0010
0000
0000
0000
0000
0000
0000
0000
0000
0100
0000
0000
0000
0000
0000
0000
0000
0000
0010
0000
0000
0000
0000
0000
,  // measure 18
1100
0000
0000
0011
0000
0000
0010
0000
0100
0000
0100
0000
0100
1000
0000
0100
,  // measure 19
0000
0020
0000
0031
1000
0100
0001
0100
,  // measure 20
1000
0000
0000
0001
0000
0000
0010
0000
1100
0000
0000
0011
0000
0000
0001
0000
,  // measure 21
0100
0000
0010
0000
0001
0000
0000
0000
0010
0001
0010
1000
0000
0000
0000
0000
,  // measure 22
1000
0010
1000
0100
0000
0000
0010
0000
0010
0000
0000
0001
0000
0000
0100
0000
,  // measure 23
0010
0000
1000
0000
1000
0000
0010
0100
0010
0000
1000
0001
1000
0000
0001
0100
,  // measure 24
0001
0000
0000
0000
0000
0000
0000
0000
0000
0110
0000
0000
0000
0000
0000
0000
0000
0000
1002
0000
0000
0000
0000
0000
0000
0000
0000
0000
0000
0000
1000
0000
0000
0000
0000
0000
1003
0000
0000
0000
0000
0000
0010
0000
0100
0000
0010
0000
,  // measure 25
0100
0001
0100
0010
0100
0001
1000
0010
0200
0000
0000
0000
0001
0000
0300
0000
,  // measure 26
0001
0100
1000
0001
0010
0100
0010
1010
,  // measure 27
0001
1000
0010
0100
0011
0010
1100
0100
,  // measure 28
1010
1000
0101
0001
0100
0010
1000
0100
,  // measure 29
0011
0000
0000
0000
0011
0000
1000
0001
1000
0000
0000
0100
1000
0000
0100
0000
,  // measure 30
1000
0000
0000
0001
0000
0000
0100
0000
0000
0000
0000
0000
0010
0000
1000
0000
0010
0000
1000
0000
0000
0000
0000
0000
0100
0000
0000
0000
0000
0000
0000
0000
0000
0010
0000
0000
0001
0000
0000
0000
0000
0000
0100
0000
0000
0000
0000
0000
,  // measure 31
0001
0000
0000
1000
0000
0000
0100
0000
0000
0000
0000
0000
0010
0000
0001
0000
0010
0000
0001
0000
0000
0000
0000
0000
1001
0000
0000
0000
0000
0000
0000
0000
0000
0000
0000
0000
1100
0000
0000
0000
0000
0000
0000
0000
0000
0000
0000
0000
,  // measure 32
0011
0000
0000
0000
0110
0000
1000
0000
0001
0100
0000
0010
0000
1000
0000
0100
,  // measure 33
0001
0000
0000
0100
0001
0100
1000
0000
0000
0000
0000
0000
1000
0000
0000
0100
0000
0000
0001
0000
0000
0100
0000
0000
,  // measure 34
1000
0100
0001
0100
0010
0001
1000
0100
,  // measure 35
1000
0000
0010
0000
0100
0000
0001
0000
1000
0000
0000
0001
0000
0000
0010
0000
,  // measure 36
0100
0000
0000
0000
1000
0000
0100
1000
0100
0000
0000
0010
0000
0000
0001
0000
,  // measure 37
0001
0000
0000
1000
0001
1000
0001
0000
0000
0010
0000
0000
1000
0000
0000
0010
0000
0000
0001
0000
0000
0010
0000
0000
,  // measure 38
1000
0010
0001
0010
0100
1000
0001
0100
,  // measure 39
0001
0000
0100
0000
0010
0000
1000
0000
0100
0000
0000
0010
0000
0000
0001
0000
,  // measure 40
1000
0000
0000
0000
0010
0000
0001
0000
0010
0000
0000
1000
0000
0000
0100
0000
,  // measure 41
0002
0000
0000
0000
0103
0010
0100
0010
0100
0000
1000
0000
1000
0000
1000
0000
,  // measure 42
0002
1000
1003
1000
1100
0100
1010
0010
,  // measure 43
0101
0001
1010
1000
0101
0001
1000
0000
,  // measure 44
0101
0001
1000
0000
0101
0001
1010
1000
,  // measure 45
0101
0001
1000
0000
0101
0001
1000
0000
,  // measure 46
0101
0001
1000
0000
0101
0001
1010
1000
,  // measure 47
0101
0000
0000
0000
0000
0000
0001
0000
1000
0000
0001
0000
1000
0000
0000
0010
0000
0000
0100
0000
0000
0001
0000
0000
1100
0000
0000
0000
0000
0000
0000
0000
0000
1000
0000
0000
0000
0000
0000
0000
0000
0000
1000
0000
0000
0000
0000
0000
,  // measure 48
0011
0000
0000
0101
0000
0000
1001
0000
0100
0000
0010
0000
0100
0010
0000
1000
,  // measure 49
0000
0000
0002
0000
0013
0100
1000
0010
0101
0000
0010
0000
0100
0000
0001
0000
,  // measure 50
1100
0000
0000
0011
0000
0000
1100
0000
0010
0000
0000
0100
0000
0000
0001
0000
,  // measure 51
1000
0000
0100
0000
0001
0000
0000
0000
0100
0000
0000
1000
0001
1000
0001
0000
,  // measure 52
1000
0010
0001
0000
1000
0000
0100
0001
0010
0000
0100
0000
1000
0010
0100
0000
,  // measure 53
0001
0000
1000
0100
1000
0100
0010
0001
0110
0000
0000
0000
1001
0000
0000
0000
,  // measure 54
1100
0000
0000
0000
0000
0000
0000
0000
0000
0011
0000
0000
0000
0000
0000
0000
0000
0000
2100
0000
0000
0000
0000
0000
0000
0000
0000
0000
0000
0000
0001
0000
0000
0000
0000
0000
0001
0000
0000
3000
0000
0000
0100
0000
0010
0000
0100
0000
,  // measure 55
0010
1000
0001
0010
0100
1000
0001
1000
0210
0000
0000
0000
0000
0000
0300
0000
,  // measure 56
1010
1000
0001
0100
0011
0100
1000
0020
,  // measure 57
0100
0130
0001
1000
1010
0000
0101
0000
,  // measure 58
0011
0000
1100
1000
0100
0010
0001
1000
,  // measure 59
0020
0000
0230
0000
0320
0100
0031
1000
0002
0000
0000
0000
1000
0000
0003
0000
,  // measure 60
1001
0010
1000
0100
0011
0100
1000
0010
,  // measure 61
1100
0000
0001
0000
1000
0000
0010
0000
0101
0000
0010
1000
0010
1000
0100
0010
,  // measure 62
0001
0010
0001
0100
0010
1000
0100
0010
1001
0000
0010
0100
1001
0000
0100
0010
,  // measure 63
0100
0000
0001
0000
1000
0000
0010
0000
0100
0000
0001
0000
0010
0000
0000
0100
0000
0000
1000
0000
0000
0010
0000
0000
0100
0000
0000
0001
0000
0000
0000
0000
0000
1000
0000
0000
0000
0000
0000
0000
0000
0000
0100
0000
0000
0000
0000
0000
,  // measure 64
1001
0000
0010
0000
1001
0000
0100
0000
0010
0001
0000
1000
0000
0000
0001
0000
,  // measure 65
0110
0000
1000
0000
0110
0000
0001
0000
0010
0100
0000
1000
0000
0000
1000
0000
,  // measure 66
0110
0001
0110
1000
0101
0000
1010
0000
,  // measure 67
0011
0000
0000
0000
1100
0000
0000
0000
0010
1000
0010
0001
0010
0000
0000
0000
,  // measure 68
0110
0000
0000
0000
0110
0000
0000
0000
0100
0001
0100
1000
0100
0000
0000
0000
,  // measure 69
1001
0000
0000
0000
1001
0000
0000
0000
0001
0000
0010
0001
0010
0100
0010
1000
,  // measure 70
0010
0001
0100
0010
0100
1000
0100
0001
0100
0010
0100
0010
0001
1000
0001
1000
,  // measure 71
0100
0000
0000
0010
0000
0000
0100
0000
0010
0000
1000
0000
0002
0000
0000
0000
0000
0000
0000
0000
0000
0003
0000
0000
1000
0000
0000
0000
0000
0000
0001
0000
0000
0100
0000
0000
0001
0000
0000
0000
0000
0000
1000
0000
0000
0010
0000
0000
,  // measure 72
1000
0000
0001
0000
0010
0000
0100
0000
0000
0000
0100
0000
0010
0001
0010
0001
,  // measure 73
1000
0000
0000
0010
0100
0000
0010
0000
2000
0000
0000
0000
3100
0010
0000
0001
,  // measure 74
0000
0000
0000
0001
0000
0000
1000
0000
0000
0100
0010
0001
0100
0000
0000
0010
0000
0000
1000
0000
0000
0001
0000
0000
,  // measure 75
0200
0000
0000
0000
0310
1000
0010
1000
0010
0100
0010
0000
0100
0000
0010
1000
,  // measure 76
0010
0000
1000
0000
0010
1000
0010
0000
2000
0000
3200
0000
0320
0000
0032
0000
,  // measure 77
0203
0320
2030
3002
0223
0330
0110
0000
,  // measure 78
0110
0000
0000
0000
0110
0000
0000
0000
0110
0000
1000
0001
1000
0001
1000
0001
,  // measure 79
0000
1000
0001
1000
0001
1000
0001
0100
0020
0000
0000
0000
0100
0000
0030
0000
,  // measure 80
1001
0010
1000
0100
0011
0100
1000
0001
,  // measure 81
0110
0001
0100
0010
1001
0100
1001
0010
,  // measure 82
1001
0000
0100
0000
0001
0000
1000
0100
0001
0000
1000
0000
0010
0000
0001
0000
,  // measure 83
1100
0000
0000
0000
1100
0000
0000
0000
0001
0000
0000
0010
0001
0000
0010
0000
,  // measure 84
0001
1000
0010
0000
1000
0000
0100
0000
0001
0000
0000
0001
0100
0000
0010
0000
,  // measure 85
1000
0010
0001
0000
0010
0000
1000
0010
1010
0000
0000
0000
0101
0000
0000
0000
,  // measure 86
0011
0000
0000
0000
1100
0000
0001
0000
1000
0010
0000
0100
0000
0001
0000
0010
,  // measure 87
1000
0000
0000
0000
0000
0000
0010
0000
0100
0000
0010
0000
0100
0000
0000
0000
0000
0000
0000
0000
0000
0000
0000
0000
0001
0000
0000
0100
0000
0000
0000
0000
0000
0010
0000
0000
0000
0000
0000
1000
0000
0000
0000
0000
0000
0001
0000
0000
,  // measure 88
0100
0000
0000
0000
0000
0000
1000
0000
0001
0000
1000
0000
0002
0000
0000
0000
0000
0000
0000
0000
0000
0003
0000
0000
1010
0000
0000
0000
0000
0000
0101
0000
0000
0000
0000
0000
1010
0000
0000
0000
0000
0000
0101
0000
0000
0000
0000
0000
,  // measure 89
0100
0000
0000
0000
0000
0000
0000
0000
0010
0000
0000
0000
1000
0000
0000
0000
0010
0000
0000
0000
0100
0000
0000
0000
0001
0000
0000
0000
1000
0000
0000
0000
0110
0000
0000
0000
0000
0000
0000
0000
0000
0100
0000
0000
0000
0000
0000
0000
0000
0000
0010
0000
0000
0000
0000
0000
1001
0000
0000
0000
0000
0000
0000
0000
,  // measure 90
0000
0000
0000
0000
1000
0000
0000
0000
0000
0000
0001
0000
0000
0100
0000
0000
0001
0000
0000
0000
0000
0000
0000
0000
0000
1000
0000
0000
0000
0000
0000
0000
0000
0000
0010
0000
0000
0000
0000
0000
1000
0000
0000
0000
0000
0000
0000
0000
0000
0000
0000
0000
0100
0000
0000
0000
0000
0000
0010
0000
0000
0000
0000
0000
,  // measure 91
0110
0000
0000
0000
0000
0000
0110
0000
0000
0000
0000
0000
1001
0000
0000
0000
0000
0000
1001
0000
0000
0000
0000
0000
0001
0000
0000
1000
0000
0000
0001
0000
,  // measure 92
0000
0000
0100
0000
0000
0000
0000
0000
0010
0000
0000
0000
0000
0000
1000
0000
0000
0000
0000
0000
0001
0000
0000
0000
0000
0000
1000
0000
0000
0000
0000
0000
0100
0000
0000
0000
0000
0000
0000
0000
0000
0100
0000
0000
0000
0000
0000
0000
0000
0000
1000
0000
0000
0000
0000
0000
0001
0000
0000
0000
0000
0000
0000
0000
,  // measure 93
0000
0000
0000
0000
0100
0000
0000
0000
0000
0000
0010
0000
0000
1000
0000
0000
0010
0000
0000
0000
0000
0000
0000
0000
0000
0001
0000
0000
0000
0000
0000
0000
0000
0000
0010
0000
0000
0000
0000
0000
1000
0000
0000
0000
0000
0000
0100
0000
0000
0000
0000
0000
0010
0000
0000
0000
0000
0000
0001
0000
0000
0000
0000
0000
,  // measure 94
0110
0110
1001
1001
,  // measure 95
0110
0000
1000
0001
0100
0010
1000
0100
,  // measure 96
0010
0000
0000
0001
0000
0000
0010
0000
0100
0000
0000
0000
0001
0000
0100
1000
,  // measure 97
0001
0000
0000
0000
0000
0000
0000
0000
0000
0101
0000
0000
0000
0000
0000
0000
0000
0000
1010
0000
0000
0000
0000
0000
1000
0000
0000
0000
0000
0000
0001
0000
0010
0000
0001
0000
0010
0000
0000
0000
0000
0000
0100
0000
0000
0000
0000
0000
,  // measure 98
0110
0110
1001
1001
,  // measure 99
0110
0000
1000
0001
0100
0010
1000
0001
,  // measure 100
0010
0000
0000
0100
0000
0000
1000
0000
0200
0000
0000
0000
0300
0000
0001
0100
,  // measure 101
1000
0000
0000
0000
0000
0000
0000
0000
0000
0010
0000
0000
0000
0000
0000
0000
0000
0000
1000
0000
0000
0000
0000
0000
0100
0000
0000
0000
0000
0000
0010
0000
0001
0000
0010
0000
0001
0000
0000
0010
0000
0000
0001
0000
0000
0010
0000
0000
,  // measure 102
0100
0000
1000
0000
1000
0000
1000
0000
0020
0000
1000
0000
1000
0030
1000
0000
,  // measure 103
0101
1010
1100
0011
,  // measure 104
0101
0001
1000
0000
0101
0001
1000
0000
,  // measure 105
0101
0001
1010
1000
0101
0001
1000
0000
,  // measure 106
0101
0001
1000
0000
0101
0001
1000
0000
,  // measure 107
0101
0001
1010
1000
0101
0001
1010
1000
,  // measure 108
0100
0001
1000
0000
0010
0001
1000
0000
0100
0010
0001
0100
2000
0000
0020
3000
,  // measure 109
0000
0030
0000
0000
0000
0000
0000
0000
;

//---------------dance-single - ----------------
#NOTES:
     dance-single:
     :
     Medium:
     10:
     0.507427,0.566051,0.652103,0.281590,0.190197,719.000000,587.000000,132.000000,57.000000,0.000000,1.000000,0.507427,0.566051,0.652103,0.281590,0.190197,719.000000,587.000000,132.000000,57.000000,0.000000,1.000000:
0000
0000
0000
0000
,
2000
3002
2003
3002
,
1003
0000
0010
0100
0010
0100
0001
1000
,
0100
0000
0000
0010
0000
0000
0001
0000
0011
0000
0000
0000
0100
0000
0000
0000
,
1100
0000
0000
0010
0000
0000
1000
0000
0001
0000
0000
0000
0100
0000
0000
0000
,
0110
0110
0110
0110
,
0110
0000
0010
1000
0001
0100
0010
1000
,
0100
0000
0000
0010
0000
0000
0001
0000
0002
0000
0000
0000
0003
0000
0100
0000
,
0010
1000
0001
0100
0010
0000
1000
0000
1001
0000
0000
0000
0100
0000
0000
0000
,
0101
1000
0101
1010
,
0101
1000
0101
1000
,
0101
1000
0101
1010
,
0101
1010
0101
1000
,
0101
1000
0101
1010
,
0101
1000
0101
1000
,
0101
1000
0101
1010
,
1100
0011
2000
3002
,
0013
0000
0100
0000
1000
0000
0100
0000
0010
0000
0000
0100
0000
0000
0010
0000
,
0001
0000
0000
0001
0000
0000
0010
0000
0100
0000
0100
0000
0100
0000
0000
1000
,
0000
0020
0000
0030
1000
0100
1000
0100
,
1000
0000
0000
0001
0000
0000
0010
0000
0100
0000
0000
1000
0000
0000
0010
0000
,
0100
0010
0100
0000
0010
1000
0010
0000
,
1000
0000
0010
0000
1000
0000
0000
0000
0100
0000
0000
0100
0000
0000
0100
0000
,
0010
0001
0010
0001
0001
0010
0010
0001
,
0001
0000
0000
1000
0000
0000
1002
0000
0000
0000
1000
0000
1000
0000
0003
0000
,
0010
0000
1000
0000
0200
0000
0000
0300
,
0001
0000
1000
0002
0000
0103
0010
0100
,
0000
0010
1000
0000
0011
0000
1100
0000
,
1010
0101
0110
1000
,
1001
1001
1000
0001
,
0100
0010
0100
0010
0000
0100
0001
0100
,
0000
0001
1000
0100
1100
0000
0011
0000
,
1010
0000
0000
0000
0101
0000
0000
0000
0001
1000
0000
0001
0000
1000
0000
0100
,
0010
1001
2000
3020
,
0230
0000
0302
0000
2003
0000
3100
1000
,
0100
0000
1000
0000
0100
0000
0010
0000
0001
0000
0000
0001
0000
0000
0010
0000
,
0100
0000
0000
0000
1000
0000
0100
0000
0100
0000
0000
0010
0000
0000
0001
0000
,
1000
0000
0001
0010
0200
0000
2300
0000
,
3002
0000
0023
0000
0230
0000
0310
0001
,
0010
0000
0001
0000
0010
0000
0001
0000
0100
0000
0000
0010
0000
0000
1000
0000
,
1000
0000
0000
0000
0000
0000
0001
0000
0010
0000
0000
0100
0000
0000
1000
0000
,
0002
0000
0000
0000
0103
0010
0100
0010
0100
0000
0000
0010
0000
0000
0010
0000
,
2000
3001
0110
1100
,
1010
0011
0101
1000
,
0101
1000
0101
1010
,
0101
1000
0101
1000
,
0101
1000
0101
1010
,
0101
0000
0000
0000
1010
0000
0000
0000
1001
0000
0000
1000
0000
0000
1000
0000
,
0001
0000
0000
0001
0000
0000
0001
0000
0100
0000
0100
0000
0100
0000
0000
0100
,
0000
0002
0000
0003
0010
0100
0010
0100
,
1000
0000
0000
0001
0000
0000
1000
0000
0010
0000
0000
0100
0000
0000
0001
0000
,
1000
0100
0010
0000
0100
0010
0001
0001
,
0001
1000
0100
1000
0001
0100
0001
0010
,
0100
1000
0010
0000
0110
0000
1001
0000
,
1100
0000
0000
0011
0000
0000
2100
0000
0000
0000
0000
0000
0000
3000
0000
0000
,
0020
0000
2030
0000
3200
0000
0000
0300
,
0010
0000
0010
0002
0000
0103
0010
0020
,
0000
0130
0001
0000
1010
0000
0101
0000
,
0011
0000
1100
0000
0100
0010
0001
1000
,
0020
0230
0320
0230
0302
0000
0000
0000
,
1003
0010
1000
0010
0000
0100
0000
0001
,
0000
0100
0001
0000
0002
0000
0203
0000
,
0320
1030
1001
1001
,
0200
0000
0000
0000
0010
0000
0300
0000
0001
0000
0000
1000
0000
0000
0001
0000
,
1001
0000
0000
0000
1001
0000
0000
0000
0001
0000
0000
1000
0000
0000
0001
0000
,
1001
0000
0000
0000
1001
0000
0000
0000
1000
0000
0000
0001
0000
0000
1000
0000
,
1001
1001
0101
1010
,
0011
0000
0000
0000
1100
0000
0000
0000
0010
0100
0010
0100
0010
0000
0000
0000
,
0110
0000
0000
0000
0110
0000
0000
0000
1000
0001
1000
0001
1000
0000
0000
0000
,
1001
1001
1000
0001
,
0011
0011
1100
0101
,
1010
0000
0101
0000
1000
0001
0001
1000
,
1000
0001
0010
0100
0000
0100
0010
0010
,
0001
0000
0000
0010
0000
0000
0100
0000
2000
0000
0000
0000
3100
0000
0000
0010
,
0000
0001
1000
0100
0100
0010
0001
0001
,
0200
0000
0310
0010
0010
0010
0100
0010
,
0010
1000
0010
0010
2000
3200
0320
0032
,
0203
0320
2030
3002
0223
0330
0110
0000
,
0110
0000
0110
0000
0110
1000
1000
1000
,
0000
0001
0001
0001
0020
0000
0000
0030
,
0001
0000
1000
2000
0000
3010
0000
0100
,
0000
0001
0100
0000
0010
0100
0010
0100
,
0010
0100
0010
0100
0001
0001
0010
0100
,
1100
1100
1001
0001
,
1000
0000
0010
0100
0000
0100
0000
0010
,
0000
1000
0010
1000
1010
0000
0101
0000
,
0011
0000
0000
0000
1100
0000
0000
0000
1000
0001
0000
1000
0000
0001
0000
1000
,
0001
0000
0000
0000
1001
0000
0000
0000
0001
1000
0000
0001
0000
1000
0000
0001
,
1000
0000
1001
0000
0100
0100
0100
0100
,
0100
0000
0000
0000
0000
0000
0000
0000
0010
0000
0000
0000
0100
0000
0000
0000
0010
0000
0000
0000
0100
0000
0000
0000
0001
0000
0000
0000
1000
0000
0000
0000
0100
0000
0000
0000
0000
0000
0000
0000
0000
0100
0000
0000
0000
0000
0000
0000
0000
0000
0010
0000
0000
0000
0000
0000
0001
0000
0000
0000
0000
0000
0000
0000
,
0000
0000
0000
0000
1000
0000
0000
0000
0000
0000
0001
0000
0000
0000
0000
0000
0001
0000
0000
0000
0000
0000
0000
0000
0000
1000
0000
0000
0000
0000
0000
0000
0000
0000
0010
0000
0000
0000
0000
0000
1000
0000
0000
0000
0000
0000
0000
0000
0000
0000
0000
0000
0100
0000
0000
0000
0000
0000
0010
0000
0000
0000
0000
0000
,
0110
0000
0000
0110
0000
0000
1001
0000
0000
1001
0000
0000
0001
0000
0000
0100
,
0000
0000
0000
0000
0000
0000
0000
0000
0010
0000
0000
0000
0000
0000
1000
0000
0000
0000
0000
0000
0001
0000
0000
0000
0000
0000
1000
0000
0000
0000
0000
0000
0100
0000
0000
0000
0000
0000
0000
0000
0000
0100
0000
0000
0000
0000
0000
0000
0000
0000
1000
0000
0000
0000
0000
0000
0001
0000
0000
0000
0000
0000
0000
0000
,
0000
0000
0000
0000
0100
0000
0000
0000
0000
0000
0010
0000
0000
0000
0000
0000
0010
0000
0000
0000
0000
0000
0000
0000
0000
1000
0000
0000
0000
0000
0000
0000
0000
0000
0010
0000
0000
0000
0000
0000
1000
0000
0000
0000
0000
0000
0100
0000
0000
0000
0000
0000
0010
0000
0000
0000
0000
0000
0001
0000
0000
0000
0000
0000
,
0110
0110
1001
1001
,
0110
1000
0001
1000
,
0010
0000
0000
0100
0000
0000
0010
0000
0100
0000
0000
0000
0001
0000
0100
0000
,
0001
0000
0000
0100
0000
0000
0010
0000
0100
0000
0000
0000
0001
0000
0000
0000
,
0110
0110
1001
1001
,
0110
1000
0001
1000
,
0010
0000
0000
0100
0000
0000
0001
0000
0200
0000
0000
0000
0300
0000
0001
0000
,
1000
0000
0000
0010
0000
0000
1000
0000
0100
0000
0000
0000
0010
0000
0010
0000
,
0001
0000
0000
1000
0000
0000
0001
0000
0020
0000
0000
0000
0000
0030
0001
0000
,
0101
1010
1100
0011
,
0101
1000
0101
1000
,
0101
1010
0101
1000
,
0101
1000
0101
1000
,
0101
1010
0101
1010
,
0100
0000
0100
0000
0001
0000
0001
0000
1000
0000
0010
0000
2000
0000
0020
3000
,
0000
0030
0000
0000
0000
0000
0000
0000
;

//---------------dance-single - ----------------
#NOTES:
     dance-single:
     :
     Easy:
     7:
     0.364161,0.458757,0.513778,0.009880,0.076573,516.000000,412.000000,104.000000,2.000000,0.000000,0.000000,0.364161,0.458757,0.513778,0.009880,0.076573,516.000000,412.000000,104.000000,2.000000,0.000000,0.000000:
0000
0000
0000
0000
,
1000
1000
0001
0001
,
1000
0000
0010
0100
0010
0000
0100
0000
,
0001
0000
1000
0000
,
0100
0010
0100
1000
,
0001
0001
0001
0001
,
0001
1000
0010
1000
,
0001
0000
0100
0000
,
0010
1000
0001
0100
1010
0000
0000
0000
,
1010
0000
1010
0101
,
1010
0000
1010
0000
,
1010
0000
1010
0101
,
1010
0101
1010
0000
,
1010
0000
1010
1010
,
1010
0000
1010
0000
,
1010
0000
1010
0101
,
1010
0101
0010
1000
,
0100
0000
0000
0000
0001
0000
0000
0000
1000
0000
0000
1000
0000
0000
1000
0000
,
0001
0000
0000
0001
0000
0000
0001
0000
0000
0000
0000
0000
0000
0000
0000
0000
,
0000
0000
1000
1000
,
0010
0000
0000
0010
0000
0000
0100
0000
0000
0000
0000
0000
0000
0000
0000
0000
,
0000
0000
0000
0000
0001
0010
0001
0000
,
1000
0000
0100
0000
1000
0000
0000
0000
0001
0000
0000
0001
0000
0000
0001
0000
,
0000
1000
0010
0000
0100
0000
0100
0000
,
0001
0000
0000
1000
0000
0000
0001
0000
0000
0000
0000
0000
0000
0000
0000
0000
,
0010
0010
0110
0000
,
1000
0000
0001
1000
0000
0010
0000
0100
,
0000
0001
0100
0000
0010
0000
0010
0000
,
1000
0000
1000
0000
0001
0000
1000
0001
,
1000
1000
1001
0000
,
0010
0000
0100
0001
0000
0100
0000
1000
,
0000
0100
0001
0000
1000
0000
0001
0000
,
0010
0000
0000
0000
0100
0000
0000
0000
1000
0000
0000
0100
0000
0100
0000
0100
,
0000
0000
0001
0100
,
0010
0000
1000
0000
0001
0000
0010
0100
,
0010
0000
0000
0000
0001
0000
0000
0000
1000
0000
0000
1000
0000
0000
1000
0000
,
0001
0000
0000
0000
0100
0000
0000
0000
0010
0000
0000
0010
0000
0000
0010
0000
,
0100
0001
1001
1001
,
0110
0000
0110
0000
1001
0000
0010
1000
,
0010
0000
0000
0000
1000
0000
0000
0000
0001
0000
0000
0010
0000
0000
0001
0000
,
0010
0000
0000
0000
0000
0000
0001
0000
1000
0000
0000
0001
0000
0000
1000
0000
,
0001
1000
0110
0000
,
0110
0000
1001
1001
,
1001
1001
1010
0000
,
1010
0000
1010
0101
,
1010
0000
1010
0000
,
1010
0000
1010
0101
,
1010
0101
1010
0000
,
1010
0000
0000
0001
0000
0000
1000
0000
0000
0000
0000
0000
0000
0000
0000
0000
,
0000
0000
0001
0000
,
0010
0000
0000
0100
0000
0000
1000
0000
0001
0000
0000
0000
0001
0000
0000
0000
,
1000
0001
1000
0000
0010
0000
0010
0000
,
0100
0100
0001
1000
,
0001
0010
0110
0110
,
1000
0000
0000
0001
0000
0000
1000
0000
0000
0000
0000
0000
0000
0000
0000
0000
,
0010
0100
0020
0000
,
1030
0000
0001
0000
,
0010
0000
0100
1000
,
0001
0010
0001
1000
,
1001
1001
0010
0000
,
0100
0000
0001
0000
0100
0000
0010
1000
,
0000
1000
0001
0000
0010
0000
0010
0000
,
0100
0100
0011
0011
,
1100
1100
1000
0000
,
1001
1001
1000
0000
,
0110
0110
0010
0000
,
1001
0110
0100
0100
,
0100
0100
1001
0010
,
0110
0110
0001
1000
,
0110
0110
0001
0100
,
1001
1001
0110
1001
,
0110
1001
0010
0010
,
0010
0010
1000
0001
,
0100
0001
0001
1000
,
0100
0000
0010
0000
0100
0010
0100
0000
,
0010
0000
0001
0000
1000
0001
1000
0000
,
0001
1000
0001
0000
1000
0000
0010
0000
,
0100
0000
0001
0000
1000
0001
1000
0001
,
1000
0001
1000
0001
0010
0100
0010
0100
,
0010
0100
0010
0100
0010
0000
0000
0000
,
0001
1000
0010
0000
,
0100
0000
0001
1000
,
0100
1000
0010
1000
,
0110
0110
0010
0000
,
0010
0001
0100
0010
,
1000
0001
0010
0010
,
0100
0000
0000
0000
0100
0000
0000
0000
1000
0000
0000
1000
0000
1000
0000
1000
,
0000
0000
0000
0000
0000
0000
0000
0000
0001
0000
0000
0001
0000
0001
0000
0001
,
0000
0000
1001
0001
,
1000
0000
0010
0000
0110
0000
0000
0001
,
0000
0000
0000
0000
1000
0000
0000
1000
0000
0000
0001
0000
0000
0010
0000
0000
,
0100
0000
0000
0100
0000
0000
0100
0000
0000
0100
0000
0000
0100
0000
0000
1000
,
0000
0000
0100
0000
0000
1000
0000
0000
0001
0000
0000
0001
0000
0000
0001
0000
,
0000
0001
0000
0000
1000
0000
0000
0010
0000
0000
0100
0000
0000
0001
0000
0000
,
1001
1001
1001
1001
,
1001
0010
0100
0010
,
0110
0001
1001
1000
,
1100
0001
0011
1100
,
1001
1001
1001
1001
,
1001
0010
1000
0001
,
0100
0000
0010
0000
,
0100
0001
1000
0000
,
0100
0000
0010
0000
,
0001
1000
0010
0100
,
1010
0000
1010
0000
,
1010
0101
1010
0000
,
1010
0000
1010
0000
,
1010
0101
1010
0101
,
1001
0001
1000
0001
1000
0001
1000
0002
,
0000
0003
0000
0000
;
