#TITLE:Tomorrow;
#SUBTITLE:kono subarashii sekai ni shukufuku wo Opening 2;
#ARTIST:Machico;
#TITLETRANSLIT:;
#SUBTITLETRANSLIT:;
#ARTISTTRANSLIT:;
#GENRE:;
#CREDIT:Magna Trick;
#BANNER:TomorrowBN.png;
#BACKGROUND:TomorrowB.png;
#LYRICSPATH:;
#CDTITLE:Magna Trick title!.png;
#MUSIC:Tomorrow.mp3;
#OFFSET:0.066833;
#SAMPLESTART:61.000000;
#SAMPLELENGTH:17.000000;
#SELECTABLE:YES;
#BPMS:0.000000=133.970001
;
#STOPS:
;
#BGCHANGES:0.063=Tomorrow.avi=1.000=0=0=1=====,
201.000=TomorrowB.png=1.000=0=0=1=====,
99999=-nosongbg-=1.000=0=0=0 // don't automatically add -songbackground-
;
#KEYSOUNDS:;
#ATTACKS:;

//---------------dance-single - ----------------
#NOTES:
     dance-single:
     :
     Hard:
     14:
     0.591348,0.807294,0.485694,0.518810,0.474656,375.000000,331.000000,44.000000,47.000000,0.000000,0.000000,0.591348,0.807294,0.485694,0.518810,0.474656,375.000000,331.000000,44.000000,47.000000,0.000000,0.000000:
0000
0000
0000
0000
0000
0000
1001
0000
1001
0000
0001
1000
0000
1000
0000
0001
,
1000
0001
1000
0000
0110
0000
0110
0000
0110
0000
0010
0100
0000
0100
0000
0010
,
0100
0010
0100
0000
1100
0000
0101
0000
1001
0000
0001
0100
0000
0001
0000
1000
,
0100
1000
0001
0100
0001
0010
1100
0000
0000
0000
0011
0000
0000
0000
1001
0000
,
0000
0000
0001
0100
0010
0100
0002
0000
0000
2003
0000
0000
3002
0000
0000
0003
,
0000
0000
1000
0100
0010
0100
2000
0000
0000
3002
0000
0000
2003
0000
0000
3000
,
0001
0000
0010
0000
0100
0000
2000
0000
0000
3020
0000
0000
0230
0000
0000
0000
,
0000
0000
0300
0000
0000
0000
1100
0000
0000
0011
0000
0000
0202
0000
0000
0303
,
0000
1001
0000
0220
0000
0330
0010
1000
,
0010
1000
0001
0100
0000
0001
0010
0100
,
0000
1000
0000
0000
0200
0000
0000
0000
0300
0000
0000
0000
1000
0000
0010
0000
,
1000
0001
0100
0001
0000
1000
0000
0001
,
0000
0001
0000
0000
1000
0000
0001
0000
0000
0010
0000
0000
0100
0000
0000
0000
,
0100
0000
1000
0000
0010
0000
1010
0000
0000
0101
0000
0000
0011
0000
0000
0000
,
0100
0000
1000
0000
0001
0000
1000
0000
1000
0000
0001
0000
0000
1000
0000
0001
,
0000
0100
0010
0100
0001
0000
1100
0000
0000
0110
0000
0000
0012
0000
0000
0000
,
0000
0000
0000
1003
0000
0000
0001
0010
,
0100
1000
1000
1001
0000
0010
0000
0001
,
0000
0100
0000
0000
0200
0000
0000
0000
0300
0000
0000
0000
1000
0000
0100
0000
,
0001
0000
0010
0000
1000
0000
0010
0000
0000
0010
0000
0000
0100
0000
1000
0000
,
0000
1000
0000
0000
0001
0000
0100
0000
0000
0100
0000
0000
0010
0000
0000
0000
,
0010
0000
0010
0000
1000
0000
0001
0000
0000
1000
0000
0000
0001
0000
0000
0000
,
0001
0000
0010
0000
0100
0000
1000
0000
1000
0000
0100
0000
0000
0010
0000
0001
,
0000
0100
0010
0100
0001
0000
0101
0000
0000
1010
0000
0000
1001
0000
0000
0000
,
0000
0000
0001
0000
1000
0000
0200
0000
0000
0000
0000
0300
0010
0000
0002
0000
,
0000
0000
0203
0000
0000
0000
0320
0000
0000
0000
0000
0030
1000
0000
0001
0000
,
1000
1000
0100
0010
0000
0010
0100
1000
,
0000
1000
0000
0000
0001
0000
0100
0000
0000
0020
0000
0000
0000
0000
0000
0000
,
0030
0000
1000
0000
0001
0000
2001
0000
0000
0000
0000
3000
0001
0000
1001
0000
,
0000
0100
0000
0000
1000
0000
1002
0000
0000
0000
0000
0000
0103
0000
1001
0000
,
0000
1000
0000
0000
0100
0000
2001
0000
0000
0000
3000
0000
0001
0000
1001
0000
,
0000
0100
0000
0000
1000
0000
1002
0000
0000
0000
0203
0000
0000
0300
1001
0000
,
0000
1000
0000
0000
0001
0000
0000
0000
0110
0000
0110
0000
0000
0000
1000
0000
,
0000
0001
0000
0000
0200
0000
0000
0000
0000
0300
0000
0000
0000
0000
0001
0000
,
1000
0000
0001
1000
0000
2000
0000
3000
0001
1000
0001
1000
0001
1000
0001
1000
,
0001
1000
0001
1000
0001
1000
0001
0000
1000
0000
0010
0000
0100
0000
0001
0000
,
0001
0000
1000
0100
0000
0020
0000
0000
0000
0000
0032
0000
2003
0000
0000
0000
,
3000
0000
0002
0000
0203
0000
0000
0300
0010
0100
0010
0100
0010
0100
0010
0100
,
0010
0100
0010
1000
0001
0100
0010
0000
1000
0000
0001
0000
1000
0000
0100
0000
,
0010
0001
0000
0001
0010
0000
0100
0000
1000
0000
0001
0000
0100
0000
0010
0000
,
1000
0100
0000
0100
1000
0000
0002
0000
0000
0000
0013
0000
0000
0000
0100
0000
,
0000
0000
1000
0100
1000
0100
1100
0000
0000
0000
0011
0000
0000
0000
1001
0000
,
0000
0000
0110
0000
0000
0000
1001
0000
0001
1000
0001
1000
0001
1000
0001
1000
,
0001
1000
0001
1000
0001
1000
0010
0000
0100
0000
0001
0000
1000
0000
0100
0000
,
0100
0000
0010
0001
0000
0020
0000
0000
0000
0030
0200
0000
2300
0000
0000
0000
,
3001
0000
0100
0000
0020
0000
0000
0000
0000
0000
0000
0000
0000
0030
0000
0000
,
0010
0010
1000
0001
2000
3002
0023
0230
,
1300
0001
0001
1000
0010
0100
0002
0000
,
0000
0000
0003
0000
0001
0000
0100
0000
0000
0010
0000
0000
1000
0100
0010
0000
,
0000
0010
0000
0000
0001
0010
0200
0000
0000
0000
2300
0000
3000
0000
0011
0000
,
0000
1100
0000
0000
2002
0000
0000
3003
0000
0000
0000
0000
0000
0000
0000
0000
;

//---------------dance-single - ----------------
#NOTES:
     dance-single:
     :
     Challenge:
     18:
     1.026581,1.002158,0.728541,0.143501,1.390851,651.000000,585.000000,66.000000,13.000000,0.000000,0.000000,1.026581,1.002158,0.728541,0.143501,1.390851,651.000000,585.000000,66.000000,13.000000,0.000000,0.000000:
// measure 0
0000
0000
0000
0000
0000
0000
1001
0000
1001
0000
0001
0010
0000
0100
0000
1000
,  // measure 1
0010
0100
0001
0000
0110
0000
0110
0000
0110
0000
0100
0001
0000
1000
0000
0010
,  // measure 2
0100
0001
1000
0000
1100
0000
0101
0000
1001
0000
1000
0010
0000
0100
0000
0001
,  // measure 3
0010
0100
1000
0001
1000
0100
1001
0000
0000
0000
1001
0010
1000
0100
1001
0010
,  // measure 4
0001
0000
0000
0100
0000
0000
0010
0000
1000
0000
0001
0000
0100
0000
0010
0000
1000
0000
0200
0000
0000
0000
0000
0000
0310
0000
0000
0001
0000
0000
0000
0000
0000
0001
0000
0000
0010
0000
0000
0000
0000
0000
0100
0000
0000
0000
0000
0000
,  // measure 5
0001
0000
0100
1000
0010
0001
1000
0000
0001
1000
0000
1000
0001
0000
0010
0000
,  // measure 6
1000
0000
0100
0000
0010
0000
0001
0000
0100
0010
0000
0010
0100
0000
1000
0000
,  // measure 7
0100
0000
0001
0000
0010
0000
0001
0010
0001
1000
0010
1000
0001
0100
1000
0100
,  // measure 8
0001
0010
0001
0100
0010
1000
0200
0000
0310
0001
0010
1000
0010
0001
0010
1000
,  // measure 9
0010
0001
0010
1000
0001
0100
1000
0010
1000
0100
1000
0010
1000
0100
1000
0010
,  // measure 10
1000
0100
1000
0010
0001
1000
0100
0010
0100
0001
0100
0010
0100
0001
0100
0010
,  // measure 11
0100
0001
0100
0010
1000
0100
0001
1000
0001
0100
0001
1000
0001
0100
0001
1000
,  // measure 12
0001
0100
0001
1000
0010
0001
0100
0010
1000
0100
1000
0001
0010
0001
1000
0100
,  // measure 13
0001
0000
0000
0100
0000
0000
1000
0000
0000
0010
0000
0000
1000
0000
0001
0000
0100
0000
0010
0000
0000
0000
0000
0000
0000
0000
0000
0110
0000
0000
0000
0000
0000
0000
0000
0000
1001
0000
0000
0000
0000
0000
0000
0000
0000
0000
0000
0000
,  // measure 14
0010
0000
0001
1000
0100
0001
1100
0000
0101
0000
1001
0000
0000
0011
0000
1010
,  // measure 15
0000
0001
0010
0100
1000
0000
0011
0000
0000
0110
0000
0000
1100
0000
0001
0100
,  // measure 16
0001
0100
1000
0010
1000
0010
1001
0000
0100
1000
0100
0001
0100
1000
0100
0001
,  // measure 17
0100
1000
0100
0001
1000
0010
0001
0100
0001
0010
0001
0100
0001
0010
0001
0100
,  // measure 18
0001
0010
0001
0100
1000
0001
0010
0100
0010
1000
0010
0100
0010
1000
0010
0100
,  // measure 19
0010
1000
0010
0100
0001
0010
1000
0001
1000
0010
1000
0001
1000
0010
1000
0001
,  // measure 20
1000
0010
1000
0001
0100
1000
0010
0100
0001
0010
0001
1000
0100
1000
0001
0010
,  // measure 21
1000
0000
0000
0010
0000
0000
0001
0000
0000
0100
0000
0000
0001
0000
1000
0000
0010
0000
0100
0000
0000
0000
0000
0000
0000
0000
0000
0110
0000
0000
0000
0000
0000
0000
0000
0000
1001
0000
0000
0000
0000
0000
0000
0000
0000
0000
0000
0000
,  // measure 22
0100
0000
1000
0001
0010
1000
0011
0000
1010
0000
1001
0000
0000
1100
0000
0101
,  // measure 23
0000
1000
0100
0010
0001
0000
1100
0000
0000
0110
0000
0000
0011
0000
1000
0010
,  // measure 24
1000
0010
0001
0100
0001
0100
1002
0000
0000
0000
0000
0003
0110
0000
0010
0000
,  // measure 25
0000
1000
0010
0000
0100
0000
0200
0000
0000
0000
0300
0000
1001
0000
1000
0000
,  // measure 26
0001
0000
0010
0100
0010
0000
0100
0000
0000
1000
0100
0000
0000
0100
0010
0000
,  // measure 27
0000
0010
0001
1000
0010
0000
0100
0000
0000
0100
0010
0000
1001
0000
0001
1000
,  // measure 28
0000
1000
0001
0010
0100
1000
1001
0000
0000
0100
0000
0000
1000
0000
1001
0000
,  // measure 29
0000
0010
0000
0000
0001
0000
2001
0000
0000
0100
0000
0000
3010
0000
1001
0000
,  // measure 30
0000
0001
0000
0000
0010
0000
1002
0000
0000
0000
0003
0000
1000
0000
1001
0000
,  // measure 31
0000
0010
0000
0000
0001
0000
2001
0000
0000
0000
3020
0000
0000
0030
1001
0000
,  // measure 32
0101
0101
1010
0000
0110
0110
0000
1100
,  // measure 33
0000
0000
0011
0000
0000
0000
0000
0000
2002
0000
0000
0000
0000
0000
3003
0000
0001
0010
0100
1000
0001
0000
0000
0000
0000
0000
0000
0000
1000
0000
0000
0000
,  // measure 34
0001
0000
1000
0001
0000
0002
0000
0003
1000
0001
0100
0010
1000
0001
0100
0010
,  // measure 35
1000
0001
0100
0010
1000
0001
0100
0010
1000
0100
0010
0001
1000
0100
0010
0001
,  // measure 36
1000
0100
0010
0001
0100
1000
0001
0010
1000
0001
0100
1000
0001
0010
1000
0001
,  // measure 37
0100
1000
0001
0010
1000
0100
0010
0001
0010
0100
0001
0100
1000
0010
1000
0001
,  // measure 38
0100
0001
1000
0100
1000
0010
1001
0000
0100
0000
1001
0000
0001
0000
0010
0000
,  // measure 39
0100
1000
0000
1000
1100
0000
0011
0000
0001
0000
1000
0000
0010
0000
0100
0000
,  // measure 40
0001
0010
0000
0010
0001
0100
1000
0000
0100
0000
0001
0000
0010
0000
0100
0000
,  // measure 41
1000
0000
0000
0000
0000
0000
0000
0000
0000
0000
0000
0000
0000
0000
0000
0000
0000
0000
0000
0000
0000
0000
0000
0000
0001
0000
0000
0000
0000
0000
0000
0000
0000
0000
0000
0000
0000
0000
0000
0000
0000
0000
0000
0000
0000
0000
0000
0000
0010
0000
0000
0000
0000
0000
0000
0000
0100
0000
0000
0000
0000
0000
0000
0000
0010
0000
0000
0000
0000
0000
0000
0000
0100
0000
0000
0000
0000
0000
0000
0000
0000
0000
0000
0000
0000
0000
0000
0000
0000
0000
0000
0000
0000
0000
0000
0000
1000
0000
0000
0000
0000
0000
0000
0000
0001
0000
0000
0000
0000
0000
0000
0000
1000
0000
0000
0000
0000
0000
0000
0000
0001
0000
0000
0000
0000
0000
0000
0000
0000
0000
0000
0000
0000
0000
0000
0000
0000
0000
0000
0000
0000
0000
0000
0000
0100
0000
0000
0000
0000
0000
0000
0000
0010
0000
0000
0000
0000
0000
0000
0000
0100
0000
0000
0000
0000
0000
0000
0000
0010
0000
0000
0000
0000
0000
1000
0000
0000
0000
0000
0000
0001
0000
0000
0000
0000
0000
0100
0000
0000
0000
0000
0000
,  // measure 42
0010
1000
0100
1000
0100
0010
1001
0000
1000
0100
0010
1000
0001
0100
1000
0010
,  // measure 43
0100
1000
0001
0010
1000
0100
0010
0000
0001
0000
1000
0000
0001
0000
0010
0000
,  // measure 44
0100
0000
0010
0100
0001
1000
0110
0000
1000
0000
0010
0100
0001
1000
0110
0000
,  // measure 45
1000
0000
0010
0100
0001
1000
0110
0000
0001
0000
1000
0000
0001
0000
1000
0001
,  // measure 46
1000
0001
0100
0010
0100
0010
1000
0000
1000
0100
0010
0100
0010
0001
0100
0001
,  // measure 47
0100
0010
1000
0010
1000
0100
0001
0100
0001
1000
0010
1000
0010
0001
0100
0010
,  // measure 48
1000
0000
0000
0001
0000
0000
1000
0000
0000
0010
0000
0000
0100
0000
0001
0000
1000
0000
0110
0000
0000
0000
0000
0000
0000
0000
0000
0100
0000
0000
0000
0000
0000
0000
0000
0000
0001
0000
0000
0010
0000
0000
1100
0000
0000
0000
0000
0000
,  // measure 49
0000
0000
0000
1100
0000
0000
0000
0000
0000
0000
0000
0000
1000
0000
0000
0100
0000
0000
0011
0000
0000
0000
0000
0000
0000
0000
0000
0000
0000
0000
0010
0000
0000
0000
0000
0000
0100
0000
1000
0000
0100
0000
1000
0000
0000
0000
0000
0000
,  // measure 50
0000
0011
0000
0000
2002
0000
0000
3003
0000
0000
0000
0000
0000
0000
0000
0000
;

//---------------dance-single - ----------------
#NOTES:
     dance-single:
     :
     Medium:
     7:
     0.417886,0.471482,0.176616,0.099347,0.171097,265.000000,249.000000,16.000000,9.000000,0.000000,0.000000,0.417886,0.471482,0.176616,0.099347,0.171097,265.000000,249.000000,16.000000,9.000000,0.000000,0.000000:
0000
0000
0000
0000
,
0000
0000
0000
0000
,
0000
0000
0000
0000
,
0000
0000
0000
1001
0000
1001
0000
0110
,
0000
0000
1001
0000
0000
0000
0010
0000
0000
1000
0000
0000
0001
0000
0000
0000
,
0000
0000
0000
0000
0000
0000
0010
0000
0000
0001
0000
0000
1000
0000
0000
0000
,
0010
0000
1000
0000
0100
0000
0010
0000
0000
0001
0000
0000
0200
0000
0000
0000
,
0000
0000
0000
0000
0300
0000
0010
0000
0000
0010
0000
0000
0020
0000
0000
0000
,
0000
0130
0000
1001
0000
0000
0001
0010
,
0100
1000
0100
1000
0000
0100
0000
1000
,
0000
1000
0000
0000
0200
0000
0000
0300
0000
0000
0000
0000
1000
0000
0100
0000
,
0010
0001
0010
0001
0000
0001
0000
0001
,
0000
0001
0000
0000
0010
0000
0001
0000
0000
0010
0000
0000
0001
0000
0000
0000
,
0001
0000
1000
0000
0010
0000
0100
0000
0000
0001
0000
0000
2000
0000
0000
3000
,
0100
0000
1000
0000
0100
0000
0010
0000
0010
0000
0010
0000
0000
0001
0000
0001
,
0000
0001
1000
0000
0000
0000
1000
0000
0000
0001
0000
0000
0200
0000
0000
0000
,
0000
0000
0000
0310
0000
0000
0010
1000
,
0010
1000
0010
1000
0000
0001
0000
0100
,
0000
0100
0000
0000
0100
0000
0000
0000
0000
0000
0000
0000
0001
0000
0100
0000
,
0001
0000
0100
0000
0001
0000
1000
0000
0000
1000
0000
0000
1000
0000
0010
0000
,
0000
1000
0000
0000
0001
0000
0010
0000
0000
0100
0000
0000
1000
0000
0000
0000
,
0100
0000
1000
0000
0100
0000
0010
0000
0000
0010
0000
0000
0010
0000
0000
0000
,
0100
0000
1000
0000
0001
0000
0100
0000
0100
0000
0100
0000
0000
0010
0000
0010
,
0000
0010
1000
0000
0000
0000
0001
0000
0000
0001
0000
0000
2000
0000
0000
0000
,
0000
3000
0001
0000
0010
0000
0100
0000
0000
0000
0000
0000
1000
0000
0100
0000
,
0000
0000
0010
0000
0000
0000
0002
0000
0000
0000
0000
0000
0000
0000
0000
0003
,
1000
0010
0100
0001
0000
0100
0000
0010
,
0000
0010
0000
0000
0010
0000
1000
0000
0000
0002
0000
0000
0000
0000
0003
0000
,
0000
0001
1000
1001
0000
0000
0001
1000
,
0000
1000
0000
0000
0001
0000
1001
0000
0000
0000
0000
0000
1000
0000
0001
0000
,
0000
1000
0000
0000
0001
0000
1001
0000
0000
0000
0000
0000
0001
0000
1000
0000
,
0000
0001
0000
0000
1000
0000
1001
0000
0000
0000
0010
0000
0000
0000
1000
0000
,
0000
0100
0000
0000
0010
0000
0000
0000
0001
0000
0001
0000
0000
0000
1000
0000
,
0000
1000
0000
0000
0020
0000
0000
0030
0000
0000
0000
0000
0000
0000
0100
0000
,
0001
0100
1000
0100
0001
0010
0001
0100
,
0010
1000
0100
0010
0100
0010
0100
1000
,
0001
0100
0010
1000
0000
0001
0100
0001
,
0000
1000
0100
1000
0000
0001
0000
1000
,
0001
1000
0001
1000
0000
1000
0000
0001
,
0000
0001
0000
0100
0000
0100
0000
0010
,
0100
0010
1000
0010
0000
1000
0000
0001
,
0000
0010
0000
0011
0000
1100
0000
0110
,
0000
1001
0000
0001
0000
1000
0001
1000
,
0001
1000
0001
0100
0000
0100
0000
0010
,
0100
0010
0100
0001
0000
0001
1000
0100
,
0000
0100
0010
0001
0000
0001
0000
0010
,
0100
0010
0100
1000
0001
0100
0010
1000
,
0000
0001
0000
1000
0100
1000
0100
1000
,
0000
0000
0001
0000
0000
0000
0100
0000
0000
0100
0000
0000
0010
0000
0010
0000
,
0000
0010
0000
0000
1000
0000
1000
0000
0000
0000
0001
0000
0000
0000
1001
0000
,
0000
1001
0000
0000
1001
0000
0000
0000
0000
0000
0000
0000
0000
0000
0000
0000
;

//---------------dance-single - ----------------
#NOTES:
     dance-single:
     :
     Easy:
     2:
     0.205001,0.305077,0.088308,0.121424,0.000000,130.000000,122.000000,8.000000,11.000000,0.000000,0.000000,0.205001,0.305077,0.088308,0.121424,0.000000,130.000000,122.000000,8.000000,11.000000,0.000000,0.000000:
0000
0000
0000
0000
,
0000
0000
0000
0000
,
0000
0000
0000
0000
,
0000
0000
0000
1001
0000
1001
0000
1001
,
0000
1001
0000
1000
0000
0000
0000
0001
,
0000
0000
0000
0100
0000
0000
0000
0010
,
0000
0000
0000
0100
0000
0000
0000
0001
,
0000
0000
0000
1000
0000
1000
0000
0001
,
0000
0001
0000
1000
0000
0000
0000
0100
,
0000
0000
0000
1000
0000
0000
0000
0001
,
0000
0000
0000
0100
0000
0000
0000
0010
,
0000
0010
0000
1000
0000
0000
0000
0001
,
0000
0000
0000
0010
0000
0010
0000
0100
,
0000
0000
0000
1000
0000
0100
0000
1000
,
0000
0100
0000
0010
0000
0010
0000
0001
,
0000
0001
0000
1000
0000
0001
0000
1001
,
0000
0000
0000
0100
0000
0000
0000
0010
,
0000
0010
0000
1000
0000
0000
0000
0001
,
0000
0000
0000
0100
0000
0000
0000
0001
,
0000
0001
0000
1000
0000
0000
0000
0100
,
0000
0000
0000
0010
0000
0010
0000
0100
,
0000
0000
0000
1000
0000
0100
0000
1000
,
0000
0100
0000
1000
0000
1000
0000
0001
,
0000
0001
0000
0100
0000
0100
0000
0010
,
0000
0000
0000
1000
0000
0000
0000
0001
,
0000
1000
0000
0001
0000
0000
0000
0010
,
0000
0000
0000
0100
0000
0000
0000
0010
,
0000
0100
0000
0010
0000
0000
0000
0100
,
0000
0000
0000
1000
0000
0000
0000
0001
,
0000
0000
0000
0100
0000
0000
0000
0010
,
0000
0000
0000
1000
0000
0000
0000
0001
,
0000
0000
0000
0010
0000
0000
0000
0100
,
0000
0000
0000
0000
1000
0001
0000
1000
,
0000
1000
0000
1001
0000
0000
0000
0100
,
0000
0100
0000
0020
0000
0000
0000
0000
,
0000
0000
0000
0000
0000
0030
0000
1000
,
0000
0001
0000
2000
0000
0000
3000
0200
,
0000
0300
0000
0020
0000
0000
0000
0000
,
0030
0000
0000
0001
0000
0001
0000
0100
,
0000
0000
0000
0010
0000
0010
0000
2000
,
0000
3000
0000
0002
0000
0000
0000
0000
,
0000
0003
0000
1000
0000
0001
0000
1000
,
0000
0001
0000
2002
0000
0000
0000
0000
,
0000
3003
0000
0000
0000
0000
0000
1000
,
0000
0100
0000
0020
0000
0000
0030
0001
,
0000
0000
0000
0200
0000
0000
0000
0300
,
0000
0010
0000
2000
0000
0000
3000
0000
,
0000
0001
0000
0010
0000
0100
0000
1000
,
0000
0000
0000
1000
0000
0000
0000
0001
,
0000
0000
0000
0100
0000
0100
0000
0010
,
0000
1000
1001
0000
0000
0000
0000
0000
;
