#TITLE:This Game;
#SUBTITLE:No Game No Life Opening;
#ARTIST:Konomi Suzuki;
#TITLETRANSLIT:;
#SUBTITLETRANSLIT:;
#ARTISTTRANSLIT:;
#GENRE:;
#CREDIT:Magna Trick;
#BANNER:TGBN.png;
#BACKGROUND:TGB.png;
#LYRICSPATH:;
#CDTITLE:Magna Trick title!.png;
#MUSIC:This Game.mp3;
#OFFSET:-0.060000;
#SAMPLESTART:27.000000;
#SAMPLELENGTH:18.000000;
#SELECTABLE:YES;
#BPMS:0.000000=147.089996
;
#STOPS:130.500000=0.408000
;
#BGCHANGES:0.063=This Game.avi=1.000=0=0=1=====,
213.500=TGB.png=1.000=0=0=1=====,
99999=-nosongbg-=1.000=0=0=0 // don't automatically add -songbackground-
;
#KEYSOUNDS:;
#ATTACKS:;

//---------------dance-single - ----------------
#NOTES:
     dance-single:
     :
     Hard:
     12:
     0.569969,0.725621,0.316470,0.192143,0.502961,353.000000,325.000000,28.000000,17.000000,0.000000,0.000000,0.569969,0.725621,0.316470,0.192143,0.502961,353.000000,325.000000,28.000000,17.000000,0.000000,0.000000:
0000
0000
0000
0000
0001
0000
0000
0010
0000
0000
0100
0000
0000
0000
1000
0000
,
0001
0000
0100
0000
0010
0000
0000
1000
0000
0000
0001
0000
0000
0000
0001
0000
,
0010
0000
0100
0000
1000
0000
0000
0001
0000
0000
0100
0000
0000
0000
0010
0000
,
0100
0000
0001
0000
1000
0000
0000
0010
0000
0000
1000
0000
0000
0000
0010
0000
,
1000
0000
0100
0000
0010
0000
0000
0010
0000
0000
0001
0000
0000
0000
0001
0000
,
1000
0000
0010
0000
0100
0000
0000
0100
0000
0000
0001
0000
0000
0000
0010
0000
,
0100
0000
1000
0000
0001
0000
0000
0001
0000
0000
0010
0000
0000
0000
0100
0000
,
1000
0000
0010
0000
0001
0000
0000
0001
0000
0000
1000
0000
0000
0000
0100
0000
,
0001
0000
0000
0000
1001
0000
0000
0010
0000
0000
1000
0000
0000
0000
0001
0000
,
0100
0000
0010
1000
0000
0000
1000
0000
1000
0000
0001
0000
0001
0000
0100
0000
,
0100
0000
0010
0000
1000
0000
0000
0001
0000
0000
0001
0000
0000
0000
0010
0000
,
0100
0000
0010
0000
0001
0000
0000
1000
0000
0000
0010
0000
0000
0000
0100
0000
,
0001
0000
0000
0000
0001
0000
0000
0100
0000
0000
0010
0000
0000
0000
1000
0000
,
0100
0000
1000
0002
0000
0000
0000
0000
0003
0000
0010
0100
1000
0000
0000
1001
,
0000
0000
0000
0000
0011
0000
0000
0100
0000
0000
1100
0000
0000
0000
0100
0000
,
0001
0000
0100
0000
1010
0000
0000
1100
0000
0000
0011
0000
0000
0101
0000
0000
,
1001
0000
0000
0000
0000
0000
0001
0000
1000
0000
0010
1000
0000
0001
0000
0100
,
0001
0000
1000
0000
0000
0000
0001
0000
1000
0000
0100
1000
0000
0100
0000
0010
,
0001
0000
1000
0000
0000
0000
0001
0000
1000
0000
0010
0100
0000
0001
0000
1000
,
0010
0000
0100
0000
0001
0000
0100
0010
0000
0010
1000
0000
1000
0100
0000
0010
,
0001
0000
1000
0000
0000
0000
0001
0000
0010
0000
0100
0010
0000
0001
0000
0010
,
0100
0000
1000
0000
0000
0000
0001
0000
0100
0000
0010
1000
0000
0001
0000
0100
,
0010
0000
1000
0000
0000
0000
0001
0000
0010
0000
0100
1000
0000
0001
0000
0010
,
0100
0000
1000
0000
0101
0000
0000
0110
0000
0000
1010
0000
0000
0000
1000
0000
,
0001
0000
1000
0000
2001
0000
0000
0000
3000
0000
0001
1000
0001
0000
1000
0000
,
0001
0000
0010
0000
0200
0000
0000
0000
0300
0000
1000
0001
0020
0000
0000
0000
,
0000
0030
0100
0000
2000
0000
0000
0000
3001
0000
1000
0001
0000
0000
0001
0000
,
0010
0100
0010
0100
1000
0001
0100
0010
1000
0001
0100
0010
1000
0000
0000
0001
,
0000
0000
1000
0000
0110
0000
0000
0110
0000
0000
0110
0000
0010
0000
0000
1000
,
0000
0000
1000
0000
0001
0000
0000
0001
0000
0000
1000
0001
1000
0000
0000
0000
,
0000
0000
0001
1000
0100
0000
0000
0100
0000
0000
0010
0001
0010
0000
0001
0000
,
0100
0000
0010
0000
1000
0000
0000
1000
0000
0000
0001
0010
0100
0000
0000
0100
,
0000
0000
0010
0001
1100
0000
0000
0011
0000
0000
1001
0000
0100
1000
0001
0010
,
1001
0000
0000
0000
0001
0000
0000
0000
1000
0000
0000
0001
0000
0000
1000
0000
,
0001
0000
0000
0000
0010
0000
0000
0000
0100
0000
0000
0100
0000
0000
0010
0000
,
0001
0000
0000
0000
1000
0000
0000
0000
0010
0000
0000
0100
0000
0000
0001
0000
,
0100
0000
0000
0010
0000
0000
2000
0000
0000
0000
3000
0000
0000
0000
0001
0010
,
0200
0000
0000
0000
0300
0000
1000
0010
0200
0000
0000
0000
0300
0000
0001
0100
,
0020
0000
0000
0000
0030
0000
1000
0100
0020
0000
0000
0000
0030
0000
0001
0000
,
1000
0000
0000
0001
0000
0000
1000
0000
0100
0000
0100
0000
0010
0000
0010
0000
,
0001
0000
0000
0000
1000
0000
0001
0100
0001
0000
0000
0000
2010
0000
0000
0000
,
3002
0000
0000
0000
0000
0000
0000
0000
1003
0000
0000
1000
0000
0000
0100
0000
,
0010
0000
0000
0000
0001
0000
0000
0000
0100
0000
0000
0100
0000
0000
0010
0000
,
1000
0000
0000
0000
0001
0000
0000
0000
0010
0000
0000
0100
0000
0000
1000
0000
,
0001
0000
0000
0100
0000
0000
0020
0000
0000
0000
0030
0000
0000
0000
1000
0010
,
1000
0000
0000
0001
0000
0000
0100
0000
0000
0000
0010
0000
1000
0000
0100
0000
,
0010
0000
0000
0010
0000
0000
0010
0000
0000
0000
0100
0000
0010
0000
0001
0000
,
1000
0000
0000
0010
0000
0000
0200
0000
0000
0000
0000
0000
0300
0000
0000
0000
,
0001
0100
0010
1000
,
1001
0000
0000
0001
0000
0000
0010
0000
0000
0000
0100
0000
0010
0000
0100
2000
,
0000
0000
0000
3000
0000
0000
0000
0000
1000
0000
0000
1000
0000
0000
0100
0000
,
0110
0000
0000
1100
0000
0000
0101
0000
0000
1010
0000
0000
0011
0000
0000
0000
,
2001
0000
0000
0000
,
3002
0000
0003
0000
;

//---------------dance-single - ----------------
#NOTES:
     dance-single:
     :
     Challenge:
     17:
     0.867063,0.967494,0.293865,0.180840,1.113296,537.000000,511.000000,26.000000,16.000000,0.000000,0.000000,0.867063,0.967494,0.293865,0.180840,1.113296,537.000000,511.000000,26.000000,16.000000,0.000000,0.000000:
// measure 0
0000
0000
0000
0000
1001
0000
0000
0100
0000
0000
0010
0000
0000
0000
0001
0000
,  // measure 1
1000
0010
0100
0000
0001
0000
1000
0010
0000
1000
0100
0000
0000
0000
1000
0000
,  // measure 2
0100
0010
0001
0000
0100
0000
0010
1000
0000
0010
0100
0000
0000
0000
0100
0000
,  // measure 3
0010
1000
0001
0000
0100
0000
0010
0100
0000
0010
1000
0000
0000
0000
0001
0000
,  // measure 4
0010
0100
1000
0001
0100
0000
0001
0100
0001
0000
1000
0100
1000
0000
0001
0010
,  // measure 5
0001
0100
0010
1000
0010
0000
1000
0001
1000
0000
0001
1000
0001
0000
1000
0001
,  // measure 6
1000
0100
0001
1000
0001
0000
1000
0010
1000
0000
0010
0001
0010
0000
0001
0100
,  // measure 7
0001
1000
0100
1000
0010
0000
1000
0001
0000
1000
0001
0000
0100
0010
1000
0001
,  // measure 8
1000
0000
0010
0000
1001
0000
0001
0100
0000
0100
0001
0000
1000
0000
0010
0100
,  // measure 9
0001
0000
0010
0100
1000
0001
1000
0001
1000
0001
0100
0010
0100
0010
0100
0010
,  // measure 10
1000
0100
0001
0100
1000
0000
0100
1000
0000
1000
0100
0010
0001
1000
0100
0010
,  // measure 11
0001
1000
0100
0010
0001
0100
0001
0100
0000
0100
0010
0000
0010
1000
0100
0010
,  // measure 12
0001
0000
1000
0000
0010
0000
0100
0010
0000
0010
1000
0001
0010
0001
1000
0010
,  // measure 13
1000
0000
0000
0001
0000
0000
0100
0000
0000
1000
0000
0000
0100
0000
0000
0001
0000
0000
0010
0000
0000
0100
0000
0000
1000
0000
0000
0100
0000
0000
0010
0000
0001
0000
1000
0000
0100
0000
0000
0000
0000
0000
0000
0000
0000
1001
0000
0000
,  // measure 14
0000
0000
0100
1000
0100
1000
0001
0100
0001
0100
1000
0001
0010
1000
0010
0100
,  // measure 15
0001
0000
0000
0010
0000
0000
0100
0000
0000
1000
0000
0000
0101
0000
0000
0000
0000
0000
0000
0000
0000
0011
0000
0000
0000
0000
0000
0000
0000
0000
1100
0000
0000
0000
0000
0000
0000
0000
0000
1010
0000
0000
0000
0000
0000
0000
0001
0000
,  // measure 16
1000
0000
0000
0000
0000
0000
1000
0000
0001
0000
0100
0001
0000
1000
0010
1000
,  // measure 17
0001
0000
0100
0000
0000
0000
0001
0000
0010
0000
0100
0010
1000
0010
0100
1000
,  // measure 18
0001
0000
0100
0000
0000
0000
0001
0000
1000
0000
0100
0010
0000
1000
0001
0100
,  // measure 19
1000
0010
1000
0100
0010
0000
0010
0100
0000
0100
0001
0000
0001
1000
0000
0010
,  // measure 20
0100
0000
1001
0000
0000
0000
1000
0000
0100
0001
0100
1000
0010
1000
0100
0010
,  // measure 21
0001
1000
0100
0010
0001
0100
0010
1000
0001
0100
0010
1000
0100
1000
0010
0001
,  // measure 22
0010
0100
0001
1000
0001
0000
1000
0000
0100
0000
0010
0001
1000
0010
1000
0001
,  // measure 23
0100
0000
0001
0000
1010
0000
0000
0110
0000
0000
0101
0000
0000
0000
0001
0000
,  // measure 24
1000
0000
0010
0100
1002
0000
0000
0000
0003
0000
1000
0001
1000
0000
0001
0000
,  // measure 25
1000
0000
0100
0000
0020
0000
0000
0000
0030
0000
0001
1000
0200
0000
0000
0000
,  // measure 26
0000
0300
0010
0000
0002
0000
0000
0000
1003
0000
0001
1000
0000
0000
1000
0000
,  // measure 27
0100
0010
0100
0010
0001
0100
1000
0100
0001
0010
0001
1000
0100
0000
1000
0001
,  // measure 28
0000
0000
1000
0000
0001
0000
0000
0000
0110
0000
0000
0000
0000
0000
0110
0000
0000
0000
0000
0000
0110
0000
0000
0000
0100
0010
1000
0001
0100
0010
1000
0001
,  // measure 29
0100
0000
0001
0000
1000
0000
0000
1000
0000
0000
0001
1000
0001
0000
0000
0000
,  // measure 30
0000
0000
0000
0000
0000
0000
1000
0000
0000
0001
0000
0000
0010
0000
0000
0000
0000
0000
0000
0000
0000
0010
0000
0000
0000
0000
0000
0000
0000
0000
0100
0000
1000
0000
0100
0000
1000
0000
0000
0000
0000
0000
1000
0000
0000
0000
0000
0000
,  // measure 31
0010
0000
0100
0000
0001
0000
0000
0001
0000
0000
1000
0100
0010
0000
0000
0010
,  // measure 32
0000
0000
0100
1000
0011
0000
0000
1100
0000
0000
1001
0000
0010
0001
1000
0100
,  // measure 33
1001
0000
0000
0000
1000
0000
0000
0000
0001
0000
1000
0001
0000
0001
1000
0000
,  // measure 34
0010
0000
0000
0000
0100
0000
0000
0000
0010
0000
0100
0010
0000
0010
0100
0000
,  // measure 35
1000
0000
0000
0000
0100
0000
0000
0000
0001
0000
0010
0001
0000
0001
1000
0000
,  // measure 36
1000
0000
0010
1000
0000
1000
0002
0000
1000
0000
0003
0000
0100
0000
1000
0100
,  // measure 37
0020
0000
0000
0000
0031
0000
0001
0100
0020
0000
0000
0000
1030
0000
1000
0010
,  // measure 38
0200
0000
0000
0000
0301
0000
0001
0010
0200
0000
0000
0000
1300
0000
1000
0001
,  // measure 39
0100
0000
0010
1000
0000
0100
1000
0000
0010
0000
0010
0000
0100
0001
1000
0100
,  // measure 40
0010
0000
0001
0100
0001
0000
1000
0100
1000
0000
0001
0000
0102
0000
0000
0000
,  // measure 41
2003
0000
0000
0000
0100
0000
0000
0000
3001
0000
0010
0100
0000
0100
0010
0000
,  // measure 42
0100
0000
0000
0000
1000
0000
0000
0000
0010
0000
0100
0010
0000
0010
0100
0000
,  // measure 43
0001
0000
0000
0000
1000
0000
0000
0000
0100
0000
0010
0001
0000
0001
1000
0000
,  // measure 44
1000
0000
0010
1000
0000
1000
0002
0000
0100
0000
0003
0000
1000
0000
0001
0100
,  // measure 45
0001
0000
0000
1000
0000
0000
0010
0000
0000
0000
0100
0000
0001
0000
0010
0000
,  // measure 46
0100
0000
1000
0100
0000
1000
0001
0000
0000
0000
0010
0000
0100
0000
1000
0000
,  // measure 47
0001
0000
0100
1000
0000
0100
0020
0000
1000
0000
0000
0000
0031
0010
0100
1000
,  // measure 48
0001
0000
0000
0000
0000
0000
0000
0000
0000
0100
0000
0000
0000
0000
0000
0000
0000
0000
0010
0000
0000
0000
0000
0000
0100
0000
0001
0000
0100
0000
0001
0000
1000
0000
0100
0000
1000
0000
0000
0000
0000
0000
0001
0000
0000
1000
0000
0000
,  // measure 49
0001
0000
1000
0100
0000
0100
0010
0000
0001
0000
0010
0000
0100
0000
0010
0002
,  // measure 50
1000
0000
0000
0013
0100
1000
0000
1000
0100
0010
0000
0001
0000
0000
0010
0000
,  // measure 51
0110
0000
0000
0011
0000
0000
1010
0000
0000
0101
0000
0000
1100
0000
0000
0000
,  // measure 52
1002
0000
0000
0000
0000
0000
0000
0000
0000
0000
0000
0000
0000
0000
0000
0000
0000
0000
0000
0000
0000
0003
0000
0001
,  // measure 53
2000
0000
3000
0000
;

//---------------dance-single - ----------------
#NOTES:
     dance-single:
     :
     Medium:
     8:
     0.408505,0.484312,0.067815,0.271260,0.214748,253.000000,247.000000,6.000000,24.000000,0.000000,0.000000,0.408505,0.484312,0.067815,0.271260,0.214748,253.000000,247.000000,6.000000,24.000000,0.000000,0.000000:
0000
1000
0000
0000
,
0000
0001
0000
0000
,
0000
0100
0000
0000
,
0000
0010
0000
0000
,
0000
1000
1000
1000
,
1000
0001
0001
0001
,
0001
0010
0010
0010
,
0010
0000
0000
0000
0100
0000
0000
1000
0000
0000
0001
0000
0000
0000
0100
0000
,
0010
0000
0000
0000
0010
0000
0000
0010
0000
0000
1000
0000
0000
0000
1000
0000
,
0001
0000
0100
0001
0000
0000
0000
0000
0000
0000
0000
0000
0000
0000
0000
0000
,
0000
0000
0000
0000
0001
0000
0000
0001
0000
0000
0010
0000
0000
0000
0100
0000
,
1000
0000
0001
0000
0100
0000
0000
0100
0000
0000
0010
0000
0000
0000
0010
0000
,
1000
0000
0000
0000
1000
0000
0000
0001
0000
0000
1000
0000
0000
0000
0001
0000
,
0010
0000
0100
1000
0000
0000
0000
0000
0000
0000
1000
0010
1000
0000
0000
0001
,
0000
0000
0000
0000
0100
0000
0000
0100
0000
0000
0010
0000
0000
0000
0010
0000
,
1000
0000
0001
0000
0100
0000
0000
0100
0000
0000
0010
0000
0000
0010
0000
0000
,
0010
0000
0000
1000
0001
1000
0001
1000
,
0010
0100
0000
0001
1000
0001
1000
0001
,
0010
0100
0000
1000
0010
1000
0010
1000
,
0010
0000
0100
0000
0001
0000
0000
0001
0000
0000
0001
0000
0000
0001
0000
0000
,
1000
0100
0000
0010
0001
0010
0001
0010
,
0100
1000
0000
1000
0010
1000
0010
1000
,
0010
0100
0000
0001
1000
0100
0010
0001
,
0010
0000
0100
0000
1000
0000
0000
1000
0000
0000
1000
0000
0000
0000
0001
0000
,
0100
0010
2000
0000
0000
3000
0000
0010
,
1000
0001
0200
0000
0300
0001
0020
0000
,
0030
0100
2000
3000
0001
1000
0010
0100
,
0001
0000
1000
0000
0100
0000
0100
0000
0010
0000
0010
0000
0001
0000
0000
1000
,
0000
0000
0001
0000
1000
0000
0000
1000
0000
0000
1000
0000
0020
0000
0000
0000
,
0000
0000
0030
0000
0100
0000
0000
0100
0000
0000
0001
0000
1000
0000
0000
0000
,
0000
0000
0001
0000
0010
0000
0000
0100
0000
0000
1000
0000
0010
0000
0100
0000
,
0001
0000
1000
0000
0100
0000
0000
0100
0000
0000
0010
0000
0001
0000
0000
0001
,
0000
0000
1000
0000
0001
0000
0000
1000
0000
0000
0001
0000
0000
0000
0000
0000
,
2000
0000
0000
0000
0000
0000
3000
0000
0010
0000
0000
0100
0000
0000
0001
0000
,
0020
0000
0000
0000
0000
0000
0030
0000
0100
0000
0000
1000
0000
0000
0001
0000
,
0200
0000
0000
0000
0000
0000
0300
0000
0010
0000
0000
0010
0000
0000
0010
0000
,
1000
0000
0000
1000
0000
0000
0002
0000
0000
0000
0000
0003
0000
0000
1000
0000
,
0002
0000
0000
0000
0000
0003
1000
0000
0200
0000
0000
0000
0000
0300
0010
0000
,
0002
0000
0000
0000
0003
0000
1000
0000
0020
0000
0000
0000
0000
0030
0100
0000
,
0001
0000
0000
1000
0000
0000
0100
0000
0000
0000
1000
0000
0001
0000
0100
0000
,
0020
0000
2030
3002
,
0203
0000
0000
0000
0000
0000
0000
0300
0010
0000
0000
1000
0000
0000
0001
0000
,
0020
0000
0000
0000
0000
0000
0000
0030
0100
0000
0000
1000
0000
0000
0001
0000
,
0200
0000
0000
0000
0000
0000
0000
0300
0010
0000
0000
1000
0000
0000
0001
0000
,
0010
0000
0000
0000
0100
0000
2000
0000
0000
0000
0000
0000
0000
0000
3000
0001
,
0100
0000
0000
0010
0000
0000
1000
0000
0000
0000
0001
0000
1000
0000
0100
0000
,
0010
0000
0000
0001
0000
0000
0010
0000
0000
0000
0100
0000
1000
0000
0001
0000
,
0100
0000
0000
0010
0000
0000
2000
0000
0000
0000
0000
0000
0000
0000
3000
0000
,
0001
1000
0001
1000
,
0001
0000
0000
0001
0000
0000
1000
0000
0000
0000
1000
0000
0010
0000
0100
0000
,
0002
0000
0000
0000
0003
0000
0000
0000
0001
0000
0000
0001
0000
0000
0010
0000
,
1100
0000
0000
1100
0000
0000
0101
0000
0000
0101
0000
0000
1001
0000
0000
0000
,
2001
0000
0000
0000
0000
0000
0000
0000
0000
0000
0000
0000
0000
0000
0000
3000
,
0020
0000
0000
0000
0000
0000
0000
0000
0000
0030
0000
0000
0000
0000
0000
0000
;

//---------------dance-single - ----------------
#NOTES:
     dance-single:
     :
     Easy:
     2:
     0.209904,0.271472,0.011303,0.101723,0.000000,130.000000,129.000000,1.000000,9.000000,0.000000,0.000000,0.209904,0.271472,0.011303,0.101723,0.000000,130.000000,129.000000,1.000000,9.000000,0.000000,0.000000:
0000
0000
0000
0000
,
0000
0000
0000
0000
,
0000
0000
0000
0000
,
0000
0000
0000
0000
,
0000
1000
1000
1000
,
0000
0001
0001
0001
,
0000
0010
0010
0010
,
0000
0100
0100
0100
,
0100
1000
0000
0001
,
0000
0100
0000
0000
,
0000
0010
0000
1000
,
0000
0001
0001
1000
,
0000
1000
0000
0010
,
0000
0100
0000
0001
,
0000
1000
0000
0001
,
0000
0010
0010
0001
,
1000
0000
0010
0010
,
1000
0000
0001
0001
,
0100
0000
1000
1000
,
0001
0010
0001
0010
,
0001
0000
0001
0001
,
1000
0000
1000
1000
,
0001
0000
0100
0100
,
0010
1000
0000
0001
,
0000
0100
0000
0000
,
0010
1000
0000
0001
,
0000
0010
0000
0100
,
0000
1000
1000
0001
,
0000
0100
0000
0010
,
0000
1000
0000
0001
,
0000
0010
0000
0100
,
0000
1000
1000
0001
,
0001
0000
0100
0000
0010
1001
0000
0000
,
1000
0000
0001
0000
,
1000
0000
0001
0000
,
0010
0000
0100
0100
,
1000
0000
0001
0000
,
0100
0000
0010
0000
,
1000
0000
0001
0000
,
0010
0010
0100
0100
,
1000
0001
0100
0100
,
0020
0000
0000
0030
1000
0000
0000
0000
,
0002
0000
0103
0000
,
0020
0000
0000
0030
1000
0000
0000
0000
,
0200
0000
0000
0300
0010
0000
0000
0000
,
0002
0000
0000
0003
1000
0000
0000
0000
,
0002
0000
0000
0003
1000
0000
0000
0000
,
0020
0000
0000
0030
0100
0000
0000
0000
,
0010
1000
0001
1000
,
0001
0001
1000
1000
,
0001
0000
1000
0100
,
1000
1000
0001
0001
,
0200
0000
0000
0000
0000
0000
0000
0300
,
0020
0000
0000
0030
0000
0000
0000
0000
;
