#TITLE:The World;
#SUBTITLE:Death Note Opening 1;
#ARTIST:Nightmare;
#TITLETRANSLIT:;
#SUBTITLETRANSLIT:;
#ARTISTTRANSLIT:;
#GENRE:;
#CREDIT:Magna Trick;
#BANNER:TWBN.jpg;
#BACKGROUND:TWBG.jpg;
#LYRICSPATH:;
#CDTITLE:Magna Trick title!.png;
#MUSIC:The World.mp3;
#OFFSET:-0.112596;
#SAMPLESTART:51.889996;
#SAMPLELENGTH:14.000000;
#SELECTABLE:YES;
#DISPLAYBPM:190.000000;
#BPMS:0.000000=189.800003
,72.000000=190.000000
,124.000000=191.000000
,130.000000=190.000000
,167.000000=191.000000
,177.000000=190.500000
,188.500000=190.000000
,217.000000=188.000000
;
#STOPS:124.000000=0.314000,
155.000000=0.316000,
155.500000=0.158000
;
#BGCHANGES:0.083=The World.avi=1.000=0=0=1=====,
242.000=TWBG.jpg=1.000=0=0=1=====,
99999=-nosongbg-=1.000=0=0=0 // don't automatically add -songbackground-
;
#KEYSOUNDS:;
#ATTACKS:;

//---------------dance-single - ----------------
#NOTES:
     dance-single:
     :
     Hard:
     12:
     0.627988,0.700719,0.358850,0.166609,0.032040,343.000000,315.000000,28.000000,13.000000,0.000000,0.000000,0.627988,0.700719,0.358850,0.166609,0.032040,343.000000,315.000000,28.000000,13.000000,0.000000,0.000000:
0000
0000
0000
1001
0000
0010
0100
1001
,
0001
0100
0010
1000
0000
0010
0100
0001
,
0010
1000
0000
0110
0010
0001
1000
0010
,
0100
1000
0000
1100
0100
0001
0010
0000
,
0100
1000
0000
1001
0000
0010
0100
0000
,
0001
1000
0010
0100
0000
0010
0001
1000
,
0100
0001
0000
0101
0000
0010
1000
0000
,
0100
1000
0000
0011
0000
0001
0100
0000
,
0010
0100
0001
2000
0000
3002
0000
0003
,
0001
0010
0100
2000
0000
0000
0010
0000
,
0000
0010
0000
0010
,
0000
0010
0000
0010
,
0000
0000
0010
0000
0001
3001
0010
0100
,
0010
0100
1000
1001
0000
0010
1000
0000
,
0001
0100
0000
0100
0000
0010
1000
0000
,
0100
1000
0100
0010
0000
0001
0010
0000
,
0001
0010
0001
0010
0000
0100
1000
0001
,
0100
0010
1000
0000
0001
1000
0000
0010
,
0100
0000
2001
0002
0000
0000
3003
0000
,
0010
0110
0000
1001
0000
0000
0100
0000
,
1000
0001
0100
1000
,
0100
0000
0001
0020
0000
0000
0100
0000
,
0030
0000
1000
0002
0000
0000
0100
0003
,
0000
0000
0010
2000
0000
0000
0001
0000
,
0000
0000
0001
0000
0000
3000
0001
0000
,
1000
0000
0010
0200
0000
0000
0010
0000
,
0000
0310
1010
0001
,
0101
1000
1001
0001
,
1000
0010
0100
0001
,
1000
0010
0110
0010
,
0100
0001
1000
0110
,
2002
3003
0010
0000
1000
0000
0100
1000
,
0100
0000
0010
0001
0010
0000
0001
1000
,
0010
0100
0000
0010
0100
0000
0001
0100
,
1000
0000
1000
0100
0001
0000
0001
0010
,
1000
0010
0000
0100
0010
0000
0001
1000
,
0010
0000
0100
0001
1000
0010
0100
0001
,
1000
0100
0000
0100
1000
0100
0010
0100
,
0010
0001
0000
0001
0010
0000
0011
0011
,
0100
0010
0001
0000
1000
0100
0001
0100
,
0001
0010
0001
0100
1000
0000
1010
0000
,
1000
0010
0001
0100
1000
0000
1100
0000
,
1000
0100
0001
1000
0010
0100
0001
0000
,
1000
0010
0000
1000
0100
0010
1000
0000
,
1000
0010
0100
1000
0001
0000
0110
0000
,
0001
1000
0000
0100
0010
0000
0110
0000
,
0001
1000
0000
0010
0100
0001
1000
0000
,
0100
0010
0000
0001
0010
0100
1000
0000
,
0001
0100
0000
0001
0100
0010
0100
0000
,
0001
0100
0000
0010
1000
0010
1000
0000
,
0100
0010
0000
0100
1000
0100
1000
0000
,
0100
0010
0000
0001
1000
0001
1000
0000
,
0010
0100
0000
0001
0100
1000
0100
0000
,
0001
0000
0000
0000
0000
0000
0000
0000
0000
1000
0000
0000
0000
0000
0000
0000
0000
0000
0000
0000
0001
0000
0000
0000
0000
0000
0000
0000
1000
0000
0000
0000
0000
0000
0000
0000
0100
0000
0000
0000
0000
0000
0000
0000
0010
0000
0000
0000
,
0000
0000
0001
0000
0000
0000
0001
0000
0000
1000
0000
0000
0000
0000
0000
0010
0000
0000
1000
0000
0000
0000
0000
0000
,
0100
0010
0000
0001
0100
0010
1001
0000
,
0010
0100
0000
0001
1000
0100
0110
0000
,
0001
1000
0000
0010
0100
0001
1010
0000
,
0100
1000
1000
1000
1000
0001
0000
0101
,
0100
0000
0010
1000
0000
0220
0000
0000
,
0000
0000
0000
0330
;

//---------------dance-single - ----------------
#NOTES:
     dance-single:
     :
     Challenge:
     14:
     0.838538,0.817506,0.756149,0.179425,0.076896,458.000000,399.000000,59.000000,14.000000,0.000000,0.000000,0.838538,0.817506,0.756149,0.179425,0.076896,458.000000,399.000000,59.000000,14.000000,0.000000,0.000000:
// measure 0
0000
0000
0000
1001
0000
1100
0011
1001
,  // measure 1
0100
1000
1000
0001
0000
0100
0010
1000
,  // measure 2
0100
0001
0000
0110
0100
1000
0001
0100
,  // measure 3
0010
0001
0000
0011
0010
1000
1100
0000
,  // measure 4
0010
0000
0001
0000
1000
0001
1000
0000
0000
0000
0001
0000
0011
0000
0000
0000
,  // measure 5
1001
0010
0100
1001
0000
0100
1000
0001
,  // measure 6
0010
1000
0000
1010
0000
0100
0101
1000
,  // measure 7
0100
0010
0000
1100
0000
1000
0110
0000
,  // measure 8
0101
0010
1000
0002
0000
2003
0100
3000
,  // measure 9
1000
0100
0010
0001
1000
0010
0100
0001
,  // measure 10
1000
0010
0100
0001
1000
0010
0100
0001
,  // measure 11
0100
1000
0100
0101
1000
0010
0100
0001
,  // measure 12
1000
0010
0100
0001
1000
1000
0100
0100
,  // measure 13
0100
0100
0010
1001
0000
0100
0101
0000
,  // measure 14
1000
0100
1100
0000
0001
0010
0011
0100
,  // measure 15
1000
0001
0010
1100
0000
1000
1001
0000
,  // measure 16
1000
0000
0100
0000
1000
0000
0100
0000
0010
0000
0010
0000
0001
0000
1000
0010
,  // measure 17
0100
0001
0001
1000
1001
0101
0000
1100
,  // measure 18
1010
0000
0000
0000
0000
0000
0000
0000
0000
0000
0000
0000
1002
0000
0000
0000
0000
0000
2000
0000
0000
0000
0000
0000
0000
0000
0000
0000
0000
0000
0000
0000
0000
0000
0000
0000
3003
0000
0000
0000
0000
0000
0000
0000
0000
0000
0000
0010
,  // measure 19
0100
0110
0000
1001
0000
0100
0010
1000
,  // measure 20
0001
1000
0100
0010
0001
1000
0001
0100
,  // measure 21
0010
0001
1000
0200
0001
0000
0010
0000
,  // measure 22
1300
0100
0001
2000
0100
0000
0010
3000
,  // measure 23
0100
0100
0100
0020
0001
0000
0100
0000
,  // measure 24
0001
0001
0100
0000
0001
0001
0130
1000
,  // measure 25
0001
1000
0100
0020
0001
0000
0100
0000
,  // measure 26
1000
0000
0000
0000
0031
0000
0000
0000
0101
0000
0000
0000
0010
0000
1000
0100
,  // measure 27
0001
0001
0100
1000
1002
0000
1003
0010
,  // measure 28
1000
0100
1000
0010
1000
0100
1000
0010
,  // measure 29
1000
0100
1000
0010
0110
0100
0001
0010
,  // measure 30
0001
0000
0100
0000
0001
0000
0010
0001
0100
0000
0001
0000
0010
0000
0100
0000
,  // measure 31
2002
3003
0100
0000
0001
0000
0010
0001
,  // measure 32
0010
0000
0100
1000
0100
0000
1000
0001
,  // measure 33
0100
0110
0000
0010
0110
0000
1000
0010
,  // measure 34
0011
0000
0001
0010
1010
1000
0001
0100
,  // measure 35
0001
1001
0000
0010
0100
0001
1000
0001
,  // measure 36
0001
0100
0010
0010
1000
0100
0010
1000
,  // measure 37
0001
0100
1000
0010
0001
0010
1000
0010
,  // measure 38
0001
0011
0000
0010
0100
0000
1100
0011
,  // measure 39
0001
0010
1001
1000
0001
0100
0010
0001
,  // measure 40
1000
0100
1000
0010
0001
0000
0101
1000
,  // measure 41
0001
0100
1000
0010
0001
0000
0011
0100
,  // measure 42
0001
0010
1000
0001
0100
0010
1000
0000
,  // measure 43
0001
0100
0000
0001
0010
0100
0101
0000
,  // measure 44
0001
0100
0010
0001
1000
0000
0110
0000
,  // measure 45
1000
0001
0000
0010
0100
0000
0110
0000
,  // measure 46
1000
0001
0000
0100
0010
1000
1001
0000
,  // measure 47
0010
0000
0100
0000
0000
0000
1000
0100
0010
0000
0001
0100
0010
0000
0000
0000
,  // measure 48
1000
0010
0100
0001
0100
0001
1001
0000
,  // measure 49
0001
0010
0100
1000
0100
1000
1001
0000
,  // measure 50
0100
0010
1000
0001
1000
0001
1001
0000
,  // measure 51
0001
1000
0010
0100
0010
0100
1001
0000
,  // measure 52
0100
0010
0100
0001
0010
1000
0010
0000
,  // measure 53
1000
0000
0000
0000
0000
0000
0000
0000
0000
0001
0000
0000
0000
0000
0000
0000
0000
0000
0000
0000
0100
0000
0000
0000
0000
0000
0000
0000
1000
0000
0000
0000
0000
0000
0000
0000
0010
0000
0000
0000
0000
0000
0000
0000
0100
0000
0000
0000
,  // measure 54
0000
0000
1000
0000
0000
0000
0100
0000
0000
1001
0000
0000
0000
0000
0000
0010
0000
0000
1002
0000
0000
0000
0000
0000
,  // measure 55
0013
0100
1000
1000
0010
0100
1001
0000
,  // measure 56
0100
0010
0001
0001
0001
0010
0110
0000
,  // measure 57
1000
0001
0000
0100
0010
1000
0101
0000
,  // measure 58
0010
0001
0001
0001
0001
1000
0000
1010
,  // measure 59
0010
0000
0100
0001
0000
0220
0000
0000
,  // measure 60
0000
0000
0000
0330
;

//---------------dance-single - ----------------
#NOTES:
     dance-single:
     :
     Medium:
     7:
     0.494334,0.540518,0.102529,0.025632,0.000000,270.000000,262.000000,8.000000,2.000000,0.000000,0.000000,0.494334,0.540518,0.102529,0.025632,0.000000,270.000000,262.000000,8.000000,2.000000,0.000000,0.000000:
0000
0000
0000
0000
,
0000
0000
0000
1000
0000
0010
0100
0000
,
0010
0100
0000
0001
0000
0010
0001
0000
,
0010
0001
0000
1000
0000
0100
1000
0000
,
0100
1000
0000
0001
0000
1000
0010
0000
,
1000
0010
0000
0100
0000
0001
0100
0000
,
0001
0100
0000
0010
0000
1000
0001
0000
,
1000
0001
0000
0010
0000
0100
0010
0000
,
0100
0010
0000
0100
0000
1000
0001
0000
,
1000
0001
1000
0001
0000
0000
0001
0000
,
1000
0001
0100
1000
,
0001
0000
0100
0010
0000
0000
1000
0000
,
0001
1000
0100
0010
,
0001
0000
0010
0100
0000
0000
1000
0000
,
0001
0100
0010
1000
,
0100
0000
0010
0100
0000
0000
0010
0000
,
0001
1000
0001
1000
,
0001
1000
0001
0000
1000
0100
0000
0010
,
0001
0000
1000
0100
0000
0000
0000
0000
,
1000
0001
0000
1001
0000
0000
0010
0000
,
0100
0001
1000
0010
,
1000
0000
0100
0010
0000
0000
0001
0000
,
0010
0000
0100
1000
0000
0000
0001
0000
,
1000
0000
0010
1000
0000
0000
0100
0000
,
0010
0001
1000
0010
,
0100
0000
0001
0100
0000
0000
1000
0000
,
0100
0001
1001
0010
,
1001
0100
1001
0010
,
1000
0100
0010
0001
,
0100
0001
0010
0001
,
0100
0010
1000
0100
,
1001
1000
0001
0100
,
0010
0100
0001
1000
,
0100
0010
0000
0000
0100
0000
1000
0000
,
0100
0010
0001
0100
,
0001
0100
0000
0000
0010
0000
0100
0000
,
0001
1000
0100
0010
,
0100
1000
0000
0100
0010
0000
0001
0000
,
0100
0001
0000
0100
0010
0000
1001
1001
,
0010
0100
0010
0000
0000
0000
0001
0000
,
1000
0000
0001
1000
0001
0000
1000
0000
,
0010
0000
0100
0010
0100
0000
0010
0000
,
0100
0000
0001
0100
0001
0000
1000
0000
,
0100
0000
0010
0100
0010
0000
0001
0000
,
1000
0000
0010
1000
0010
0000
1000
0000
,
0001
0000
0100
0001
0100
0000
0001
0000
,
1000
0000
0100
1000
0100
0000
0010
0000
,
0001
0000
1000
0001
1000
0000
0010
0000
,
0100
0000
0010
0100
0010
0100
0010
0000
,
0100
0000
0001
1000
0001
1000
0001
0000
,
1000
0000
0100
0010
0100
0010
0100
0000
,
0010
0000
0001
1000
0001
1000
0001
0000
,
1000
0010
0000
0100
0000
0001
2000
0000
,
0000
0000
0000
0000
,
0000
0000
3000
0110
0000
0001
1000
0000
,
1000
0001
0000
0100
0000
0010
0100
0000
,
0000
0010
0000
0100
0000
0001
1000
0000
,
0000
0010
0000
0100
0000
1000
0001
0000
,
0000
1000
0000
0010
0100
0001
0000
1000
,
0100
0000
0010
0001
0000
0100
2000
0000
,
0000
3000
0000
0000
;

//---------------dance-single - ----------------
#NOTES:
     dance-single:
     :
     Easy:
     4:
     0.336880,0.429979,0.025632,0.064080,0.000000,184.000000,182.000000,2.000000,5.000000,0.000000,0.000000,0.336880,0.429979,0.025632,0.064080,0.000000,184.000000,182.000000,2.000000,5.000000,0.000000,0.000000:
0000
0000
0000
0000
,
0000
0000
0000
1000
0000
1000
0000
1000
,
0000
1000
0000
0001
0000
0001
0000
0001
,
0000
0001
0000
0010
0000
0010
0000
0010
,
0000
0010
0000
0100
0000
0100
0000
0000
,
0000
0000
0000
1000
0000
1000
0000
1000
,
0000
1000
0000
0010
0000
0010
0000
0010
,
0000
0010
0000
0100
0000
0100
0000
0100
,
0000
0100
0000
0001
0000
0001
0000
0001
,
0000
0001
1000
0002
0000
0000
0000
0000
,
0000
0000
0000
0000
,
0000
0003
0000
1001
0000
0000
0000
0000
,
0000
1000
0000
0010
,
0000
0100
0000
0001
,
0000
1000
0000
0100
,
0000
0010
0000
0001
,
0000
1000
0000
0010
,
0100
0010
0100
0000
0001
0000
0000
1000
,
0000
0010
0000
0000
,
1000
0000
0000
0001
0000
0000
0010
0000
,
0100
0010
0100
0010
,
0100
1000
1000
0001
,
0100
0010
0100
0010
,
0100
0000
0001
0001
0000
0000
1000
0000
,
0001
1000
0010
1000
,
0001
0000
0001
0001
0000
0000
1000
0000
,
0010
1000
0100
0000
,
0100
0000
0010
0010
,
0010
0010
0001
0001
,
0001
0001
1000
1000
,
1000
1000
0010
0100
,
0020
0030
1000
0000
0001
0000
1000
0000
,
0010
1000
0001
1000
,
0010
1000
0000
0000
0001
0000
0100
0000
,
0001
1000
0001
0100
,
0001
1000
0000
0000
0010
0000
0010
0000
,
0010
0010
0010
0100
,
0100
0100
0001
1000
,
0001
0000
1000
0000
0001
0000
1000
0001
,
1000
0001
1000
0000
0000
0000
0001
0000
,
1000
0001
0010
0001
,
1000
0010
1000
0001
,
0100
0010
1000
0100
,
0100
0000
0000
0010
,
0001
1000
0010
1000
,
0000
0001
0100
0010
,
0000
0000
1000
0001
,
0010
0000
0100
1000
,
0000
0001
0000
1000
0000
0000
0001
0000
,
0000
0100
0000
0010
0000
0000
0100
0000
,
0000
0001
0000
1000
0000
0000
0100
0000
,
0000
0010
0000
0001
0000
0000
1000
0000
,
0000
0010
0000
0100
0000
0000
0002
0000
,
0000
0000
0000
0000
,
0000
0003
0000
1001
0000
0001
1000
0000
,
0002
0000
0000
0100
,
0000
0000
0000
0010
,
0000
0000
0000
0100
,
0000
0000
0000
0000
0000
0000
0003
0010
,
0000
0000
0010
0000
0000
0020
0000
0000
,
0000
0000
0000
0000
,
0030
0000
0000
0000
;
